<?xml version="1.0" standalone="no"?>
<!DOCTYPE svg PUBLIC "-//W3C//DTD SVG 1.1//EN" "http://www.w3.org/Graphics/SVG/1.1/DTD/svg11.dtd" >
<svg xmlns="http://www.w3.org/2000/svg" xmlns:xlink="http://www.w3.org/1999/xlink" version="1.1">
<metadata></metadata>
<defs>
<font id="fc_flexica_italicitalic" horiz-adv-x="0" >
<font-face units-per-em="2048" ascent="1638" descent="-410" />
<missing-glyph horiz-adv-x="409" />
<glyph unicode="fi" horiz-adv-x="1067" d="M178 901l29 164h162l4 29q35 183 116 271.5t226 88.5q58 0 107.5 -12t72.5 -33l-61 -143q-46 22 -101 22q-71 0 -101.5 -47t-47.5 -145l-4 -31h202l-28 -164h-203l-160 -901h-211l160 901h-162zM735 0l189 1065h211l-189 -1065h-211zM938 1292q11 56 53.5 92.5 t100.5 36.5q57 0 88 -36.5t20 -92.5q-9 -56 -52.5 -92.5t-100.5 -36.5q-58 0 -88 36.5t-21 92.5z" />
<glyph unicode="fl" horiz-adv-x="1026" d="M178 901l29 164h162l4 29q35 183 116 271.5t226 88.5q58 0 107.5 -12t72.5 -33l-61 -143q-46 22 -101 22q-71 0 -101.5 -47t-47.5 -145l-4 -31h202l-28 -164h-203l-160 -901h-211l160 901h-162zM715 0l252 1434h211l-252 -1434h-211z" />
<glyph unicode="&#xe24;&#xe32;" horiz-adv-x="1474" d="M123 317l12 70q21 109 90 186.5t176 104.5l-229 51l14 86q30 167 160 274t313 107q189 0 277 -82q56 36 138 59t167 23q183 0 257 -94.5t36 -317.5l-211 -1194h-221l211 1194q13 60 10 102t-10.5 68t-28.5 40t-43.5 19t-56.5 5q-96 0 -176 -39q26 -105 -4 -277 l-195 -1112h-219l196 1123q31 171 -7 238t-150 67q-91 0 -153 -51t-83 -152l217 -49l-16 -92q-200 -64 -234 -260l-10 -52q-9 -62 -7 -107t41 -66.5t122 -12.5l-31 -174q-209 -24 -295.5 60.5t-56.5 254.5z" />
<glyph unicode="&#xe26;&#xe32;" horiz-adv-x="1521" d="M29 2l30 174q21 -3 38.5 -3t31.5 2t25.5 8t20 12.5t16 18t12.5 22.5t10 28t8.5 32.5t7.5 37.5l11 63q23 123 66 189t143 92l-230 51l14 86q30 167 160.5 274t313.5 107q188 0 276 -82q56 36 138 59t167 23q183 0 257 -94.5t36 -317.5l-211 -1194h-221l211 1194 q13 60 10 102t-10.5 68t-28.5 40t-43.5 19t-56.5 5q-96 0 -176 -39q26 -105 -4 -277l-195 -1112h-219l197 1123q31 171 -7.5 238t-150.5 67q-91 0 -153 -51t-83 -152l217 -49l-16 -92q-47 -15 -78.5 -38t-50.5 -59t-29 -71t-20 -92l-21 -113q-16 -90 -43.5 -149.5 t-75.5 -98.5t-120 -51t-174 0z" />
<glyph unicode="FontcraftLogo" horiz-adv-x="1617" d="M123 -213l39 213h102l-8 -35h-59l-9 -53h50l-9 -33h-47l-18 -92h-41zM129 772q0 138 54 264t145 217t217.5 145t265.5 54q138 0 263.5 -54t216.5 -145t144.5 -217t53.5 -264t-53.5 -264t-144.5 -217t-216.5 -145t-263.5 -54q-139 0 -265.5 54t-217.5 145t-145 217 t-54 264zM250 772q0 -152 75.5 -281t204.5 -203.5t281 -74.5q151 0 280 76t203 205t74 278q0 153 -75.5 282t-203.5 203t-278 74q-114 0 -218 -44.5t-179 -119.5t-119.5 -178.5t-44.5 -216.5zM276 -160l19 107q6 26 24 41.5t43 15.5t38.5 -15.5t9.5 -41.5l-19 -107 q-11 -55 -67 -55t-48 55zM317 -162q0 -18 13 -18q16 0 16 18l23 109q0 20 -13 20q-15 0 -18 -20zM350 772q0 190 134.5 322.5t326.5 132.5q81 0 158.5 -29t138.5 -80l-82 -368q-14 -60 -34 -83.5t-60 -23.5q-36 0 -56 18t-14 56l33 155q2 18 -9.5 33t-39.5 15q-42 0 -51 -41 l-33 -150q-7 -38 -32 -66t-71 -28q-66 0 -47 90l27 133q6 38 -17.5 53t-68.5 15q-86 0 -86 -54q0 -23 11.5 -39t31.5 -16h14l-14 -76q-20 -87 17 -145.5t132 -58.5q98 0 136 79q9 -41 50.5 -60t86.5 -19q146 0 184 168l74 319q74 -122 74 -252q0 -93 -36.5 -178t-97.5 -146 t-144.5 -97t-174.5 -36q-192 0 -326.5 133.5t-134.5 323.5zM430 -213l35 213h47l6 -109v-26h2q0 5 1 11t2.5 13t2.5 11l15 100h43l-37 -213h-43l-12 137l-25 -137h-37zM618 -35l7 35h112l-6 -35h-37l-28 -178h-45l32 178h-35zM748 -160l18 107q6 26 24.5 41.5t43.5 15.5 q23 0 36 -14t9 -39q0 -2 -5 -17l-40 -2q2 6 2 15q3 20 -9 20q-13 0 -16 -20l-23 -109q0 -18 13 -18t18 18l2 15h41l-2 -13q-8 -55 -65 -55q-55 0 -47 55zM895 -213l37 213h57q53 0 43 -59v-7q-8 -32 -33 -43l7 -104h-45v96h-9l-16 -96h-41zM958 -86h11q15 0 20 20l4 11 q0 22 -14 22h-12zM1040 -213l76 213h51l7 -213h-48l2 47h-32l-15 -47h-41zM1110 -127h18l2 61zM1208 -213l39 213h103l-7 -35h-61l-8 -53h49l-6 -33h-49l-19 -92h-41zM1376 -35l6 35h113l-6 -35h-33l-33 -178h-45l33 178h-35z" />
<glyph />
<glyph />
<glyph unicode="&#xd;" horiz-adv-x="512" />
<glyph unicode="&#xa;" horiz-adv-x="614" />
<glyph unicode=" "  horiz-adv-x="409" />
<glyph unicode="&#x09;" horiz-adv-x="409" />
<glyph unicode="&#xa0;" horiz-adv-x="409" />
<glyph unicode="!" horiz-adv-x="440" d="M104 137q11 59 57.5 98t106.5 39q62 0 94.5 -38.5t22.5 -98.5q-11 -59 -58 -98t-108 -39q-60 0 -93 39t-22 98zM197 406l159 1028h232l-203 -1028h-188z" />
<glyph unicode="&#x22;" horiz-adv-x="684" d="M244 901l67 533h226l-125 -533h-168zM584 901l67 533h228l-125 -533h-170z" />
<glyph unicode="#" horiz-adv-x="1148" d="M100 344l31 184h227l125 340h-196l32 185h234l135 381h201l-135 -381h161l138 381h200l-135 -381h178l-32 -185h-215l-125 -340h184l-31 -184h-217l-127 -344h-198l124 344h-165l-123 -344h-203l127 344h-195zM559 528h164l125 340h-164z" />
<glyph unicode="$" horiz-adv-x="888" d="M61 74l84 159q119 -45 263 -45q245 0 280 193q10 56 0.5 99.5t-45 78t-60 51t-79.5 47.5q-8 5 -12 7q-32 18 -57.5 34t-53 36t-47 39.5t-40 43.5t-31.5 48.5t-21 54.5t-9 60.5t5 68.5q33 183 126 274.5t254 112.5l44 243h219l-45 -245q146 -17 229 -72l-82 -160 q-130 45 -262 45q-46 0 -81.5 -5.5t-74 -21.5t-64.5 -51.5t-36 -87.5q-5 -35 -2.5 -63.5t14 -52t28 -42.5t39 -36t46 -32t50.5 -30q11 -6 16.5 -9.5t15 -8.5t16.5 -10q31 -19 53.5 -34.5t48 -35.5t43.5 -39.5t35.5 -43t27.5 -50t16.5 -57t6 -66.5t-7.5 -76 q-56 -311 -325 -381l-45 -260h-219l40 240q-192 8 -301 80z" />
<glyph unicode="%" horiz-adv-x="1165" d="M231 1096l7 26q29 167 106 243.5t184 76.5q108 0 160 -76.5t23 -243.5l-6 -26q-29 -166 -107.5 -243t-185.5 -77q-106 0 -158 77.5t-23 242.5zM236 0l749 1434h197l-750 -1434h-196zM395 1098q-28 -158 45 -158q81 0 109 158l4 24q25 154 -53 154q-76 0 -101 -154z M709 311l4 27q29 167 107.5 243t185.5 76t158 -76t22 -243l-4 -27q-29 -166 -108.5 -242.5t-186.5 -76.5t-157 76t-21 243zM867 193q11 -37 48 -37q79 0 107 157l4 23q25 156 -51 156t-101 -156l-4 -23q-14 -83 -3 -120z" />
<glyph unicode="&#x26;" horiz-adv-x="1013" d="M122 392q53 184 204 325q49 47 106 84q-1 3 -14.5 38t-18.5 44q-30 76 -38 153.5t10 150.5t60.5 129.5t122.5 91t187 34.5q60 0 110 -10.5t78 -26t47.5 -30.5t26.5 -25l7 -11l-90 -145q-3 3 -8 7.5t-23 16t-38.5 20.5t-54 16.5t-69.5 7.5q-60 0 -97.5 -23.5t-50 -58 t-10.5 -80.5t12 -84.5t25 -77.5l162 -424q75 180 72 391h192q2 -158 -43 -316t-133 -292l119 -297h-230l-49 119q-156 -127 -348 -127q-153 0 -215 119q-58 114 -11 281zM328 230q25 -52 100 -52q115 0 205 107l-139 354q-85 -76 -140 -198q-62 -138 -26 -211z" />
<glyph unicode="'" horiz-adv-x="344" d="M244 901l67 533h226l-125 -533h-168z" />
<glyph unicode="(" horiz-adv-x="595" d="M242 680q77 445 344 833h223q-147 -216 -226.5 -395.5t-123.5 -437.5q-32 -177 -33 -325t20.5 -260.5t67.5 -254.5h-223q-130 387 -49 840z" />
<glyph unicode=")" horiz-adv-x="595" d="M25 -160q145 209 226 394.5t126 443.5q32 179 33.5 323.5t-20.5 256.5t-71 255h224q133 -388 53 -835q-78 -450 -348 -838h-223z" />
<glyph unicode="*" horiz-adv-x="729" d="M240 1141l79 151l185 -69l28 211h168l-45 -211l209 69l29 -151l-219 -60l100 -174l-149 -92l-84 178l-152 -178l-117 92l162 174z" />
<glyph unicode="+" horiz-adv-x="927" d="M184 598l33 182h277l51 287h215l-51 -287h278l-33 -182h-278l-49 -287h-215l49 287h-277z" />
<glyph unicode="," horiz-adv-x="368" d="M-59 -225l200 471h242l-258 -471h-184z" />
<glyph unicode="-" horiz-adv-x="915" d="M184 598l33 182h758l-33 -182h-758z" />
<glyph unicode="." horiz-adv-x="362" d="M63 141q11 59 60.5 101.5t107.5 42.5q59 0 93 -42t24 -102q-10 -58 -59.5 -99.5t-108.5 -41.5t-93 41.5t-24 99.5z" />
<glyph unicode="/" horiz-adv-x="612" d="M18 0l615 1434h215l-615 -1434h-215z" />
<glyph unicode="0" horiz-adv-x="1021" d="M163.5 355.5q-2.5 82.5 5 162t24.5 174.5l8 47q20 115 46 208.5t71.5 189t104 160t146 105t195.5 40.5q78 0 138 -21t99 -57t64 -89t35.5 -112t11 -132t-7 -142.5t-21.5 -149.5l-8 -47q-14 -80 -31.5 -149t-43.5 -142t-57 -131.5t-75 -111.5t-95.5 -88.5t-119 -56.5 t-145.5 -21q-91 0 -157.5 27t-104.5 77.5t-59 113.5t-23.5 145.5zM387.5 441.5q-0.5 -38.5 2 -81t13.5 -72t28.5 -54.5t46 -37.5t65.5 -12.5q42 0 78.5 18t63.5 45t51 72t40 86.5t31.5 101t24.5 103.5t20 105q10 61 16.5 105.5t12 103.5t4.5 101t-9.5 86.5t-26 72.5 t-48 45.5t-72.5 17.5q-43 0 -79.5 -18t-63.5 -45t-51 -72t-39.5 -87t-30.5 -101.5t-23.5 -103.5t-19.5 -105q-9 -52 -15.5 -91.5t-12.5 -91.5t-6.5 -90.5z" />
<glyph unicode="1" horiz-adv-x="739" d="M256 1001l37 201q210 91 364 232h172l-251 -1434h-220l209 1188q-86 -110 -311 -187z" />
<glyph unicode="2" horiz-adv-x="907" d="M70 0l39 215q18 106 63.5 193.5t104.5 147t126.5 110.5t133.5 94.5t122 87t96.5 101t51.5 124.5q3 29 4 52t-7 41t-17 31t-25.5 22t-31.5 14.5t-36 8.5t-38.5 4t-39.5 1q-129 0 -272 -45l-31 160q77 39 179.5 59.5t191.5 20.5q205 0 291.5 -84.5t54.5 -261.5 q-17 -98 -61.5 -179.5t-102.5 -137t-124.5 -105t-133 -95t-123.5 -94.5t-99 -116t-56 -148l-6 -33h532l-33 -188h-753z" />
<glyph unicode="3" horiz-adv-x="919" d="M72 72l84 159q127 -45 254 -45q58 0 102 10t85 35t68.5 73.5t39.5 119.5q5 28 6.5 55t-5.5 62.5t-25 61.5t-57.5 44.5t-97.5 18.5h-131l33 182h131q55 0 98.5 17.5t67 40t41 57t23 56.5t10.5 50q4 38 2 66t-17 47.5t-32.5 32.5t-43.5 20t-50 9.5t-52 2.5q-125 0 -268 -45 l-29 160q77 39 175 59.5t180 20.5q213 0 301 -89t53 -280q-21 -123 -87.5 -213.5t-154.5 -103.5q88 -12 129.5 -110t16.5 -236q-37 -213 -172.5 -315.5t-352.5 -102.5q-82 0 -172.5 20.5t-152.5 59.5z" />
<glyph unicode="4" horiz-adv-x="919" d="M88 281l16 92l678 1061h209l-170 -967h144l-33 -186h-144l-49 -281h-219l49 281h-481zM371 467h235l94 534z" />
<glyph unicode="5" horiz-adv-x="899" d="M82 70l84 161q127 -45 219 -45q258 0 303 258q45 254 -215 254h-252l19 101l135 635h651l-31 -185h-448l-78 -368h20q62 0 114 -5.5t102 -19t86.5 -35.5t67 -55t44.5 -77.5t18.5 -103.5t-10.5 -132q-40 -230 -182 -345.5t-356 -115.5q-169 0 -291 78z" />
<glyph unicode="6" horiz-adv-x="960" d="M147.5 264.5q-6.5 45.5 1 127.5t14.5 128t23 133q5 26 7 39q26 151 56 261t76 206.5t106 156t144.5 93t192.5 33.5q88 0 180.5 -21t149.5 -59l-82 -158q-113 43 -260 43q-134 0 -211.5 -98.5t-116.5 -325.5q14 32 85 72.5t175 40.5q84 0 145 -27t94 -71t49 -104.5 t15.5 -121t-12.5 -127.5l-8 -45q-12 -68 -33.5 -128t-61 -120.5t-92.5 -103t-132 -69.5t-175 -27q-85 0 -147.5 22.5t-99.5 54t-56.5 91t-26 105zM373 461q-25 -140 9.5 -214.5t131.5 -74.5q196 0 248 289q52 291 -146 291q-191 0 -243 -291z" />
<glyph unicode="7" horiz-adv-x="866" d="M211 0l575 1245h-528l33 189h790l-12 -80l-627 -1354h-231z" />
<glyph unicode="8" horiz-adv-x="987" d="M141 406q51 289 267 342q-59 16 -92.5 65t-38 114t7.5 140q30 170 152.5 272.5t310.5 102.5t275.5 -103t57.5 -272q-22 -119 -83 -207.5t-156 -111.5q200 -53 149 -342q-34 -194 -163 -304t-334 -110q-206 0 -296.5 109.5t-56.5 304.5zM360 422q-41 -236 166 -236 t248 236q43 231 -166 231q-57 0 -101 -17.5t-68.5 -41t-42.5 -59.5t-24 -59t-12 -54zM494.5 978q-1.5 -31 6.5 -51t22.5 -41.5t44.5 -32.5t73 -11q182 0 221 223q15 88 -24 135t-125 47q-87 0 -140.5 -47t-68.5 -135q-5 -26 -6.5 -41t-3 -46z" />
<glyph unicode="9" horiz-adv-x="960" d="M115 72l86 159q105 -45 258 -45q133 0 209.5 98.5t117.5 325.5q-17 -33 -86.5 -71.5t-173.5 -38.5q-71 0 -125 18.5t-87.5 51.5t-54.5 75t-27.5 94t-5 103t11.5 106l8 47q12 68 33 127.5t60 119.5t91 103t130.5 70t174.5 27q86 0 148.5 -23t100 -54t56.5 -91.5t26 -105.5 t-0.5 -129t-14.5 -128.5t-23 -135.5q-4 -23 -6 -34q-22 -124 -46.5 -219.5t-59 -183.5t-78 -149t-100 -107t-130 -68t-164.5 -22q-88 0 -179 21t-150 59zM453 973q-25 -142 11 -216.5t134 -74.5q194 0 246 291q25 140 -10.5 214.5t-133.5 74.5q-195 0 -247 -289z" />
<glyph unicode=":" horiz-adv-x="444" d="M104 141q11 59 60.5 101.5t107.5 42.5q59 0 93 -42t24 -102q-10 -58 -59.5 -99.5t-108.5 -41.5t-93 41.5t-24 99.5zM244 934q10 58 59.5 99.5t108.5 41.5t92.5 -40.5t23.5 -100.5q-9 -58 -59 -99.5t-109 -41.5q-58 0 -91.5 41t-24.5 100z" />
<glyph unicode=";" horiz-adv-x="444" d="M-53 -225l200 471h250l-258 -471h-192zM244 934q10 58 59.5 99.5t108.5 41.5t92.5 -40.5t23.5 -100.5q-9 -58 -59 -99.5t-109 -41.5q-58 0 -91.5 41t-24.5 100z" />
<glyph unicode="&#x3c;" horiz-adv-x="804" d="M180 569l15 80l741 547l-43 -248l-463 -340l342 -336l-43 -247z" />
<glyph unicode="=" horiz-adv-x="933" d="M184 428l31 180h717l-31 -180h-717zM244 770l32 180h717l-32 -180h-717z" />
<glyph unicode="&#x3e;" horiz-adv-x="804" d="M84 25l43 247l461 336l-340 340l43 248l549 -547l-15 -80z" />
<glyph unicode="?" horiz-adv-x="845" d="M287 137q11 59 58 98t108 39q60 0 93 -38.5t23 -98.5q-10 -58 -58 -97.5t-108 -39.5q-61 0 -94 39t-22 98zM299 1362q77 39 178 59.5t187 20.5q181 0 260 -85t51 -247q-11 -62 -35 -112.5t-53.5 -85.5t-63.5 -67t-68.5 -66t-65 -73t-55.5 -97.5t-38 -131.5l-12 -71h-219 l12 71q15 85 42 154.5t58.5 115.5t67 84.5t69 68.5t62 59t50 65t28.5 78q14 79 -28 112t-128 33q-127 0 -270 -45z" />
<glyph unicode="@" horiz-adv-x="1431" d="M138.5 315q0.5 119 23.5 260q23 130 65.5 242.5t111 212t157 170t210 111.5t263.5 41q116 0 207.5 -27t152.5 -77t101 -117.5t56 -152.5t14.5 -177.5t-19.5 -196.5q-10 -58 -25.5 -114t-46 -123t-69.5 -116t-98.5 -82.5t-129.5 -33.5q-63 0 -110 28t-58 85 q-77 -103 -235 -103q-59 0 -103.5 18t-71 50.5t-42.5 73t-19.5 89.5t-1 95.5t11.5 95.5q11 63 27.5 119t47 117t70 104.5t100 72t132.5 28.5q67 0 107.5 -22.5t60.5 -72.5l25 86h170l-105 -587q0 -2 -2 -15.5t-3 -21t-2 -21.5t1 -22t5 -17t9.5 -13.5t16.5 -4.5q98 0 151 307 q14 81 17.5 149.5t-4 136t-33 119.5t-67.5 92t-110 61.5t-157 21.5q-108 0 -199 -33.5t-154.5 -90t-112.5 -136.5t-78 -165t-46 -184q-20 -110 -20.5 -198t23 -165t73.5 -128t136 -80t206 -29q89 0 211 17l-31 -178q-132 -11 -213 -11q-156 0 -271 35.5t-184 102t-105.5 161 t-36 213.5zM665.5 452.5q-1.5 -33.5 5 -57t18 -45.5t35.5 -33.5t58 -11.5q75 0 138 60l75 426q-45 57 -116 57q-32 0 -59 -10.5t-45.5 -25t-34.5 -41t-24.5 -46.5t-17 -54.5t-12 -52.5t-8.5 -51q-6 -33 -8.5 -57t-4 -57.5z" />
<glyph unicode="A" horiz-adv-x="925" d="M18 0l578 1434h238l73 -1434h-229l-8 336h-295l-127 -336h-230zM442 516h222l-15 541z" />
<glyph unicode="B" horiz-adv-x="923" d="M80 0l252 1434h327q191 0 281 -94q67 -69 68 -185q0 -41 -9 -88q-46 -248 -249 -315q119 -19 172 -108q36 -60 36 -144q0 -39 -8 -84q-37 -211 -176.5 -313.5t-353.5 -102.5h-340zM332 184h98q101 0 164.5 29t94 78t44.5 127q7 37 7 68q0 67 -32 105q-48 56 -196 56h-98z M446 831h84q60 0 107 20.5t75 54.5t44.5 70t23.5 77q5 26 5 49q-1 62 -35 98q-46 49 -148 49h-82z" />
<glyph unicode="C" horiz-adv-x="917" d="M160 487q4 105 26 230t56 230t87.5 198t122 157.5t162.5 102t207 37.5q82 0 154 -18t103 -36l32 -18l-80 -166q-104 41 -219 41q-75 0 -135.5 -31t-100 -79.5t-71 -121.5t-49.5 -141.5t-33 -154.5q-16 -86 -22 -155q-3 -36 -4 -73q0 -35 3 -69q6 -72 29 -121t72.5 -80 t124.5 -31q51 0 109.5 11t91.5 21l32 11l23 -165q-15 -8 -42 -20.5t-109.5 -33t-164.5 -20.5q-113 0 -194 37.5t-127 102t-66 157.5q-18 79 -18 168q-1 15 0 30z" />
<glyph unicode="D" horiz-adv-x="958" d="M80 0l252 1434h239q108 0 189.5 -16t138 -44.5t91.5 -76t52.5 -102t19.5 -131.5q0 -15 1 -29q1 -63 -7 -127q-8 -78 -28 -183q-22 -125 -45.5 -215t-61 -177t-88.5 -144.5t-123 -102.5t-170.5 -65.5t-224.5 -20.5h-235zM332 184h24q83 0 145.5 14.5t107 51t73.5 74.5 t51.5 109.5t35 128.5t30.5 159q13 76 20 119.5t13 103.5q4 38 4 64q0 16 -2 28q-4 33 -12.5 73.5t-30.5 61.5t-54 41.5t-79.5 28.5t-110.5 8h-27z" />
<glyph unicode="E" horiz-adv-x="798" d="M80 0l252 1434h661l-30 -185h-443l-74 -418h355l-33 -184h-354l-82 -463h442l-33 -184h-661z" />
<glyph unicode="F" horiz-adv-x="806" d="M80 0l252 1434h667l-30 -185h-449l-78 -440h367l-33 -184h-366l-111 -625h-219z" />
<glyph unicode="G" horiz-adv-x="999" d="M160 398q2 76 11.5 152t25.5 167q18 106 42.5 193.5t60.5 172t85.5 148t112 112t146 74t183.5 25.5q81 0 163.5 -19.5t124.5 -38.5l42 -20l-80 -166q-151 47 -260 47q-51 0 -95 -11.5t-78 -35.5t-61 -51.5t-48.5 -69.5t-36.5 -79t-29 -90.5t-22 -93t-19 -97.5 q-38 -219 -38 -311q0 -187 123 -213q22 -5 48 -5q55 0 104 19.5t78 48.5l70 391h-195l31 180h416l-145 -827h-195l2 117q-32 -50 -99 -87.5t-169 -37.5q-69 0 -121 19.5t-86 53.5t-55.5 86.5t-29.5 111.5q-7 50 -7 111v24z" />
<glyph unicode="H" horiz-adv-x="972" d="M90 0l252 1434h219l-104 -603h354l104 603h222l-252 -1434h-221l114 647h-354l-115 -647h-219z" />
<glyph unicode="I" horiz-adv-x="458" d="M121 0l252 1434h219l-252 -1434h-219z" />
<glyph unicode="J" horiz-adv-x="706" d="M37 43l67 154q28 -12 81.5 -21.5t82.5 -9.5q73 0 119.5 46t61.5 136l159 905h-213l31 181h432l-188 -1080q-34 -184 -137.5 -273t-260.5 -89q-63 0 -135 13t-100 38z" />
<glyph unicode="K" horiz-adv-x="921" d="M80 0l252 1434h219l-252 -1434h-219zM426 717l483 717h236l-494 -717l254 -717h-235z" />
<glyph unicode="L" horiz-adv-x="759" d="M80 0l252 1434h219l-219 -1250h424l-33 -184h-643z" />
<glyph unicode="M" horiz-adv-x="1200" d="M90 0l252 1434h227l95 -1069l471 1069h227l-252 -1434h-219l145 819l-362 -819h-148l-71 819l-146 -819h-219z" />
<glyph unicode="N" horiz-adv-x="1003" d="M90 0l252 1434h213l223 -963l168 963h221l-252 -1434h-215l-221 963l-170 -963h-219z" />
<glyph unicode="O" horiz-adv-x="1032" d="M165 401q2 75 10.5 141.5t23.5 149.5l8 47q15 83 30 149.5t39.5 142t53.5 132.5t72 112t94.5 90t121 56t152.5 21q82 0 144.5 -21t102 -56.5t63.5 -89.5q24 -53 34 -111q8 -50 8 -113v-20q-2 -75 -10 -142t-22 -150l-9 -47q-15 -83 -30.5 -149.5t-40.5 -141.5t-54.5 -132 t-73 -111t-95 -89t-121.5 -56t-152 -21q-83 0 -145 21t-101.5 56t-63 89t-32.5 111q-7 47 -7 105v27zM398 443q0 -7 -1 -15q0 -31 2 -65q2 -43 13 -71.5t27.5 -54t44.5 -37.5t65 -12q42 0 78.5 18t63 44t50 71.5t38 85t30 101t23.5 102t20 105.5q10 56 15.5 92t12 90t6.5 90 q0 7 1 15q0 30 -2 65q-2 44 -13 72.5t-27.5 54t-44.5 37.5t-65 12q-42 0 -78.5 -17.5t-63 -44.5t-49.5 -72t-38 -85.5t-30 -101t-23 -102.5t-19 -105q-10 -54 -16 -91.5t-13 -90.5t-7 -90z" />
<glyph unicode="P" horiz-adv-x="899" d="M80 0l252 1434h368q192 0 285 -102q68 -75 68 -198q0 -45 -9 -96q-33 -194 -164 -303.5t-321 -109.5h-149l-111 -625h-219zM442 809h123q222 0 266 233q5 30 5 55q0 61 -30 99q-44 52 -163 53h-123z" />
<glyph unicode="Q" horiz-adv-x="1044" d="M153 481q7 90 29 211l8 47q20 116 46 209t72.5 188.5t107.5 160t152.5 105t205.5 40.5q82 0 145.5 -21t105 -57t68 -89t38.5 -112t13 -132v-10q0 -68 -7 -133q-7 -69 -21 -149l-8 -47q-18 -101 -42 -183.5t-62.5 -167.5t-98 -148.5t-135.5 -98.5l268 -67l-32 -191 l-562 152q-91 25 -152 70.5t-93.5 105t-42.5 143.5q-6 49 -6 101q0 36 3 73zM384 398q1 -42 7.5 -69.5t18.5 -56.5t31 -45.5t47.5 -27.5t64.5 -11q46 0 86 18t68.5 44t53.5 71.5t40.5 85t31.5 101t24 102.5t20 105q8 49 13.5 81.5t11.5 80.5t8 81v43v31q-1 42 -8 69.5 t-19.5 56.5t-31.5 46t-47.5 28t-64.5 11t-68 -11t-57 -27.5t-47.5 -46t-38.5 -57t-31.5 -69t-25 -74t-20.5 -81.5t-16.5 -81t-14.5 -81t-14.5 -81t-12 -80.5t-7.5 -81.5q-2 -25 -2 -54v-20z" />
<glyph unicode="R" horiz-adv-x="911" d="M80 0l252 1434h368q192 0 285 -102q68 -75 68 -198q0 -45 -9 -96q-26 -146 -110 -247t-207 -138l176 -653h-239l-152 625h-100l-113 -625h-219zM442 809h123q222 0 266 233q5 30 5 55q0 61 -30 99q-44 52 -163 53h-123z" />
<glyph unicode="S" horiz-adv-x="888" d="M61 74l84 159q119 -45 263 -45q245 0 280 193q5 29 5 54q-1 23 -5 45q-10 44 -45 78.5t-59.5 51t-79.5 47.5q-8 5 -12 7q-32 18 -57.5 34t-53 36t-47 39.5t-40 43.5t-31.5 48.5t-21 54.5t-9 60.5t5 68.5q37 212 157.5 302.5t337.5 90.5q83 0 176.5 -20.5t155.5 -59.5 l-82 -160q-130 45 -262 45q-46 0 -81.5 -5.5t-74 -21.5t-64.5 -51.5t-36 -87.5q-5 -35 -2 -63.5t14 -52t27.5 -42.5t39 -36t46 -32t50.5 -30q11 -6 16.5 -9.5t15 -8.5t16.5 -10q31 -19 53.5 -34.5t48 -35.5t43.5 -39.5t35.5 -43t27.5 -50t16 -56.5q6 -28 6 -62v-5 q0 -36 -7 -76q-37 -211 -167.5 -307t-348.5 -96q-86 0 -179.5 20.5t-154.5 61.5z" />
<glyph unicode="T" horiz-adv-x="866" d="M250 1249l31 185h811l-31 -185h-297l-221 -1249h-219l221 1249h-295z" />
<glyph unicode="U" horiz-adv-x="1042" d="M168 320q0 4 -1 9q0 60 7 119q7 63 21 144l147 842h219l-145 -834q-31 -178 -31 -234q0 -134 90 -166q33 -12 78 -12q35 0 65 7.5t53.5 19t43.5 33t34 41t26.5 51.5t20.5 56.5t17 64t14 66t12 69.5q1 4 1 6l145 832h219l-147 -842q-20 -114 -44 -198t-65.5 -163.5 t-97 -129t-139.5 -79.5t-193 -30q-79 0 -138.5 15.5t-99.5 42t-65 69t-36 90t-11 111.5z" />
<glyph unicode="V" horiz-adv-x="925" d="M270 1434h230l28 -1057l402 1057h229l-577 -1434h-238z" />
<glyph unicode="W" horiz-adv-x="1384" d="M291 1434h231l-20 -998l348 998h188v-998l328 998h233l-509 -1434h-199l-23 991l-374 -991h-199z" />
<glyph unicode="X" horiz-adv-x="935" d="M18 0l402 717l-150 717h238l108 -600l316 600h239l-399 -717l148 -717h-240l-105 602l-319 -602h-238z" />
<glyph unicode="Y" horiz-adv-x="935" d="M270 1434h238l106 -613l318 613h239l-497 -885l-96 -549h-222l97 549z" />
<glyph unicode="Z" horiz-adv-x="886" d="M59 0l21 115l690 1134h-489l30 185h770l-18 -115l-690 -1135h489l-33 -184h-770z" />
<glyph unicode="[" horiz-adv-x="620" d="M92 -164l295 1680h440l-30 -185h-222l-231 -1311h221l-33 -184h-440z" />
<glyph unicode="\" horiz-adv-x="108" d="M18 1434h215l111 -1434h-215z" />
<glyph unicode="]" horiz-adv-x="620" d="M31 -164l32 184h222l231 1311h-221l31 185h440l-295 -1680h-440z" />
<glyph unicode="^" horiz-adv-x="841" d="M211 860l358 574h207l158 -574h-227l-70 361l-199 -361h-227z" />
<glyph unicode="_" horiz-adv-x="956" d="M6 -182l33 182h881l-33 -182h-881z" />
<glyph unicode="`" horiz-adv-x="428" d="M252 1434h235l88 -492h-194z" />
<glyph unicode="a" horiz-adv-x="837" d="M92 299q50 280 326 326l248 41l14 77q5 33 5 58q0 44 -16 66q-26 34 -120 34q-113 0 -252 -41l-31 144q59 31 157.5 50t178.5 19q183 0 251 -79q46 -54 46 -153q0 -47 -10 -104l-129 -737h-189l4 111q-136 -119 -276 -119q-122 0 -177 84q-38 58 -38 142q0 38 8 81z M313 311q-4 -22 -4 -41q0 -38 15 -64q22 -40 82 -40q87 0 184 67l47 263l-170 -35q-69 -15 -106.5 -50t-47.5 -100z" />
<glyph unicode="b" horiz-adv-x="911" d="M80 0l252 1434h211l-70 -406q85 45 180 45q310 0 311 -355q0 -89 -20 -200q-47 -262 -158.5 -394t-275.5 -132q-86 0 -138.5 32.5t-68.5 86.5l-37 -111h-186zM332 231q50 -65 145 -65q102 0 162 92.5t90 261.5q17 109 17 181q0 77 -26 121q-24 43 -60 60t-89 17 q-67 0 -125 -20z" />
<glyph unicode="c" horiz-adv-x="808" d="M139 284q-2 28 -2 59q0 83 17 189q49 279 178.5 410t316.5 131q79 0 160.5 -17t128.5 -48l-78 -144q-100 35 -205 35q-222 0 -284 -354q-14 -79 -13 -142q0 -83 23 -139q42 -98 149 -98q103 0 213 35l27 -146q-57 -29 -145 -46t-166 -17q-91 0 -157 29.5t-110 95 t-53 167.5z" />
<glyph unicode="d" horiz-adv-x="911" d="M152 518q22 124 58 220t80.5 158.5t100.5 103t115.5 57t128.5 16.5q98 0 168 -45l69 406h211l-252 -1434h-186l4 111q-35 -54 -100.5 -86.5t-151.5 -32.5q-164 0 -228 132q-37 76 -37 195q0 88 20 199zM352 334q2 -78 36.5 -123t103.5 -45q98 0 170 65l114 648 q-52 20 -121 20q-53 0 -95 -17.5t-79.5 -59.5t-66 -117t-47.5 -185q-16 -98 -16 -173q1 -7 1 -13z" />
<glyph unicode="e" horiz-adv-x="827" d="M132 288q-2 21 -2 43q0 69 15 154l13 68q26 145 70.5 248t105 161.5t128.5 84.5t152 26q65 0 114.5 -12.5t89.5 -41.5t60 -77q19 -46 25 -116q2 -17 1 -37q0 -57 -13 -127q-15 -90 -45 -205h-500q-7 -55 -7 -99q0 -86 26 -130q39 -66 137 -66q94 0 237 39l27 -146 q-57 -29 -148.5 -46t-171.5 -17q-71 0 -125 15t-97 49.5t-64.5 91t-27.5 140.5zM375 618h309l8 48q11 62 11 107q1 49 -13 79q-26 56 -104 57q-148 0 -211 -291z" />
<glyph unicode="f" horiz-adv-x="614" d="M178 901l29 164h162l4 29q35 183 116 271.5t226 88.5q58 0 107.5 -12t72.5 -33l-61 -143q-46 22 -101 22q-71 0 -101.5 -47t-47.5 -145l-4 -31h202l-28 -164h-203l-160 -901h-211l160 901h-162z" />
<glyph unicode="g" horiz-adv-x="911" d="M70 -365l77 146q95 -37 213 -37q45 0 74.5 5t62.5 22.5t55 50.5t43 90.5t36 140.5l6 43q-82 -104 -236 -104q-157 0 -226 136q-41 82 -41 207q0 84 18 187q21 120 58.5 218.5t92 174t129.5 117t164 41.5q157 0 203 -115l35 107h188l-182 -1030q-21 -111 -55 -193 t-76.5 -133.5t-99 -83t-115.5 -43.5t-132 -12q-79 0 -163 17.5t-129 47.5zM367 522q-14 -79 -14 -142q0 -68 17 -118q31 -96 122 -96q98 0 170 65l106 603q-47 65 -147 65q-55 0 -99 -30.5t-73.5 -86t-48.5 -118t-33 -142.5z" />
<glyph unicode="h" horiz-adv-x="878" d="M80 0l252 1434h211l-82 -467q126 106 284 106q115 1 169 -63q36 -42 35 -124q0 -41 -9 -93l-139 -793h-211l137 782q6 31 6 53q0 33 -13 47q-21 23 -69 23q-63 0 -123 -23.5t-90 -47.5l-147 -834h-211z" />
<glyph unicode="i" horiz-adv-x="452" d="M121 0l188 1065h211l-188 -1065h-211zM322 1292q11 56 53.5 92.5t99.5 36.5q58 -1 90 -37q24 -27 24 -65q0 -13 -3 -27q-9 -56 -53.5 -92.5t-102.5 -36.5q-57 1 -87 37q-23 28 -23 67q0 12 2 25z" />
<glyph unicode="j" horiz-adv-x="452" d="M-184 -258l61 141q51 -22 109 -22q67 0 97.5 47.5t47.5 144.5l178 1012h211l-178 -1012q-34 -180 -117 -270t-223 -90q-131 0 -186 49zM322 1292q11 56 53.5 92.5t99.5 36.5q58 0 90 -37q24 -27 24 -65q0 -13 -3 -27q-9 -56 -53.5 -92.5t-102.5 -36.5q-57 0 -87 37 q-23 28 -23 67q0 12 2 25z" />
<glyph unicode="k" horiz-adv-x="858" d="M80 0l252 1434h211l-252 -1434h-211zM385 532l403 533h230l-414 -533l236 -532h-230z" />
<glyph unicode="l" horiz-adv-x="411" d="M100 0l252 1434h211l-252 -1434h-211z" />
<glyph unicode="m" horiz-adv-x="1288" d="M80 0l188 1065h187l-2 -111q63 55 125 87t139 32q148 0 170 -127q46 36 80.5 59t91.5 45.5t110 22.5q123 0 164 -75q25 -46 25 -117q0 -45 -10 -101l-138 -780h-213l131 748q8 33 8 60q0 26 -7 46q-15 42 -72 43q-72 0 -164 -66q-1 -7 -2 -27.5t-2 -29.5l-137 -774h-213 l131 748q8 33 8 60q0 26 -7 46q-15 42 -71 43q-71 0 -164 -68l-145 -829h-211z" />
<glyph unicode="n" horiz-adv-x="878" d="M80 0l188 1065h187l-2 -107q133 115 292 115q115 1 169 -63q36 -42 35 -124q0 -41 -9 -93l-139 -793h-211l137 782q6 31 6 53q0 33 -13 47q-21 23 -69 23q-63 0 -123 -23.5t-90 -47.5l-147 -834h-211z" />
<glyph unicode="o" horiz-adv-x="892" d="M133 268q-3 31 -3 66q0 77 15 176l9 43q25 140 73.5 243t113 162t137.5 87t155 28q83 0 147 -27t111 -88.5t58 -161.5q4 -33 4 -71q0 -76 -15 -172l-8 -43q-25 -139 -74.5 -242t-116 -161.5t-140.5 -86.5t-157 -28q-82 0 -145 27t-108.5 89t-55.5 160zM356 510 q-16 -89 -15 -156q0 -194 132 -194q183 0 244 350l8 43q16 92 16 159q1 66 -15 107q-32 84 -122 84q-88 0 -147.5 -84t-91.5 -266z" />
<glyph unicode="p" horiz-adv-x="911" d="M8 -410l260 1475h187v-107q82 115 243 115q88 0 148 -42t86.5 -116t30.5 -175q1 -15 1 -30q0 -88 -20 -188q-46 -257 -164 -393.5t-272 -136.5q-157 0 -201 104l-88 -506h-211zM332 231q50 -65 145 -65q92 0 158 96t94 260q18 99 18 172q0 205 -141 205q-99 0 -168 -65z " />
<glyph unicode="q" horiz-adv-x="911" d="M152 522q21 120 58 218.5t90.5 174t127.5 117t162 41.5q160 0 207 -115l37 107h186l-260 -1475h-211l88 506q-81 -104 -238 -104q-154 0 -223 136q-42 83 -42 208q0 84 18 186zM367 522q-14 -79 -14 -142q0 -68 17 -118q31 -96 122 -96q98 0 170 65l106 603 q-47 65 -147 65q-55 0 -99 -30.5t-73.5 -86t-48.5 -118t-33 -142.5z" />
<glyph unicode="r" horiz-adv-x="579" d="M80 0l188 1065h185l-2 -109q55 45 135.5 78.5t154.5 36.5l-34 -199h-23q-60 0 -124 -12q-76 -16 -126 -47l-143 -813h-211z" />
<glyph unicode="s" horiz-adv-x="761" d="M61 70l82 135q39 -18 103.5 -28.5t113.5 -10.5q47 0 84.5 10t68 37.5t38.5 71.5q2 12 2 23q-1 42 -27 76q-34 42 -94 81q-15 10 -48 28q-21 12 -32 18.5t-30.5 19t-30.5 21t-27.5 22t-25.5 25.5t-20 28t-16 32t-9.5 35t-4 40.5t4.5 45.5q29 159 125.5 226t246.5 67 q89 0 180.5 -19.5t137.5 -56.5l-80 -141q-44 18 -110.5 30.5t-119.5 12.5q-146 0 -163 -98q-5 -30 3 -55.5t34 -49.5t43.5 -37t61 -38t56.5 -33q37 -22 64 -44.5t55.5 -58t38.5 -85.5q5 -25 5 -52t-5 -57q-14 -82 -51.5 -141.5t-92 -93t-117.5 -49t-138 -15.5 q-87 0 -175.5 19.5t-130.5 58.5z" />
<glyph unicode="t" horiz-adv-x="657" d="M178 901l29 164h162l8 53l72 240h182l-51 -293h202l-28 -164h-203l-96 -547q-11 -59 -11 -101.5t22.5 -66.5t70.5 -24t106 24l14 -145q-31 -23 -86 -36t-112 -13q-145 0 -195 90q-31 56 -32 147q0 56 12 125l96 547h-162z" />
<glyph unicode="u" horiz-adv-x="878" d="M122 137q-2 19 -2 41q0 41 7 94l141 793h211l-139 -782q-4 -29 -4 -50q0 -35 12 -50q20 -23 68 -23q63 0 122.5 23t92.5 48l147 834h211l-188 -1065h-187l2 106q-136 -114 -294 -114q-56 0 -95.5 13t-69 45.5t-35.5 86.5z" />
<glyph unicode="v" horiz-adv-x="872" d="M207 1065h221l59 -778l334 778h221l-499 -1065h-213z" />
<glyph unicode="w" horiz-adv-x="1290" d="M227 1065h219l15 -748l293 748h159l27 -748l281 748h221l-430 -1065h-205l-37 711l-285 -711h-206z" />
<glyph unicode="x" horiz-adv-x="874" d="M18 0l353 532l-164 533h235l107 -442l262 442h236l-353 -533l164 -532h-235l-107 446l-262 -446h-236z" />
<glyph unicode="y" horiz-adv-x="878" d="M129 -399l213 442l-135 1022h219l74 -727l329 727h222l-707 -1464h-215z" />
<glyph unicode="z" horiz-adv-x="817" d="M59 0l17 98l579 799h-438l31 168h700l-18 -98l-580 -799h438l-28 -168h-701z" />
<glyph unicode="{" horiz-adv-x="698" d="M184 598l29 154q51 4 88 25t60 56.5t36 73t23 88.5l35 197q28 164 105 244t239 80h108l-30 -185h-70q-39 0 -62.5 -8t-38 -31.5t-21 -48.5t-15.5 -76l-35 -192q-21 -116 -71.5 -198.5t-133.5 -102.5q147 -38 98 -301l-34 -199q-19 -82 -5 -118t86 -36h70l-33 -184h-108 q-111 0 -169.5 38t-69.5 109.5t7 174.5l35 198q8 50 8.5 88t-10 74t-41 56.5t-80.5 23.5z" />
<glyph unicode="|" horiz-adv-x="542" d="M133 -164l295 1680h219l-295 -1680h-219z" />
<glyph unicode="}" horiz-adv-x="698" d="M31 -164l32 184h68q73 0 96.5 31.5t38.5 122.5l35 199q49 264 205 301q-52 14 -79.5 60t-28.5 107.5t10 133.5l34 192q20 88 6.5 126t-86.5 38h-67l31 185h106q162 0 212 -80t22 -244l-35 -197q-9 -50 -9.5 -88t10 -73.5t41.5 -56.5t81 -25l-29 -154q-51 -3 -88.5 -23.5 t-60.5 -56.5t-36.5 -74.5t-21.5 -87.5l-35 -198q-15 -81 -38.5 -137.5t-63 -99.5t-100 -64t-144.5 -21h-106z" />
<glyph unicode="~" horiz-adv-x="921" d="M164 594q2 10 7 26t27.5 57.5t52.5 73t87 57.5t127 26q50 0 90.5 -17t62.5 -37.5t50 -37.5t55 -17q33 0 57 25t32 50l7 25l182 -41q-2 -10 -7 -26t-27.5 -57t-53 -72.5t-87.5 -57.5t-128 -26q-51 0 -91.5 17t-62 37t-49 37t-55.5 17q-33 0 -57.5 -25t-32.5 -50l-8 -25z " />
<glyph unicode="&#xa1;" horiz-adv-x="440" d="M100 -362l201 1030h188l-157 -1030h-232zM303 934q11 59 57.5 98t106.5 39q61 0 94.5 -39t22.5 -98q-9 -60 -55.5 -98.5t-108.5 -38.5q-60 0 -93 39t-24 98z" />
<glyph unicode="&#xa2;" horiz-adv-x="808" d="M154 532q43 242 147 373t254 160l43 246h219l-43 -248q104 -16 164 -55l-78 -144q-100 35 -205 35q-222 0 -284 -354q-32 -183 10 -281t149 -98q103 0 213 35l27 -146q-58 -31 -184 -53l-43 -248h-219l43 248q-140 29 -198 159t-15 371z" />
<glyph unicode="&#xa3;" horiz-adv-x="909" d="M39 0l33 184h123l108 613q12 69 21 116.5t22.5 105t26.5 96t31 83t39 73.5t48.5 59.5t60.5 49t73.5 34t89 22t106.5 6.5q80 0 152.5 -19.5t104.5 -38.5l32 -20l-82 -166q-112 47 -229 47q-42 0 -76 -9.5t-58.5 -26.5t-43 -43.5t-31 -55.5t-22.5 -68t-17 -76.5t-15 -84.5 q-6 -40 -10 -60l-6 -30h357l-33 -185h-357l-73 -422h463l-33 -184h-805z" />
<glyph unicode="&#xa4;" horiz-adv-x="1071" d="M141 342l127 104q-50 100 -27 218.5t105 218.5l-90 110l145 127l93 -112q106 69 229 69q122 0 203 -69l129 112l114 -127l-135 -110q48 -95 27.5 -217.5t-105.5 -219.5l97 -112l-154 -125l-94 110q-103 -65 -225 -65q-127 0 -207 65l-133 -110zM418 666q-17 -96 38 -166 t154 -70q96 0 176 70t97 166t-39 164.5t-152 68.5q-99 0 -178 -68.5t-96 -164.5z" />
<glyph unicode="&#xa5;" horiz-adv-x="935" d="M150 240l30 174h250l25 139h-250l31 174h184l-150 707h238l106 -613l318 613h239l-397 -707h187l-31 -174h-254l-25 -139h254l-31 -174h-253l-43 -240h-222l43 240h-249z" />
<glyph unicode="&#xa6;" horiz-adv-x="542" d="M133 -164l115 653h219l-115 -653h-219zM334 981l117 657h219l-117 -657h-219z" />
<glyph unicode="&#xa7;" horiz-adv-x="768" d="M68 68l82 143q43 -19 107 -31t118 -12q153 0 170 98q5 30 -5 55t-35.5 45t-50.5 34.5t-63.5 34.5t-60.5 34q-74 45 -102 78q-67 78 -46 198q26 156 172 205q-28 17 -45.5 33.5t-33 43.5t-16.5 60t5 82q47 273 375 273q87 0 179 -19.5t136 -56.5l-84 -141 q-42 18 -107.5 30.5t-117.5 12.5q-41 0 -74.5 -8t-60.5 -31t-33 -60q-6 -31 4 -56.5t35.5 -45t50.5 -33.5t63 -33.5t60 -33.5q4 -2 11 -7q16 -10 24.5 -15.5t24.5 -17.5t25 -21t22 -23.5t20.5 -27.5t15 -32t10 -38.5t2.5 -43.5t-5 -51q-26 -155 -172 -205q57 -39 82.5 -86.5 t9.5 -132.5q-49 -274 -377 -274q-88 0 -179.5 19.5t-135.5 56.5zM395 752q-5 -31 2 -56.5t29.5 -47t38.5 -32t49 -30.5q7 -4 10 -6q90 25 103 104q5 12 2 26t-3 23t-7.5 20.5t-11.5 18.5t-15 17t-17 15.5t-18.5 14t-19.5 13t-19.5 12.5t-19.5 12q-90 -25 -103 -104z" />
<glyph unicode="&#xa8;" horiz-adv-x="811" d="M309 1298q9 56 54.5 96t103.5 40q56 0 88 -40t23 -96q-10 -60 -55.5 -99.5t-102.5 -39.5q-58 0 -90 39.5t-21 99.5zM690 1298q9 56 55.5 96t104.5 40q56 0 88 -40t23 -96q-10 -60 -55.5 -99.5t-102.5 -39.5q-59 0 -91 39.5t-22 99.5z" />
<glyph unicode="&#xa9;" horiz-adv-x="1273" d="M163.5 488q0.5 105 22.5 229t58.5 229t95.5 198t136 158t183 102.5t232 37.5q105 0 187 -25.5t136.5 -74t89 -113t47.5 -147t10.5 -172.5t-20.5 -193q-22 -124 -59.5 -229t-96.5 -198t-136 -158t-182.5 -102.5t-231.5 -37.5t-219 37.5t-147 102.5t-80 158t-25.5 198z M347 496.5q4 -102.5 32.5 -178t100.5 -119t184 -43.5q399 0 497 561q17 99 19.5 180t-13 153t-51.5 121.5t-100 78t-154 28.5q-112 0 -198.5 -42.5t-144 -121t-94 -175.5t-58.5 -222q-24 -118 -20 -220.5zM458 608q3 53 13 109q10 57 25.5 109.5t47 113.5t73.5 104.5 t107.5 73t145.5 29.5q112 0 189 -57l-70 -136q-60 31 -127 31q-50 0 -88.5 -26.5t-61.5 -71t-35.5 -85t-19.5 -85.5q-8 -46 -9.5 -86t5.5 -85.5t37 -72.5t80 -27q51 0 135 31l21 -135q-91 -55 -209 -55q-79 0 -134 29.5t-81 73.5t-36.5 104.5t-7.5 113.5z" />
<glyph unicode="&#xaa;" horiz-adv-x="585" d="M209 871.5q-9 43.5 0 93.5q29 165 178 196l168 35l6 33q8 45 -4.5 60.5t-58.5 15.5q-52 0 -162 -29l-25 115q102 51 224 51q119 0 164 -52t26 -161l-82 -459h-141l2 61q-73 -67 -154 -67q-60 0 -96 32t-45 75.5zM379 973q-13 -68 37 -68q43 0 94 31l20 123l-77 -15 q-36 -9 -53 -24.5t-21 -46.5z" />
<glyph unicode="&#xab;" horiz-adv-x="1337" d="M180 569l15 80l741 547l-43 -248l-463 -340l342 -336l-43 -247zM711 569l14 80l743 547l-43 -248l-464 -340l344 -336l-43 -247z" />
<glyph unicode="&#xac;" horiz-adv-x="915" d="M184 573l33 181h758l-76 -430h-215l43 249h-543z" />
<glyph unicode="&#xad;" horiz-adv-x="915" d="M184 598l33 182h758l-33 -182h-758z" />
<glyph unicode="&#xae;" horiz-adv-x="1273" d="M163.5 488q0.5 105 22.5 229t58.5 229t95.5 198t136 158t183 102.5t232 37.5q105 0 187 -25.5t136.5 -74t89 -113t47.5 -147t10.5 -172.5t-20.5 -193q-22 -124 -59.5 -229t-96.5 -198t-136 -158t-182.5 -102.5t-231.5 -37.5t-219 37.5t-147 102.5t-80 158t-25.5 198z M347 496.5q4 -102.5 32.5 -178t100.5 -119t184 -43.5q399 0 497 561q17 99 19.5 180t-13 153t-51.5 121.5t-100 78t-154 28.5q-112 0 -198.5 -42.5t-144 -121t-94 -175.5t-58.5 -222q-24 -118 -20 -220.5zM463 295l151 850h228q123 0 178.5 -67t36.5 -177 q-13 -73 -56.5 -134t-117.5 -91l92 -381h-180l-70 352h-27l-63 -352h-172zM723 795h39q107 0 125 110q9 50 -12.5 72t-75.5 22h-39z" />
<glyph unicode="&#xaf;" horiz-adv-x="956" d="M307 1526l33 180h881l-33 -180h-881z" />
<glyph unicode="&#xb0;" horiz-adv-x="610" d="M242 1018.5q-13 57.5 0 134.5q18 101 71 168.5t115 94t131 26.5q50 0 93 -15t78 -49.5t46.5 -89.5t-0.5 -135q-26 -147 -117 -217t-200 -70q-51 0 -94 15.5t-76.5 47.5t-46.5 89.5zM393 1155q-24 -141 90 -141q118 0 142 141q14 80 -13 108.5t-80 28.5q-116 0 -139 -137z " />
<glyph unicode="&#xb1;" horiz-adv-x="1034" d="M184 0l33 180h770l-33 -180h-770zM293 614l31 181h276l51 286h215l-51 -286h279l-31 -181h-279l-51 -286h-215l51 286h-276z" />
<glyph unicode="&#xb2;" horiz-adv-x="583" d="M195 684l24 135q12 73 50 130t84.5 92.5t91.5 65t79 62.5t41 70q4 30 -12.5 41.5t-58.5 11.5q-67 0 -160 -28l-19 125q106 53 215 53q113 0 167.5 -46.5t35.5 -148.5q-10 -56 -37 -102t-61.5 -75t-74 -58t-74 -52t-61.5 -55.5t-36 -70.5h264l-26 -150h-432z" />
<glyph unicode="&#xb3;" horiz-adv-x="587" d="M188 735l66 127q86 -28 147 -28q53 0 77.5 19.5t33.5 70.5q6 40 -17 63t-65 23h-78l25 139h78q85 0 100 82q5 31 -12 45t-58 14q-79 0 -153 -24l-23 127q66 29 110 39t105 10q238 0 201 -211q-8 -48 -41 -88t-82 -60q47 -18 67.5 -60.5t10.5 -104.5 q-21 -113 -94.5 -175.5t-200.5 -62.5q-112 0 -197 55z" />
<glyph unicode="&#xb4;" horiz-adv-x="485" d="M268 1188l207 409h236l-248 -409h-195z" />
<glyph unicode="&#xb6;" horiz-adv-x="1202" d="M236 1004q22 122 66 207.5t109.5 133.5t142.5 68.5t175 20.5h645l-252 -1434h-200l221 1255h-142l-221 -1255h-198l106 606q-67 -18 -135 -18q-186 0 -271 96.5t-46 319.5z" />
<glyph unicode="&#xb7;" horiz-adv-x="661" d="M266 649q12 73 75 124.5t138 51.5q72 0 115 -51.5t31 -124.5q-13 -75 -75 -127.5t-134 -52.5q-75 0 -119 52.5t-31 127.5z" />
<glyph unicode="&#xb8;" horiz-adv-x="661" d="M-45 -473l72 119q85 -31 149 -31q210 0 221 82q6 41 -20.5 53t-102.5 12h-196l20 80l178 234h187l-137 -180q31 0 55 -1.5t48.5 -4.5t43 -8t36 -13t29 -18.5t20.5 -25.5t13 -34t3.5 -43t-5.5 -53q-13 -70 -51.5 -117t-98.5 -69t-120 -30.5t-137 -8.5q-127 0 -207 57z" />
<glyph unicode="&#xb9;" horiz-adv-x="526" d="M242 1155l28 158q188 71 238 121h131l-131 -754h-170l98 557q-34 -23 -91 -47t-103 -35z" />
<glyph unicode="&#xba;" horiz-adv-x="653" d="M260 1075q10 54 24 101.5t40 98t59.5 86t84.5 58.5t112 23q262 0 190 -391q-9 -53 -23.5 -101t-40.5 -98t-60.5 -86t-86 -59t-113.5 -23q-259 0 -186 391zM430 1063q-41 -227 43 -227q29 0 53 26t39 67.5t23.5 72.5t13.5 61q33 229 -49 229q-29 0 -52.5 -27t-37.5 -69.5 t-21.5 -73t-11.5 -59.5z" />
<glyph unicode="&#xbb;" horiz-adv-x="1337" d="M84 25l43 247l461 336l-340 340l43 248l549 -547l-15 -80zM614 25l43 247l463 336l-342 340l43 248l551 -547l-14 -80z" />
<glyph unicode="&#xbc;" horiz-adv-x="1169" d="M242 1155l28 158q188 71 238 121h131l-123 -703h-170l90 506q-34 -23 -91 -47t-103 -35zM317 0l615 1434h184l-614 -1434h-185zM678 135l12 70l359 547h143l-86 -482h72l-23 -135h-72l-24 -135h-168l24 135h-237zM864 270h86l35 197z" />
<glyph unicode="&#xbd;" horiz-adv-x="1271" d="M242 1155l28 158q188 71 238 121h131l-123 -703h-170l90 506q-34 -23 -91 -47t-103 -35zM317 0l615 1434h184l-614 -1434h-185zM762 0l22 133q11 62 40.5 113.5t65.5 83t77 62t75 52t59.5 50.5t31.5 61q4 30 -12.5 41.5t-59.5 11.5q-72 0 -160 -30l-20 124q115 56 217 56 q112 0 166.5 -46.5t35.5 -148.5q-10 -55 -37 -101t-61.5 -75t-74 -58t-74 -52t-61.5 -56t-36 -71h265l-27 -150h-432z" />
<glyph unicode="&#xbe;" horiz-adv-x="1232" d="M188 735l66 127q86 -28 147 -28q53 0 77.5 19.5t33.5 70.5q6 40 -17 63t-65 23h-78l25 139h78q85 0 100 82q5 31 -12 45t-58 14q-79 0 -153 -24l-23 127q66 29 110 39t105 10q238 0 201 -211q-8 -48 -41 -88t-82 -60q47 -18 67.5 -60.5t10.5 -104.5 q-21 -113 -94.5 -175.5t-200.5 -62.5q-112 0 -197 55zM381 0l614 1434h185l-615 -1434h-184zM741 135l13 70l358 547h143l-86 -482h72l-22 -135h-72l-25 -135h-168l25 135h-238zM928 270h88l35 197z" />
<glyph unicode="&#xbf;" horiz-adv-x="845" d="M63 -39q11 62 34 112.5t52.5 85.5t63.5 67.5t68 66.5t64 73.5t55 98t38 131.5l13 72h221l-13 -72q-15 -85 -42 -155t-58.5 -116t-66.5 -84.5t-69 -69t-62.5 -59.5t-49.5 -65t-28 -78q-13 -80 28.5 -112.5t126.5 -32.5q127 0 273 45l26 -160q-77 -39 -177.5 -59.5 t-188.5 -20.5q-181 0 -259 85t-49 247zM467 934q11 59 58 98t108 39q60 0 93 -39t22 -98q-9 -58 -55.5 -97.5t-106.5 -39.5q-61 0 -94.5 38.5t-24.5 98.5z" />
<glyph unicode="&#xc0;" horiz-adv-x="925" d="M18 0l578 1434h238l73 -1434h-229l-8 336h-295l-127 -336h-230zM442 516h222l-15 541zM553 1966h235l62 -410h-195z" />
<glyph unicode="&#xc1;" horiz-adv-x="925" d="M18 0l578 1434h238l73 -1434h-229l-8 336h-295l-127 -336h-230zM442 516h222l-15 541zM637 1556l205 410h235l-246 -410h-194z" />
<glyph unicode="&#xc2;" horiz-adv-x="925" d="M18 0l578 1434h238l73 -1434h-229l-8 336h-295l-127 -336h-230zM424 1556l311 410h148l166 -410h-209l-66 205l-139 -205h-211zM442 516h222l-15 541z" />
<glyph unicode="&#xc3;" horiz-adv-x="925" d="M18 0l578 1434h238l73 -1434h-229l-8 336h-295l-127 -336h-230zM389 1602q1 9 5 25t22.5 55.5t45 70t78.5 55.5t117 25q42 0 77 -16.5t54 -35.5t44 -35.5t51 -16.5q33 0 52.5 23.5t22.5 47.5l3 23l172 -41q-1 -9 -5 -24.5t-22 -54.5t-45 -68.5t-79 -54t-118 -24.5 q-43 0 -77 16t-52.5 35.5t-43.5 35.5t-52 16q-32 0 -52 -23.5t-24 -47.5l-4 -23zM442 516h222l-15 541z" />
<glyph unicode="&#xc4;" horiz-adv-x="925" d="M18 0l578 1434h238l73 -1434h-229l-8 336h-295l-127 -336h-230zM436 1702q9 57 56 96t104 39t89.5 -39t23.5 -96q-10 -57 -56.5 -96t-103.5 -39t-90 39t-23 96zM442 516h222l-15 541zM817 1702q9 57 56.5 96t107.5 39q56 0 88 -39t23 -96q-10 -57 -56 -96t-102 -39 q-60 0 -94 39t-23 96z" />
<glyph unicode="&#xc5;" horiz-adv-x="925" d="M18 0l549 1364q-43 30 -63 78t-10 106q18 101 99 165.5t181 64.5t159.5 -65t41.5 -165q-9 -57 -46 -105.5t-91 -76.5l69 -1366h-229l-8 336h-295l-127 -336h-230zM442 516h222l-15 541zM651 1548q-5 -32 14.5 -55t55.5 -23t64.5 23.5t33.5 54.5q7 39 -12 61.5t-57 22.5 q-37 0 -64.5 -22.5t-34.5 -61.5z" />
<glyph unicode="&#xc6;" horiz-adv-x="1449" d="M18 0l947 1434h680l-31 -185h-443l-73 -418h356l-33 -184h-356l-82 -463h442l-32 -184h-662l60 336h-316l-221 -336h-236zM594 516h227l86 479z" />
<glyph unicode="&#xc7;" horiz-adv-x="917" d="M164 -473l74 119q82 -31 149 -31q210 0 221 82q6 41 -21 53t-102 12h-196l20 80l125 166q-356 90 -248 709q22 125 56 230t87.5 198t122 157.5t162.5 102t207 37.5q82 0 154 -18t103 -36l32 -18l-80 -166q-104 41 -219 41q-75 0 -135.5 -31t-100 -79.5t-71 -121.5 t-49.5 -141.5t-33 -154.5q-16 -86 -22.5 -155t-0.5 -141.5t29 -121.5t72.5 -80t124.5 -31q51 0 109.5 11t91.5 21l32 11l23 -165q-12 -7 -35 -18t-94 -30.5t-142 -23.5l-75 -98q35 0 61.5 -2t54.5 -5.5t46 -10.5t37 -17.5t28 -25t17.5 -35t6 -46.5t-5.5 -59q-10 -56 -39 -98 t-67 -66t-91 -38t-101.5 -18.5t-108.5 -4.5q-126 0 -209 57z" />
<glyph unicode="&#xc8;" horiz-adv-x="798" d="M80 0l252 1434h661l-30 -185h-443l-74 -418h355l-33 -184h-354l-82 -463h442l-33 -184h-661zM543 1966h235l62 -410h-195z" />
<glyph unicode="&#xc9;" horiz-adv-x="823" d="M80 0l252 1434h661l-30 -185h-443l-74 -418h355l-33 -184h-354l-82 -463h442l-33 -184h-661zM578 1556l204 410h236l-246 -410h-194z" />
<glyph unicode="&#xca;" horiz-adv-x="806" d="M80 0l252 1434h661l-30 -185h-443l-74 -418h355l-33 -184h-354l-82 -463h442l-33 -184h-661zM377 1556l309 410h148l167 -410h-210l-66 205l-139 -205h-209z" />
<glyph unicode="&#xcb;" horiz-adv-x="851" d="M80 0l252 1434h661l-30 -185h-443l-74 -418h355l-33 -184h-354l-82 -463h442l-33 -184h-661zM389 1702q9 57 56 96t106 39q57 0 88.5 -39t22.5 -96q-11 -57 -56 -96t-102 -39q-59 0 -92 39t-23 96zM772 1702q9 57 56 96t106 39q57 0 88 -39t22 -96q-11 -57 -55.5 -96 t-101.5 -39q-59 0 -92 39t-23 96z" />
<glyph unicode="&#xcc;" horiz-adv-x="458" d="M121 0l252 1434h219l-252 -1434h-219zM305 1966h236l61 -410h-194z" />
<glyph unicode="&#xcd;" horiz-adv-x="458" d="M121 0l252 1434h219l-252 -1434h-219zM401 1556l205 410h236l-246 -410h-195z" />
<glyph unicode="&#xce;" horiz-adv-x="458" d="M121 0l252 1434h219l-252 -1434h-219zM193 1556l309 410h147l168 -410h-211l-65 205l-140 -205h-208z" />
<glyph unicode="&#xcf;" horiz-adv-x="458" d="M121 0l252 1434h219l-252 -1434h-219zM203 1702q9 57 55.5 96t103.5 39q58 0 90 -39t23 -96q-11 -57 -56.5 -96t-103.5 -39q-57 0 -89.5 39t-22.5 96zM586 1702q9 57 56 96t106 39q55 0 87 -39t23 -96q-10 -57 -56 -96t-102 -39q-59 0 -91.5 39t-22.5 96z" />
<glyph unicode="&#xd0;" horiz-adv-x="1038" d="M131 645l31 180h143l107 609h241q94 0 168 -11.5t128 -36t92 -56.5t60 -80t32.5 -100t9 -122.5t-10 -141t-24.5 -161.5q-16 -92 -32.5 -163.5t-40.5 -143.5t-53 -125.5t-68 -102.5t-89 -82.5t-113 -58.5t-141.5 -37t-173.5 -12h-237l114 645h-143zM412 184h24 q83 0 145.5 14.5t107 51t73.5 74.5t51.5 109.5t35 128.5t30.5 159q14 78 20.5 120t13 102.5t2.5 92.5t-12.5 73t-30.5 62t-54 41.5t-80 28.5t-111 8h-27l-76 -424h195l-31 -180h-194z" />
<glyph unicode="&#xd1;" horiz-adv-x="1009" d="M90 0l252 1434h213l223 -963l168 963h221l-252 -1434h-215l-221 963l-170 -963h-219zM428 1602q1 9 5 25t22.5 55.5t45 70t78.5 55.5t117 25q43 0 78 -16.5t54.5 -35.5t45 -35.5t50.5 -16.5q32 0 51 23.5t23 47.5l3 23l173 -41q-1 -9 -5 -24.5t-22.5 -54.5t-45 -68.5 t-79 -54t-119.5 -24.5q-35 0 -63.5 10.5t-47 26t-35 30.5t-36 25.5t-41.5 10.5q-32 0 -52 -23.5t-24 -47.5l-4 -23z" />
<glyph unicode="&#xd2;" horiz-adv-x="1032" d="M165 401q2 75 10.5 141.5t23.5 149.5l8 47q15 83 30 149.5t39.5 142t53.5 132.5t72 112t94.5 90t121 56t152.5 21q82 0 144.5 -21t102 -56.5t63.5 -89.5t33.5 -111.5t8 -132.5t-9.5 -142t-22 -150l-9 -47q-15 -83 -30.5 -149.5t-40.5 -141.5t-54.5 -132t-73 -111t-95 -89 t-121.5 -56t-152 -21q-83 0 -145 21t-101.5 56t-63 89t-32.5 111t-7 132zM397.5 443q-0.5 -37 1.5 -80t13 -71.5t27.5 -54t44.5 -37.5t65 -12q42 0 78.5 18t63 44t50 71.5t38 85t30 101t23.5 102t20 105.5q10 56 15.5 92t12 90t7 90t-1.5 80t-13 72.5t-27.5 54t-44.5 37.5 t-65 12q-42 0 -78.5 -17.5t-63 -44.5t-49.5 -72t-38 -85.5t-30 -101t-23 -102.5t-19 -105q-10 -54 -16 -91.5t-13 -90.5t-7.5 -90zM637 1966h235l62 -410h-195z" />
<glyph unicode="&#xd3;" horiz-adv-x="1032" d="M165 401q2 75 10.5 141.5t23.5 149.5l8 47q15 83 30 149.5t39.5 142t53.5 132.5t72 112t94.5 90t121 56t152.5 21q82 0 144.5 -21t102 -56.5t63.5 -89.5t33.5 -111.5t8 -132.5t-9.5 -142t-22 -150l-9 -47q-15 -83 -30.5 -149.5t-40.5 -141.5t-54.5 -132t-73 -111t-95 -89 t-121.5 -56t-152 -21q-83 0 -145 21t-101.5 56t-63 89t-32.5 111t-7 132zM397.5 443q-0.5 -37 1.5 -80t13 -71.5t27.5 -54t44.5 -37.5t65 -12q42 0 78.5 18t63 44t50 71.5t38 85t30 101t23.5 102t20 105.5q10 56 15.5 92t12 90t7 90t-1.5 80t-13 72.5t-27.5 54t-44.5 37.5 t-65 12q-42 0 -78.5 -17.5t-63 -44.5t-49.5 -72t-38 -85.5t-30 -101t-23 -102.5t-19 -105q-10 -54 -16 -91.5t-13 -90.5t-7.5 -90zM692 1556l205 410h236l-246 -410h-195z" />
<glyph unicode="&#xd4;" horiz-adv-x="1032" d="M165 401q2 75 10.5 141.5t23.5 149.5l8 47q15 83 30 149.5t39.5 142t53.5 132.5t72 112t94.5 90t121 56t152.5 21q82 0 144.5 -21t102 -56.5t63.5 -89.5t33.5 -111.5t8 -132.5t-9.5 -142t-22 -150l-9 -47q-15 -83 -30.5 -149.5t-40.5 -141.5t-54.5 -132t-73 -111t-95 -89 t-121.5 -56t-152 -21q-83 0 -145 21t-101.5 56t-63 89t-32.5 111t-7 132zM397.5 443q-0.5 -37 1.5 -80t13 -71.5t27.5 -54t44.5 -37.5t65 -12q42 0 78.5 18t63 44t50 71.5t38 85t30 101t23.5 102t20 105.5q10 56 15.5 92t12 90t7 90t-1.5 80t-13 72.5t-27.5 54t-44.5 37.5 t-65 12q-42 0 -78.5 -17.5t-63 -44.5t-49.5 -72t-38 -85.5t-30 -101t-23 -102.5t-19 -105q-10 -54 -16 -91.5t-13 -90.5t-7.5 -90zM479 1556l312 410h147l166 -410h-209l-66 205l-139 -205h-211z" />
<glyph unicode="&#xd5;" horiz-adv-x="1032" d="M165 401q2 75 10.5 141.5t23.5 149.5l8 47q15 83 30 149.5t39.5 142t53.5 132.5t72 112t94.5 90t121 56t152.5 21q82 0 144.5 -21t102 -56.5t63.5 -89.5t33.5 -111.5t8 -132.5t-9.5 -142t-22 -150l-9 -47q-15 -83 -30.5 -149.5t-40.5 -141.5t-54.5 -132t-73 -111t-95 -89 t-121.5 -56t-152 -21q-83 0 -145 21t-101.5 56t-63 89t-32.5 111t-7 132zM397.5 443q-0.5 -37 1.5 -80t13 -71.5t27.5 -54t44.5 -37.5t65 -12q42 0 78.5 18t63 44t50 71.5t38 85t30 101t23.5 102t20 105.5q10 56 15.5 92t12 90t7 90t-1.5 80t-13 72.5t-27.5 54t-44.5 37.5 t-65 12q-42 0 -78.5 -17.5t-63 -44.5t-49.5 -72t-38 -85.5t-30 -101t-23 -102.5t-19 -105q-10 -54 -16 -91.5t-13 -90.5t-7.5 -90zM444 1602q1 9 5 25t22 55.5t45 70t79 55.5t118 25q42 0 76.5 -16.5t53.5 -35.5t44 -35.5t51 -16.5q33 0 52.5 23.5t22.5 47.5l3 23l172 -41 q-1 -9 -4.5 -24.5t-22 -54.5t-45 -68.5t-78.5 -54t-118 -24.5q-35 0 -64 10.5t-47.5 26t-35.5 30.5t-37 25.5t-42 10.5q-32 0 -52 -23.5t-24 -47.5l-4 -23z" />
<glyph unicode="&#xd6;" horiz-adv-x="1032" d="M165 401q2 75 10.5 141.5t23.5 149.5l8 47q15 83 30 149.5t39.5 142t53.5 132.5t72 112t94.5 90t121 56t152.5 21q82 0 144.5 -21t102 -56.5t63.5 -89.5t33.5 -111.5t8 -132.5t-9.5 -142t-22 -150l-9 -47q-15 -83 -30.5 -149.5t-40.5 -141.5t-54.5 -132t-73 -111t-95 -89 t-121.5 -56t-152 -21q-83 0 -145 21t-101.5 56t-63 89t-32.5 111t-7 132zM397.5 443q-0.5 -37 1.5 -80t13 -71.5t27.5 -54t44.5 -37.5t65 -12q42 0 78.5 18t63 44t50 71.5t38 85t30 101t23.5 102t20 105.5q10 56 15.5 92t12 90t7 90t-1.5 80t-13 72.5t-27.5 54t-44.5 37.5 t-65 12q-42 0 -78.5 -17.5t-63 -44.5t-49.5 -72t-38 -85.5t-30 -101t-23 -102.5t-19 -105q-10 -54 -16 -91.5t-13 -90.5t-7.5 -90zM494 1702q9 57 55.5 96t103.5 39q58 0 90 -39t23 -96q-11 -57 -56.5 -96t-103.5 -39q-57 0 -89.5 39t-22.5 96zM877 1702q9 57 55.5 96 t105.5 39q56 0 88 -39t23 -96q-10 -57 -56 -96t-102 -39q-59 0 -91.5 39t-22.5 96z" />
<glyph unicode="&#xd7;" horiz-adv-x="845" d="M164 475l250 213l-174 215l151 129l178 -213l250 213l109 -129l-254 -215l178 -213l-154 -131l-176 215l-252 -215z" />
<glyph unicode="&#xd8;" horiz-adv-x="1032" d="M165 401q2 75 10.5 141.5t23.5 149.5l8 47q15 83 30 149.5t39.5 142t53.5 132.5t72 112t94.5 90t121 56t152.5 21q82 0 144.5 -21t102 -56.5t63.5 -89.5t33.5 -111.5t8 -132.5t-9.5 -142t-22 -150l-9 -47q-15 -83 -30.5 -149.5t-40.5 -141.5t-54.5 -132t-73 -111t-95 -89 t-121.5 -56t-152 -21q-83 0 -145 21t-101.5 56t-63 89t-32.5 111t-7 132zM403 330l388 905q-19 8 -56 8q-42 0 -78.5 -17.5t-63 -44.5t-49.5 -72t-38 -85.5t-30 -101t-23 -102.5t-19 -105q-51 -268 -31 -385zM496 197q36 -9 53 -9q42 0 78.5 18t63 44t50 71.5t38 85t30 101 t23.5 102t20 105.5q47 265 27 379z" />
<glyph unicode="&#xd9;" horiz-adv-x="1042" d="M167.5 320.5q-0.5 64.5 6.5 127.5t21 144l147 842h219l-145 -834q-30 -172 -31 -231q-1 -137 90 -169q33 -12 78 -12q35 0 65 7.5t53.5 19t43.5 33t34 41t26.5 51.5t20.5 56.5t17 64t14 66t12 69.5q1 4 1 6l145 832h219l-147 -842q-20 -114 -44 -198t-65.5 -163.5 t-97 -129t-139.5 -79.5t-193 -30q-79 0 -138.5 15.5t-99.5 42t-65 69t-36 90t-11.5 112zM641 1966h236l61 -410h-195z" />
<glyph unicode="&#xda;" horiz-adv-x="1042" d="M167.5 320.5q-0.5 64.5 6.5 127.5t21 144l147 842h219l-145 -834q-30 -172 -31 -231q-1 -137 90 -169q33 -12 78 -12q35 0 65 7.5t53.5 19t43.5 33t34 41t26.5 51.5t20.5 56.5t17 64t14 66t12 69.5q1 4 1 6l145 832h219l-147 -842q-20 -114 -44 -198t-65.5 -163.5 t-97 -129t-139.5 -79.5t-193 -30q-79 0 -138.5 15.5t-99.5 42t-65 69t-36 90t-11.5 112zM692 1556l205 410h236l-246 -410h-195z" />
<glyph unicode="&#xdb;" horiz-adv-x="1042" d="M167.5 320.5q-0.5 64.5 6.5 127.5t21 144l147 842h219l-145 -834q-30 -172 -31 -231q-1 -137 90 -169q33 -12 78 -12q35 0 65 7.5t53.5 19t43.5 33t34 41t26.5 51.5t20.5 56.5t17 64t14 66t12 69.5q1 4 1 6l145 832h219l-147 -842q-20 -114 -44 -198t-65.5 -163.5 t-97 -129t-139.5 -79.5t-193 -30q-79 0 -138.5 15.5t-99.5 42t-65 69t-36 90t-11.5 112zM483 1556l312 410h147l166 -410h-209l-65 205l-140 -205h-211z" />
<glyph unicode="&#xdc;" horiz-adv-x="1042" d="M167.5 320.5q-0.5 64.5 6.5 127.5t21 144l147 842h219l-145 -834q-30 -172 -31 -231q-1 -137 90 -169q33 -12 78 -12q35 0 65 7.5t53.5 19t43.5 33t34 41t26.5 51.5t20.5 56.5t17 64t14 66t12 69.5q1 4 1 6l145 832h219l-147 -842q-20 -114 -44 -198t-65.5 -163.5 t-97 -129t-139.5 -79.5t-193 -30q-79 0 -138.5 15.5t-99.5 42t-65 69t-36 90t-11.5 112zM498 1702q9 57 55.5 96t103.5 39q58 0 90 -39t23 -96q-11 -57 -56.5 -96t-103.5 -39q-57 0 -89.5 39t-22.5 96zM881 1702q9 57 55.5 96t105.5 39q56 0 88 -39t23 -96q-10 -57 -56 -96 t-102 -39q-59 0 -91.5 39t-22.5 96z" />
<glyph unicode="&#xdd;" horiz-adv-x="935" d="M270 1434h238l106 -613l318 613h239l-497 -885l-96 -549h-222l97 549zM651 1556l205 410h236l-246 -410h-195z" />
<glyph unicode="&#xde;" horiz-adv-x="843" d="M80 0l252 1434h219l-55 -324h149q192 0 284.5 -101t59.5 -294q-35 -194 -166 -304t-321 -110h-150l-53 -301h-219zM385 485h123q116 0 181 63t85 171q18 102 -25.5 154.5t-162.5 52.5h-123z" />
<glyph unicode="&#xdf;" horiz-adv-x="999" d="M90 0l186 1055q35 199 136.5 293t310.5 94q73 0 131 -13.5t96 -37t65 -56t37.5 -70t14 -79t-5.5 -82.5q0 -3 -4.5 -26.5t-5.5 -26.5q-16 -99 -71 -171t-155 -100q250 -78 199 -366q-36 -204 -168 -312t-321 -108q-45 0 -91 6l31 176q132 -20 218.5 39.5t111.5 204.5 q14 66 3.5 114t-30.5 79t-56 49t-73 25t-82 7l29 160q107 0 162 42t73 144q0 3 4 25t5 25q28 176 -146 176q-102 0 -141 -51.5t-61 -180.5l-183 -1034h-219z" />
<glyph unicode="&#xe0;" horiz-adv-x="837" d="M92 299q50 280 326 326l248 41l14 77q15 90 -11 124t-120 34q-113 0 -252 -41l-31 144q59 31 157.5 50t178.5 19q183 0 251 -79t36 -257l-129 -737h-189l4 111q-136 -119 -276 -119q-122 0 -177 84.5t-30 222.5zM313 311q-11 -66 11 -105.5t82 -39.5q87 0 184 67l47 263 l-170 -35q-69 -15 -106.5 -50t-47.5 -100zM524 1597h236l59 -409h-194z" />
<glyph unicode="&#xe1;" horiz-adv-x="837" d="M92 299q50 280 326 326l248 41l14 77q15 90 -11 124t-120 34q-113 0 -252 -41l-31 144q59 31 157.5 50t178.5 19q183 0 251 -79t36 -257l-129 -737h-189l4 111q-136 -119 -276 -119q-122 0 -177 84.5t-30 222.5zM313 311q-11 -66 11 -105.5t82 -39.5q87 0 184 67l47 263 l-170 -35q-69 -15 -106.5 -50t-47.5 -100zM530 1188l207 409h236l-248 -409h-195z" />
<glyph unicode="&#xe2;" horiz-adv-x="837" d="M92 299q50 280 326 326l248 41l14 77q15 90 -11 124t-120 34q-113 0 -252 -41l-31 144q59 31 157.5 50t178.5 19q183 0 251 -79t36 -257l-129 -737h-189l4 111q-136 -119 -276 -119q-122 0 -177 84.5t-30 222.5zM313 311q-11 -66 11 -105.5t82 -39.5q87 0 184 67l47 263 l-170 -35q-69 -15 -106.5 -50t-47.5 -100zM332 1188l311 409h148l165 -409h-211l-65 205l-139 -205h-209z" />
<glyph unicode="&#xe3;" horiz-adv-x="837" d="M92 299q50 280 326 326l248 41l14 77q15 90 -11 124t-120 34q-113 0 -252 -41l-31 144q59 31 157.5 50t178.5 19q183 0 251 -79t36 -257l-129 -737h-189l4 111q-136 -119 -276 -119q-122 0 -177 84.5t-30 222.5zM307 1235q1 9 5 24.5t22.5 55t45 69.5t78.5 55t117 25 q43 0 78 -16t54.5 -35t45 -35t50.5 -16q32 0 51.5 23.5t23.5 46.5l3 24l174 -43q-1 -9 -5 -24t-23 -54t-46 -68.5t-79.5 -54t-119.5 -24.5q-35 0 -63.5 10.5t-47 26t-35 31t-36 26t-41.5 10.5q-32 0 -52 -23.5t-24 -46.5l-4 -24zM313 311q-11 -66 11 -105.5t82 -39.5 q87 0 184 67l47 263l-170 -35q-69 -15 -106.5 -50t-47.5 -100z" />
<glyph unicode="&#xe4;" horiz-adv-x="837" d="M92 299q50 280 326 326l248 41l14 77q15 90 -11 124t-120 34q-113 0 -252 -41l-31 144q59 31 157.5 50t178.5 19q183 0 251 -79t36 -257l-129 -737h-189l4 111q-136 -119 -276 -119q-122 0 -177 84.5t-30 222.5zM313 311q-11 -66 11 -105.5t82 -39.5q87 0 184 67l47 263 l-170 -35q-69 -15 -106.5 -50t-47.5 -100zM350 1333q9 57 56 96t104 39q58 0 90 -39t23 -96q-11 -57 -56.5 -96t-103.5 -39q-57 0 -90 39t-23 96zM733 1333q9 57 56 96t106 39q56 0 88 -39t23 -96q-10 -57 -56 -96t-102 -39q-59 0 -92 39t-23 96z" />
<glyph unicode="&#xe5;" horiz-adv-x="837" d="M92 299q50 280 326 326l248 41l14 77q15 90 -11 124t-120 34q-113 0 -252 -41l-31 144q59 31 157.5 50t178.5 19q183 0 251 -79t36 -257l-129 -737h-189l4 111q-136 -119 -276 -119q-122 0 -177 84.5t-30 222.5zM313 311q-11 -66 11 -105.5t82 -39.5q87 0 184 67l47 263 l-170 -35q-69 -15 -106.5 -50t-47.5 -100zM473 1401q17 97 95 159t175 62q96 0 155 -62.5t42 -158.5q-17 -93 -97.5 -155t-176.5 -62q-97 0 -153.5 61.5t-39.5 155.5zM627 1401q-6 -33 11 -54.5t52 -21.5q34 0 62 22t34 54q6 36 -14 57t-55 21q-36 0 -60 -21t-30 -57z" />
<glyph unicode="&#xe6;" horiz-adv-x="1318" d="M92 299q50 280 326 326l248 41l14 77q15 90 -11 124t-120 34q-113 0 -252 -41l-31 144q59 31 157.5 50t178.5 19q95 0 159.5 -33t84.5 -90q34 54 111.5 88.5t150.5 34.5q64 0 113 -12.5t88.5 -41.5t59.5 -76.5t25.5 -117t-12.5 -163.5q-20 -123 -45 -205h-497 q-21 -161 17.5 -228t135.5 -67q95 0 238 39l29 -146q-59 -29 -149.5 -46t-170.5 -17q-206 0 -274 127q-67 -65 -160.5 -96t-163.5 -31q-154 0 -215 82t-35 225zM313 311q-11 -66 11 -107.5t82 -41.5q39 0 99.5 28t119.5 70q-10 112 12 236l-170 -35q-69 -15 -106.5 -50 t-47.5 -100zM868 618h310l8 48q24 130 -3 186.5t-104 56.5q-151 0 -211 -291z" />
<glyph unicode="&#xe7;" horiz-adv-x="872" d="M135 -473l72 119q85 -31 149 -31q211 0 222 82q7 41 -19.5 53t-103.5 12h-197l21 80l127 166q-127 37 -178 165.5t-11 358.5q49 279 179 410t317 131q78 0 159.5 -17t128.5 -48l-77 -144q-100 35 -205 35q-223 0 -285 -354q-32 -183 10.5 -281t149.5 -98q103 0 213 35 l27 -146q-88 -46 -254 -61l-74 -98q31 0 55 -1.5t49 -4.5t43.5 -8t36 -13t29.5 -18.5t21 -25.5t13 -34t4 -43t-5 -53q-13 -70 -52 -117t-99.5 -69t-120.5 -30.5t-138 -8.5q-124 0 -207 57z" />
<glyph unicode="&#xe8;" horiz-adv-x="827" d="M131.5 288q-6.5 84 13.5 197l13 68q26 145 70.5 248t105 161.5t128.5 84.5t152 26q65 0 114.5 -12.5t89.5 -41.5t59.5 -76.5t25.5 -117t-12 -163.5q-15 -90 -45 -205h-500q-20 -162 19 -228.5t137 -66.5q94 0 237 39l27 -146q-57 -29 -148.5 -46t-171.5 -17 q-71 0 -125 15t-97 49.5t-64.5 91t-28 140.5zM375 618h309l8 48q24 130 -2.5 186.5t-103.5 56.5q-148 0 -211 -291zM520 1597h236l59 -409h-194z" />
<glyph unicode="&#xe9;" horiz-adv-x="827" d="M131.5 288q-6.5 84 13.5 197l13 68q26 145 70.5 248t105 161.5t128.5 84.5t152 26q65 0 114.5 -12.5t89.5 -41.5t59.5 -76.5t25.5 -117t-12 -163.5q-15 -90 -45 -205h-500q-20 -162 19 -228.5t137 -66.5q94 0 237 39l27 -146q-57 -29 -148.5 -46t-171.5 -17 q-71 0 -125 15t-97 49.5t-64.5 91t-28 140.5zM375 618h309l8 48q24 130 -2.5 186.5t-103.5 56.5q-148 0 -211 -291zM539 1188l206 409h236l-248 -409h-194z" />
<glyph unicode="&#xea;" horiz-adv-x="827" d="M131.5 288q-6.5 84 13.5 197l13 68q26 145 70.5 248t105 161.5t128.5 84.5t152 26q65 0 114.5 -12.5t89.5 -41.5t59.5 -76.5t25.5 -117t-12 -163.5q-15 -90 -45 -205h-500q-20 -162 19 -228.5t137 -66.5q94 0 237 39l27 -146q-57 -29 -148.5 -46t-171.5 -17 q-71 0 -125 15t-97 49.5t-64.5 91t-28 140.5zM324 1188l311 409h147l166 -409h-211l-65 205l-140 -205h-208zM375 618h309l8 48q24 130 -2.5 186.5t-103.5 56.5q-148 0 -211 -291z" />
<glyph unicode="&#xeb;" horiz-adv-x="827" d="M131.5 288q-6.5 84 13.5 197l13 68q26 145 70.5 248t105 161.5t128.5 84.5t152 26q65 0 114.5 -12.5t89.5 -41.5t59.5 -76.5t25.5 -117t-12 -163.5q-15 -90 -45 -205h-500q-20 -162 19 -228.5t137 -66.5q94 0 237 39l27 -146q-57 -29 -148.5 -46t-171.5 -17 q-71 0 -125 15t-97 49.5t-64.5 91t-28 140.5zM342 1333q9 57 56 96t104 39t89 -39t23 -96q-11 -57 -56.5 -96t-102.5 -39t-90 39t-23 96zM375 618h309l8 48q24 130 -2.5 186.5t-103.5 56.5q-148 0 -211 -291zM723 1333q9 57 56.5 96t107.5 39q55 0 87 -39t23 -96 q-10 -57 -55.5 -96t-101.5 -39q-60 0 -94 39t-23 96z" />
<glyph unicode="&#xec;" horiz-adv-x="452" d="M121 0l188 1065h211l-188 -1065h-211zM236 1597h235l59 -409h-194z" />
<glyph unicode="&#xed;" horiz-adv-x="452" d="M121 0l188 1065h211l-188 -1065h-211zM338 1188l207 409h235l-248 -409h-194z" />
<glyph unicode="&#xee;" horiz-adv-x="452" d="M121 0l188 1065h211l-188 -1065h-211zM123 1188l311 409h148l166 -409h-211l-66 205l-139 -205h-209z" />
<glyph unicode="&#xef;" horiz-adv-x="452" d="M121 0l188 1065h211l-188 -1065h-211zM135 1333q9 57 56 96t104 39q58 0 90 -39t23 -96q-11 -57 -56.5 -96t-103.5 -39q-57 0 -90 39t-23 96zM518 1333q9 57 56 96t106 39q56 0 88 -39t23 -96q-10 -57 -56 -96t-102 -39q-59 0 -92 39t-23 96z" />
<glyph unicode="&#xf0;" horiz-adv-x="954" d="M132 314q1 49 11 104l9 45q14 82 46.5 155t82.5 134.5t124 98t162 36.5q86 0 113 -27l-62 191h-288l26 143h219l-69 229h233l72 -229h244l-27 -143h-174q6 -17 25.5 -75.5t26 -79t21.5 -73t20 -79.5t13.5 -75t9 -83t-1.5 -80t-10 -88q-12 -67 -32.5 -125t-58.5 -115 t-89.5 -97t-128.5 -64.5t-172 -24.5q-80 0 -141.5 16.5t-100 47.5t-63 70t-33 89t-7.5 99zM356 438q-25 -141 12 -208.5t140 -67.5q101 0 161 67.5t85 208.5q25 143 -11 212t-137 69q-103 0 -164 -69t-86 -212z" />
<glyph unicode="&#xf1;" horiz-adv-x="878" d="M80 0l188 1065h187l-2 -107q133 115 292 115q115 0 168.5 -63.5t26.5 -216.5l-139 -793h-211l137 782q14 77 -7 100t-69 23q-63 0 -123 -23.5t-90 -47.5l-147 -834h-211zM301 1235q1 5 2.5 13t9.5 32t19 45.5t32.5 48t48 45.5t67.5 32t89 13q42 0 77 -16t54 -35t44 -35 t51 -16q33 0 52 23.5t22 46.5l3 24l175 -43q-1 -9 -5 -24t-23 -54t-45.5 -68.5t-79 -54t-118.5 -24.5q-43 0 -77 16t-52.5 36t-43.5 36t-52 16q-32 0 -52 -23.5t-24 -46.5l-4 -24z" />
<glyph unicode="&#xf2;" horiz-adv-x="892" d="M133 267.5q-10 98.5 12 242.5l9 43q25 140 73.5 243t113 162t137.5 87t155 28q83 0 147 -27t111 -88.5t58 -161t-11 -243.5l-8 -43q-25 -139 -74.5 -242t-116 -161.5t-140.5 -86.5t-157 -28q-82 0 -145 27t-108.5 88.5t-55.5 160zM356 510q-61 -350 117 -350 q183 0 244 350l8 43q32 182 0.5 266t-121.5 84q-88 0 -147.5 -84t-91.5 -266zM518 1597h236l59 -409h-195z" />
<glyph unicode="&#xf3;" horiz-adv-x="892" d="M133 267.5q-10 98.5 12 242.5l9 43q25 140 73.5 243t113 162t137.5 87t155 28q83 0 147 -27t111 -88.5t58 -161t-11 -243.5l-8 -43q-25 -139 -74.5 -242t-116 -161.5t-140.5 -86.5t-157 -28q-82 0 -145 27t-108.5 88.5t-55.5 160zM356 510q-61 -350 117 -350 q183 0 244 350l8 43q32 182 0.5 266t-121.5 84q-88 0 -147.5 -84t-91.5 -266zM561 1188l207 409h236l-248 -409h-195z" />
<glyph unicode="&#xf4;" horiz-adv-x="892" d="M133 267.5q-10 98.5 12 242.5l9 43q25 140 73.5 243t113 162t137.5 87t155 28q83 0 147 -27t111 -88.5t58 -161t-11 -243.5l-8 -43q-25 -139 -74.5 -242t-116 -161.5t-140.5 -86.5t-157 -28q-82 0 -145 27t-108.5 88.5t-55.5 160zM344 1188l313 409h148l164 -409h-209 l-66 205l-139 -205h-211zM356 510q-61 -350 117 -350q183 0 244 350l8 43q32 182 0.5 266t-121.5 84q-88 0 -147.5 -84t-91.5 -266z" />
<glyph unicode="&#xf5;" horiz-adv-x="892" d="M133 267.5q-10 98.5 12 242.5l9 43q25 140 73.5 243t113 162t137.5 87t155 28q83 0 147 -27t111 -88.5t58 -161t-11 -243.5l-8 -43q-25 -139 -74.5 -242t-116 -161.5t-140.5 -86.5t-157 -28q-82 0 -145 27t-108.5 88.5t-55.5 160zM307 1235q1 9 5 24.5t22.5 55t45 69.5 t78.5 55t117 25q43 0 78 -16t54.5 -35t45 -35t50.5 -16q32 0 51.5 23.5t23.5 46.5l3 24l174 -43q-1 -9 -5 -24t-23 -54t-46 -68.5t-79.5 -54t-119.5 -24.5q-35 0 -63.5 10.5t-47 26t-35 31t-36 26t-41.5 10.5q-32 0 -52 -23.5t-24 -46.5l-4 -24zM356 510q-61 -350 117 -350 q183 0 244 350l8 43q32 182 0.5 266t-121.5 84q-88 0 -147.5 -84t-91.5 -266z" />
<glyph unicode="&#xf6;" horiz-adv-x="892" d="M133 267.5q-10 98.5 12 242.5l9 43q25 140 73.5 243t113 162t137.5 87t155 28q83 0 147 -27t111 -88.5t58 -161t-11 -243.5l-8 -43q-25 -139 -74.5 -242t-116 -161.5t-140.5 -86.5t-157 -28q-82 0 -145 27t-108.5 88.5t-55.5 160zM356 510q-61 -350 117 -350 q183 0 244 350l8 43q32 182 0.5 266t-121.5 84q-88 0 -147.5 -84t-91.5 -266zM358 1333q9 57 56 96t104 39q58 0 90 -39t23 -96q-11 -57 -56.5 -96t-103.5 -39q-57 0 -90 39t-23 96zM741 1333q9 57 56 96t106 39q56 0 88 -39t23 -96q-10 -57 -56 -96t-102 -39q-59 0 -92 39 t-23 96z" />
<glyph unicode="&#xf7;" horiz-adv-x="915" d="M184 598l33 182h758l-33 -182h-758zM391 389q9 57 56 97t104 40q56 0 91 -39.5t26 -97.5q-10 -55 -59 -96t-105 -41q-57 0 -90.5 40.5t-22.5 96.5zM496 989q11 56 58 96.5t103 40.5t90.5 -40.5t24.5 -96.5q-9 -56 -58.5 -96.5t-105.5 -40.5q-57 0 -89 40t-23 97z" />
<glyph unicode="&#xf8;" horiz-adv-x="890" d="M133 267.5q-10 98.5 12 242.5l9 43q25 140 73.5 243t113 162t137.5 87t155 28q83 0 147 -27t111 -88.5t58 -161t-11 -243.5l-8 -43q-25 -139 -74.5 -242t-116 -161.5t-140.5 -86.5t-157 -28q-82 0 -145 27t-108.5 88.5t-55.5 160zM352 268l273 635h-23q-88 0 -146.5 -84 t-90.5 -266l-9 -43q-27 -165 -4 -242zM455 162q6 -2 22 -2q179 0 240 350l8 43q27 167 4 246z" />
<glyph unicode="&#xf9;" horiz-adv-x="878" d="M122 137q-6 54 5 135l141 793h211l-139 -782q-12 -77 8 -100t68 -23q63 0 122.5 23t92.5 48l147 834h211l-188 -1065h-187l2 106q-136 -114 -294 -114q-56 0 -95.5 13t-69 45.5t-35.5 86.5zM518 1597h236l59 -409h-195z" />
<glyph unicode="&#xfa;" horiz-adv-x="878" d="M122 137q-6 54 5 135l141 793h211l-139 -782q-12 -77 8 -100t68 -23q63 0 122.5 23t92.5 48l147 834h211l-188 -1065h-187l2 106q-136 -114 -294 -114q-56 0 -95.5 13t-69 45.5t-35.5 86.5zM532 1188l207 409h236l-248 -409h-195z" />
<glyph unicode="&#xfb;" horiz-adv-x="878" d="M122 137q-6 54 5 135l141 793h211l-139 -782q-12 -77 8 -100t68 -23q63 0 122.5 23t92.5 48l147 834h211l-188 -1065h-187l2 106q-136 -114 -294 -114q-56 0 -95.5 13t-69 45.5t-35.5 86.5zM336 1188l313 409h148l164 -409h-209l-66 205l-139 -205h-211z" />
<glyph unicode="&#xfc;" horiz-adv-x="878" d="M122 137q-6 54 5 135l141 793h211l-139 -782q-12 -77 8 -100t68 -23q63 0 122.5 23t92.5 48l147 834h211l-188 -1065h-187l2 106q-136 -114 -294 -114q-56 0 -95.5 13t-69 45.5t-35.5 86.5zM350 1333q9 57 56 96t106 39q57 0 89.5 -39t23.5 -96q-10 -57 -56.5 -96 t-103.5 -39q-59 0 -92 39t-23 96zM733 1333q9 57 56 96t106 39q57 0 88.5 -39t22.5 -96q-11 -57 -56 -96t-102 -39q-59 0 -92 39t-23 96z" />
<glyph unicode="&#xfd;" horiz-adv-x="878" d="M129 -399l213 442l-135 1022h219l74 -727l329 727h222l-707 -1464h-215zM539 1188l206 409h236l-248 -409h-194z" />
<glyph unicode="&#xfe;" horiz-adv-x="911" d="M8 -410l324 1844h211l-82 -465q87 104 237 104q88 0 148 -42t86.5 -116t30.5 -175t-19 -218q-46 -257 -164 -393.5t-272 -136.5q-157 0 -201 104l-88 -506h-211zM332 231q50 -65 145 -65q92 0 158 96t94 260q68 377 -123 377q-99 0 -168 -65z" />
<glyph unicode="&#xff;" horiz-adv-x="878" d="M129 -399l213 442l-135 1022h219l74 -727l329 727h222l-707 -1464h-215zM362 1333q9 57 56 96t106 39q57 0 88.5 -39t22.5 -96q-11 -57 -56 -96t-102 -39q-59 0 -92 39t-23 96zM745 1333q9 57 56 96t106 39q57 0 88.5 -39t22.5 -96q-11 -57 -56 -96t-102 -39 q-59 0 -92 39t-23 96z" />
<glyph unicode="&#x110;" horiz-adv-x="1038" d="M131 645l31 180h143l107 609h241q94 0 168 -11.5t128 -36t92 -56.5t60 -80t32.5 -100t9 -122.5t-10 -141t-24.5 -161.5q-16 -92 -32.5 -163.5t-40.5 -143.5t-53 -125.5t-68 -102.5t-89 -82.5t-113 -58.5t-141.5 -37t-173.5 -12h-237l114 645h-143zM412 184h24 q83 0 145.5 14.5t107 51t73.5 74.5t51.5 109.5t35 128.5t30.5 159q14 78 20.5 120t13 102.5t2.5 92.5t-12.5 73t-30.5 62t-54 41.5t-80 28.5t-111 8h-27l-76 -424h195l-31 -180h-194z" />
<glyph unicode="&#x111;" horiz-adv-x="968" d="M152 518q22 124 58 220t80.5 158.5t100.5 103t115.5 57t128.5 16.5q98 0 168 -45l22 135h-354l25 144h354l27 143h210l-26 -143h121l-25 -144h-121l-205 -1163h-186l4 111q-35 -54 -100.5 -86.5t-151.5 -32.5q-164 0 -228 132t-17 394zM351.5 334.5 q1.5 -78.5 36.5 -123.5t104 -45q98 0 170 65l114 648q-52 20 -121 20q-53 0 -95 -17.5t-79.5 -59.5t-66 -117t-47.5 -185q-17 -107 -15.5 -185.5z" />
<glyph unicode="&#x131;" horiz-adv-x="452" d="M121 0l188 1065h211l-188 -1065h-211z" />
<glyph unicode="&#x141;" horiz-adv-x="847" d="M133 653l31 172h149l107 609h219l-107 -609h265l-31 -172h-264l-82 -469h424l-33 -184h-643l115 653h-150z" />
<glyph unicode="&#x142;" horiz-adv-x="743" d="M133 653l31 172h244l106 609h219l-106 -609h243l-30 -172h-244l-115 -653h-219l115 653h-244z" />
<glyph unicode="&#x152;" horiz-adv-x="1423" d="M165 401q2 75 10.5 141.5t23.5 149.5l8 47q15 83 30 149.5t39.5 142t53.5 132.5t72 112t94.5 90t121 56t152.5 21q58 0 94 -8h754l-31 -185h-497q54 -140 14 -418h323l-32 -184h-322q-65 -318 -170 -463h496l-33 -184h-752q-44 -8 -100 -8q-83 0 -145 21t-101.5 56 t-63 89t-32.5 111t-7 132zM397.5 443q-0.5 -37 1.5 -80t13 -71.5t27.5 -54t44.5 -37.5t65 -12q42 0 78.5 18t63 44t50 71.5t38 85t30 101t23.5 102t20 105.5q10 56 15.5 92t12 90t7 90t-1.5 80t-13 72.5t-27.5 54t-44.5 37.5t-65 12q-42 0 -78.5 -17.5t-63 -44.5t-49.5 -72 t-38 -85.5t-30 -101t-23 -102.5t-19 -105q-10 -54 -16 -91.5t-13 -90.5t-7.5 -90z" />
<glyph unicode="&#x153;" horiz-adv-x="1396" d="M133 267.5q-10 98.5 12 242.5l9 43q25 140 73.5 243t113 162t137.5 87t155 28q89 0 160 -42.5t92 -123.5q47 83 129 124.5t172 41.5q64 0 113 -12.5t88.5 -41.5t59.5 -76.5t25.5 -117t-12.5 -163.5q-20 -123 -45 -205h-497q-21 -161 17.5 -228t135.5 -67q95 0 238 39 l28 -146q-59 -29 -149 -46t-170 -17q-98 0 -170.5 43t-91.5 125q-52 -80 -139 -124t-175 -44q-82 0 -145 27t-108.5 88.5t-55.5 160zM356 510q-61 -350 117 -350q183 0 244 350l8 43q32 182 0.5 266t-121.5 84q-88 0 -147.5 -84t-91.5 -266zM946 618h309q1 8 4.5 25.5 l4.5 22.5q24 130 -3 186.5t-104 56.5q-151 0 -211 -291z" />
<glyph unicode="&#x160;" horiz-adv-x="927" d="M61 74l84 159q119 -45 263 -45q245 0 280 193q10 56 0.5 99.5t-45 78t-60 51t-79.5 47.5q-8 5 -12 7q-32 18 -57.5 34t-53 36t-47 39.5t-40 43.5t-31.5 48.5t-21 54.5t-9 60.5t5 68.5q37 212 157.5 302.5t337.5 90.5q83 0 176.5 -20.5t155.5 -59.5l-82 -160 q-130 45 -262 45q-46 0 -81.5 -5.5t-74 -21.5t-64.5 -51.5t-36 -87.5q-5 -35 -2.5 -63.5t14 -52t28 -42.5t39 -36t46 -32t50.5 -30q11 -6 16.5 -9.5t15 -8.5t16.5 -10q31 -19 53.5 -34.5t48 -35.5t43.5 -39.5t35.5 -43t27.5 -50t16.5 -57t6 -66.5t-7.5 -76 q-37 -211 -167.5 -307t-348.5 -96q-86 0 -179.5 20.5t-154.5 61.5zM479 1966h211l68 -205l137 205h209l-309 -410h-148z" />
<glyph unicode="&#x161;" horiz-adv-x="761" d="M61 70l82 135q39 -18 103.5 -28.5t113.5 -10.5q47 0 84.5 10t68 37.5t38.5 71.5q9 57 -24.5 99.5t-94.5 80.5q-15 10 -48 28q-21 12 -32 18.5t-30.5 19t-30.5 21t-27.5 22t-25.5 25.5t-20 28t-16 32t-9.5 35t-4 40.5t4.5 45.5q29 159 125.5 226t246.5 67 q89 0 180.5 -19.5t137.5 -56.5l-80 -141q-44 18 -110.5 30.5t-119.5 12.5q-146 0 -163 -98q-5 -30 3 -55.5t34 -49.5t43.5 -37t61 -38t56.5 -33q37 -22 64 -44.5t55.5 -58t38.5 -85t0 -109.5q-14 -82 -51.5 -141.5t-92 -93t-117.5 -49t-138 -15.5q-87 0 -175.5 19.5 t-130.5 58.5zM356 1597h211l66 -204l139 204h209l-311 -409h-148z" />
<glyph unicode="&#x178;" horiz-adv-x="935" d="M270 1434h238l106 -613l318 613h239l-497 -885l-96 -549h-222l97 549zM440 1702q9 57 56 96t104 39q58 0 90 -39t23 -96q-11 -57 -56.5 -96t-103.5 -39q-57 0 -90 39t-23 96zM823 1702q9 57 56 96t106 39q56 0 88 -39t23 -96q-10 -57 -56 -96t-102 -39q-59 0 -92 39 t-23 96z" />
<glyph unicode="&#x17d;" horiz-adv-x="907" d="M59 0l21 115l690 1134h-489l30 185h770l-18 -115l-690 -1135h489l-33 -184h-770zM477 1966h211l68 -205l137 205h209l-309 -410h-148z" />
<glyph unicode="&#x17e;" horiz-adv-x="872" d="M59 0l17 98l579 799h-438l31 168h700l-18 -98l-580 -799h438l-28 -168h-701zM379 1597h211l65 -204l140 204h209l-312 -409h-147z" />
<glyph unicode="&#x192;" horiz-adv-x="751" d="M23 37l63 143q39 -22 100 -22q69 0 99 46.5t47 145.5l98 551h-162l29 164h162l4 29q35 183 116 271.5t226 88.5q58 0 107.5 -12t72.5 -33l-61 -143q-46 22 -101 22q-71 0 -101.5 -47t-47.5 -145l-4 -31h202l-28 -164h-203l-98 -549q-33 -181 -114 -270.5t-226 -89.5 q-58 0 -107.5 12t-72.5 33z" />
<glyph unicode="&#x2c6;" horiz-adv-x="741" d="M268 1188l312 409h147l166 -409h-211l-66 205l-139 -205h-209z" />
<glyph unicode="&#x2c7;" horiz-adv-x="741" d="M342 1597h209l65 -204l140 204h211l-314 -409h-147z" />
<glyph unicode="&#x2d8;" horiz-adv-x="692" d="M315 1448h185q-22 -121 75 -121q104 0 127 121h187q-22 -124 -115 -204.5t-227 -80.5q-131 0 -192.5 80.5t-39.5 204.5z" />
<glyph unicode="&#x2d9;" horiz-adv-x="389" d="M291 1315q10 57 57.5 96t104.5 39t89 -39t21 -96q-9 -58 -54.5 -96.5t-102.5 -38.5t-90.5 38.5t-24.5 96.5z" />
<glyph unicode="&#x2da;" horiz-adv-x="583" d="M307 1401q17 97 95.5 159t175.5 62q96 0 154.5 -62.5t41.5 -158.5q-17 -93 -97.5 -155t-176.5 -62q-97 0 -153.5 61.5t-39.5 155.5zM461 1401q-6 -33 11 -54.5t52 -21.5q34 0 62.5 22t34.5 54q6 36 -14.5 57t-55.5 21q-36 0 -60 -21t-30 -57z" />
<glyph unicode="&#x2db;" horiz-adv-x="573" />
<glyph unicode="&#x2dc;" horiz-adv-x="833" d="M276 1235q1 5 2.5 13t10 32t20 45.5t33 48t48 45.5t67 32t88.5 13q43 0 78 -16t54 -35t44.5 -35t50.5 -16q32 0 51.5 23.5t22.5 46.5l4 24l174 -43q-1 -9 -5 -24t-22.5 -54t-45.5 -68.5t-79.5 -54t-119.5 -24.5q-35 0 -63.5 10.5t-47.5 26t-35.5 31t-36 26t-41.5 10.5 q-20 0 -35.5 -9.5t-23.5 -23.5t-13 -28t-6 -23l-1 -10z" />
<glyph unicode="&#x2dd;" horiz-adv-x="815" d="M205 942l260 492h229l-301 -492h-188zM539 942l260 492h231l-301 -492h-190z" />
<glyph unicode="&#x3bc;" horiz-adv-x="878" d="M8 -410l260 1475h211l-139 -782q-8 -34 -3.5 -56.5t9.5 -35.5t19 -20t26.5 -9t30.5 -2q62 0 118.5 22.5t90.5 48.5l147 834h211l-188 -1065h-187l2 106q-58 -55 -109.5 -84.5t-113.5 -29.5q-33 0 -62.5 9.5t-35.5 23.5l-76 -435h-211z" />
<glyph unicode="&#xe01;" horiz-adv-x="987" d="M115 0l69 393q20 111 81 186t163 99l-229 51l14 86q30 167 160 274t313 107q220 0 306 -114t38 -380l-123 -702h-219l125 713q31 171 -7.5 238t-150.5 67q-91 0 -152.5 -51t-82.5 -152l217 -49l-16 -92q-176 -56 -213 -260l-74 -414h-219z" />
<glyph unicode="&#xe02;" horiz-adv-x="933" d="M143.5 255.5q2.5 62.5 14.5 145.5q0 21 18 111q12 68 41 129t63 104.5t66.5 81t58 74.5t31.5 70q4 32 -17 47.5t-63 15.5q-30 0 -82 -10l-26 127q112 41 217 41q96 0 147.5 -43.5t34.5 -142.5q-11 -60 -48 -125t-76 -114t-76 -116.5t-48 -132.5l-20 -117 q-25 -141 -1 -187t116 -46q94 0 141 48t72 185l137 787h221l-137 -787q-22 -122 -63 -203.5t-103 -126t-132.5 -62t-166.5 -17.5q-62 0 -109 7t-89 25t-66 48t-41 75.5t-14.5 108z" />
<glyph unicode="&#xe03;" horiz-adv-x="970" d="M180.5 255.5q2.5 62.5 14.5 145.5q0 21 18 111q14 78 54 152.5t80.5 122.5t82.5 102.5t57 91.5q-53 -63 -135 -63q-57 0 -88 28t-35 71t4.5 87t26.5 84h176q-8 -17 -14 -35.5t-10.5 -41.5t1.5 -37.5t25 -14.5q36 0 72.5 35.5t46.5 93.5h172l-18 -109q-11 -63 -40 -125 t-64 -112.5t-69.5 -100.5t-63 -108t-38.5 -115l-20 -117q-25 -141 -1 -187t115 -46q94 0 141 48t72 185l138 787h219l-137 -787q-22 -122 -62.5 -203.5t-102 -126t-132 -62t-166.5 -17.5q-62 0 -109 7t-89 25t-66 48t-41 75.5t-14.5 108z" />
<glyph unicode="&#xe04;" horiz-adv-x="1009" d="M80 0l123 692q25 143 71 242.5t113 156t147 81t183 24.5q82 0 143 -15t109 -50.5t71 -93t29.5 -143.5t-16.5 -202l-123 -692h-219l123 692q14 79 16 134.5t-6.5 93t-30 59t-52 30.5t-75.5 9q-76 0 -124 -26.5t-83 -98t-57 -201.5l-37 -198q40 65 98 100t127 35h80 l-31 -178h-79q-78 0 -148.5 -50.5t-81.5 -113.5l-51 -287h-219z" />
<glyph unicode="&#xe05;" horiz-adv-x="1011" d="M80 0l149 848q15 83 33 140.5t49.5 107.5t82 75t120.5 25q85 0 128 -32.5t52 -96.5q61 129 226 129q56 0 94 -17.5t56.5 -46.5t24 -75.5t2 -94.5t-15.5 -114l-149 -848h-219l151 862q5 28 6.5 47.5t-0.5 44t-15.5 37.5t-37.5 13q-20 0 -35 -10t-24 -21.5t-16.5 -35.5 t-10.5 -36.5t-8 -40.5h-133q6 31 8 50.5t0.5 44t-14.5 37t-37 12.5t-42 -13t-28.5 -37.5t-15.5 -44t-10 -47.5l-66 -368q40 65 98 100t127 35h80l-31 -178h-79q-78 0 -148.5 -50.5t-81.5 -113.5l-51 -287h-219z" />
<glyph unicode="&#xe06;" horiz-adv-x="989" d="M123 0l90 512q14 78 54.5 152.5t82.5 122.5t84.5 102.5t57.5 91.5q-53 -63 -140 -63q-57 0 -88 28t-35 71t4.5 87t26.5 84h180q-52 -129 4 -129q34 0 70 35.5t47 93.5h172l-18 -109q-14 -77 -56 -155t-85 -133t-84.5 -129.5t-53.5 -143.5l-39 -217q57 -125 197 -125 q59 0 99 31t50 92l156 889h221l-157 -899q-27 -148 -112.5 -222.5t-209.5 -74.5q-94 0 -168 41t-115 119l-47 -152h-188z" />
<glyph unicode="&#xe07;" horiz-adv-x="944" d="M229 1188h224l94 -1008q210 319 264 623q20 111 -2.5 164t-93.5 53q-20 0 -46 -3.5t-41 -6.5l-16 -4l-14 153q82 37 195 37q151 0 211 -91.5t24 -291.5q-36 -208 -139.5 -406.5t-253.5 -406.5h-273z" />
<glyph unicode="&#xe08;" horiz-adv-x="886" d="M152 512l30 174h183q43 0 71.5 -23t34.5 -63l45 -414q90 135 153.5 287t86.5 285q8 47 9 84.5t-4.5 65t-18 47.5t-28 32.5t-38.5 19.5t-47 10t-54 3q-141 0 -292 -47l-35 151q64 33 171 52.5t204 19.5q83 0 145.5 -13.5t111.5 -43.5t74 -78.5t33 -118t-10 -162.5 q-61 -355 -377 -780h-262l-59 492q-3 20 -23 20h-104z" />
<glyph unicode="&#xe09;" horiz-adv-x="948" d="M133 289l68 387h219l-66 -377q-10 -61 18.5 -92t88.5 -31q140 0 241 125l76 436q11 60 12 105.5t-8 76.5t-24 51t-41 31t-54 15t-67 4q-67 0 -146 -13.5t-135 -33.5l-34 151q63 32 169.5 52t198.5 20q67 0 119.5 -9t99 -29.5t76 -55t49.5 -85.5t19 -120t-15 -160 l-129 -737h-186l6 152q-68 -78 -158 -119t-184 -41q-122 0 -181 74.5t-32 222.5z" />
<glyph unicode="&#xe0a;" horiz-adv-x="933" d="M143.5 255.5q2.5 62.5 14.5 145.5l18 111q12 68 41 129t63 104.5t66.5 81t58 74.5t31.5 70q4 32 -17 47.5t-63 15.5q-30 0 -82 -10l-26 127q112 41 217 41q96 0 147.5 -43.5t34.5 -142.5q-11 -60 -48 -125t-76 -114t-76 -116.5t-48 -132.5l-20 -117q-25 -141 -1 -187 t116 -46q94 0 141 48t72 185l22 134q7 40 8 72t-5 56t-12.5 40.5t-21 31t-23.5 22.5t-26 19l23 125q36 18 61.5 33t56.5 42.5t50.5 59t33.5 79t15 104.5h209q5 -126 -61.5 -227t-198.5 -154q75 -47 104 -116.5t6 -193.5l-20 -127q-22 -122 -63 -203.5t-103 -126t-132.5 -62 t-166.5 -17.5q-62 0 -109 7t-89 25t-66 48t-41 75.5t-14.5 108z" />
<glyph unicode="&#xe0b;" horiz-adv-x="970" d="M180.5 255.5q2.5 62.5 14.5 145.5q0 21 18 111q14 78 54 152.5t80.5 122.5t82.5 102.5t57 91.5q-53 -63 -135 -63q-57 0 -88 28t-35 71t4.5 87t26.5 84h176q-8 -17 -14 -35.5t-10.5 -41.5t1.5 -37.5t25 -14.5q35 0 71.5 35.5t47.5 93.5h172l-18 -109q-11 -63 -40 -125 t-64 -112.5t-69.5 -100.5t-63 -108t-38.5 -115l-20 -117q-25 -141 -1 -187t115 -46q94 0 141 48t72 185l23 134q7 40 8 72t-5 56t-13 40.5t-21 31t-24 22.5t-27 19l23 125q36 17 62 32.5t57 43t50.5 59t33 79t14.5 104.5h209q6 -126 -60.5 -227t-198.5 -154 q74 -47 103 -116.5t6 -193.5l-20 -127q-22 -122 -62.5 -203.5t-102 -126t-132 -62t-166.5 -17.5q-62 0 -109 7t-89 25t-66 48t-41 75.5t-14.5 108z" />
<glyph unicode="&#xe0c;" horiz-adv-x="1445" d="M123 317l12 70q21 109 90 186.5t176 104.5l-229 51l14 86q30 168 153 274.5t304 106.5q219 0 299.5 -113t32.5 -381l-70 -401q27 -60 64 -92.5t102 -32.5q55 0 85 29t42 94l156 889h221l-158 -899q-54 -297 -299 -297q-169 0 -252 160l-47 -152h-188l125 713 q32 174 -0.5 239.5t-143.5 65.5q-179 0 -219 -203l217 -49l-16 -92q-200 -64 -234 -260l-10 -52q-9 -62 -7 -107t41 -66.5t122 -12.5l-31 -174q-209 -24 -295.5 60.5t-56.5 254.5z" />
<glyph unicode="&#xe0d;" horiz-adv-x="1447" d="M123 317l12 70q21 109 90 186.5t176 104.5l-229 51l14 86q30 168 153 274.5t304 106.5q219 0 299.5 -113t32.5 -381l-41 -239q-25 -144 -23 -187q3 -81 69 -99q23 -7 56 -7q24 0 44 4t35.5 9t28 17t21.5 21.5t17 29.5t12.5 32.5t10 39.5t8 42.5t8 49.5t8.5 52l127 721 h221l-129 -729q-18 -103 -37 -171t-51.5 -129t-78.5 -95t-114.5 -53t-162.5 -19q-155 0 -229 50.5t-83 154.5t19 262l45 254q32 174 -0.5 239.5t-143.5 65.5q-179 0 -219 -203l217 -49l-16 -92q-200 -64 -234 -260l-10 -52q-9 -62 -7 -107t41 -66.5t122 -12.5l-31 -174 q-209 -24 -295.5 60.5t-56.5 254.5zM623 -74h202q-28 -75 2 -110t129 -35h367l-29 -160h-411q-358 0 -260 305z" />
<glyph unicode="&#xe0e;" horiz-adv-x="1007" d="M29 2l30 174q21 -3 38.5 -3t31.5 2t25.5 8t20 12.5t16 18t12.5 22.5t10 28t8.5 32.5t7.5 37.5l11 63q23 123 66 189t143 92l-230 51l14 86q30 167 160.5 274t313.5 107q220 0 306 -114t38 -380l-195 -1112h-233q-49 87 -103 124.5t-125 37.5q-75 0 -107 -46t-34 -116 h-219q-2 142 94 236t244 94q218 0 291 -172l170 965q31 171 -7.5 238t-150.5 67q-91 0 -153 -51t-83 -152l217 -49l-16 -92q-47 -15 -78.5 -38t-50.5 -59t-29 -71t-20 -92l-21 -113q-16 -90 -43.5 -149.5t-75.5 -98.5t-120 -51t-174 0z" />
<glyph unicode="&#xe0f;" horiz-adv-x="1024" d="M29 -410l32 185q87 -14 159 25t118 118h162q3 -156 98 -156q87 0 107 119l145 832q31 171 -7.5 238t-150.5 67q-92 0 -153 -51.5t-82 -151.5l217 -49l-17 -92q-47 -15 -78.5 -38t-50.5 -59t-29 -71t-20 -92l-20 -113q-16 -90 -43.5 -149.5t-75.5 -98.5t-120.5 -51 t-174.5 0l31 174q21 -3 38.5 -3t31.5 2t25.5 8t20 12.5t16 18t12.5 22.5t10 28t8.5 32.5t7.5 37.5l10 63q23 123 66 189t143 92l-229 51l14 86q30 167 160 274t313 107q220 0 306 -114t38 -380l-145 -829q-25 -143 -109 -217t-203 -74q-99 0 -162.5 51t-62.5 138 q-57 -103 -142.5 -148t-213.5 -33z" />
<glyph unicode="&#xe10;" horiz-adv-x="925" d="M-25 -424l31 176q84 -13 153 23.5t111 111.5h156q2 -75 22.5 -111t71.5 -36q91 0 109 110l8 41h188l-10 -49q-24 -136 -105.5 -205t-197.5 -69q-93 0 -145.5 45.5t-49.5 128.5q-56 -98 -137.5 -138t-204.5 -28zM152 512l30 174h183q43 0 71.5 -23t34.5 -63l45 -414 q96 144 165 294t91 276q7 55 8.5 96t-11 70.5t-29 48.5t-43 30t-54 15t-63.5 4q-114 0 -299 -59l-37 151q129 55 383 92l555 80l-29 -162l-276 -39q157 -72 114 -305q-57 -328 -391 -778h-258l-57 492q-3 20 -23 20h-110z" />
<glyph unicode="&#xe11;" horiz-adv-x="1107" d="M221 1017q-4 43 4.5 87t26.5 84h176q-8 -17 -14 -35.5t-10.5 -41.5t1.5 -37.5t25 -14.5q35 0 71.5 35.5t47.5 93.5h168l-17 -101q140 109 271 109q122 0 181 -74t34 -217l-160 -905h-219l158 895q10 60 -17.5 88.5t-81.5 28.5q-93 0 -173 -71.5t-103 -201.5l-131 -739 h-221l106 600q40 232 168 381q-68 -63 -168 -63q-57 0 -88 28t-35 71z" />
<glyph unicode="&#xe12;" horiz-adv-x="1523" d="M143.5 322.5q1.5 96.5 24.5 228.5q40 221 47 252q60 264 174 348q62 45 143 45q72 0 115 -33.5t51 -95.5q64 129 222 129q56 0 93.5 -17.5t56 -46t24 -75.5t1.5 -94.5t-16 -114.5l-96 -547q27 -60 64 -92.5t102 -32.5q55 0 85 29t42 94l156 889h221l-158 -899 q-54 -297 -299 -297q-169 0 -252 160l-47 -152h-188l151 862q14 78 9 103q-7 39 -48 39q-19 0 -34 -10t-23.5 -21.5t-16 -35.5t-10.5 -36.5t-8 -40.5h-133q12 47 0.5 95.5t-47.5 48.5q-23 0 -42.5 -21t-34 -56t-28 -87.5t-24.5 -109.5t-24 -128l-9 -51q-18 -104 -22 -170.5 t6 -112t37 -64.5t70.5 -26.5t105.5 0.5l-31 -176q-65 -6 -119 -6q-74 0 -126 15t-91.5 52t-57 100t-16 159.5z" />
<glyph unicode="&#xe13;" horiz-adv-x="1445" d="M123 317l12 70q21 109 90 186.5t176 104.5l-229 51l14 86q30 168 153 274.5t304 106.5q219 0 299.5 -113t32.5 -381l-70 -403q-12 -65 7.5 -94t74.5 -29q65 0 114 32.5t97 92.5l156 887h221l-209 -1188h-188l6 152q-139 -160 -310 -160q-246 0 -192 297l74 424 q32 174 -0.5 239.5t-143.5 65.5q-176 0 -219 -203l217 -49l-16 -92q-200 -64 -234 -260l-10 -52q-9 -62 -7 -107t41 -66.5t122 -12.5l-31 -174q-209 -24 -295.5 60.5t-56.5 254.5z" />
<glyph unicode="&#xe14;" horiz-adv-x="997" d="M146.5 350.5q2.5 103.5 27.5 245.5q19 107 41 186t63 161.5t95 134.5t139 85t195 33q82 0 142.5 -15t109 -50.5t71 -93t29 -143.5t-16.5 -202l-122 -692h-222l123 692q14 79 16 134.5t-5.5 93t-29 59t-51.5 30.5t-75 9q-59 0 -105.5 -28t-72 -57t-49 -97t-29.5 -97 t-20 -107q-5 -24 -7 -36q-15 -84 -22 -144.5t-7 -109t8.5 -77.5t25 -50.5t42.5 -28.5t60.5 -10.5t79.5 2.5l-31 -176q-59 -6 -107 -6q-76 0 -130 16.5t-93.5 57.5t-57 109t-15 171.5z" />
<glyph unicode="&#xe15;" horiz-adv-x="1034" d="M143.5 322.5q1.5 96.5 24.5 228.5q40 221 47 252q60 264 174 348q62 45 143 45q72 0 115 -33.5t51 -95.5q64 129 222 129q56 0 93.5 -17.5t56 -46t24 -75.5t1.5 -94.5t-16 -114.5l-149 -848h-221l151 862q14 78 9 103q-7 39 -48 39q-19 0 -34 -10t-23.5 -21.5t-16 -35.5 t-10.5 -36.5t-8 -40.5h-133q12 47 0.5 95.5t-47.5 48.5q-23 0 -42.5 -21t-34 -56t-28 -87.5t-24.5 -109.5t-24 -128l-9 -51q-18 -104 -22 -170.5t6 -112t37 -64.5t70.5 -26.5t105.5 0.5l-31 -176q-65 -6 -119 -6q-74 0 -126 15t-91.5 52t-57 100t-16 159.5z" />
<glyph unicode="&#xe16;" horiz-adv-x="960" d="M123 317l12 70q21 109 90 186.5t176 104.5l-229 51l14 86q30 167 160 274t313 107q220 0 306.5 -114t38.5 -380l-123 -702h-219l124 713q31 171 -7 238t-150 67q-91 0 -153 -51t-83 -152l217 -49l-16 -92q-200 -64 -234 -260l-10 -52q-9 -62 -7 -107t41 -66.5t122 -12.5 l-31 -174q-209 -24 -295.5 60.5t-56.5 254.5z" />
<glyph unicode="&#xe17;" horiz-adv-x="946" d="M80 0l209 1188h186l-6 -152q68 78 158 119t184 41q122 0 181 -74.5t32 -222.5l-158 -899h-219l158 889q10 61 -19.5 92t-89.5 31q-143 0 -241 -125l-156 -887h-219z" />
<glyph unicode="&#xe18;" horiz-adv-x="940" d="M144.5 185q-14.5 95 9.5 233l22 133h219l-18 -113q-16 -89 -18 -148.5t32.5 -89.5t114.5 -30q49 0 83.5 11.5t56 29t37 55t23.5 71.5t19 97l4 19q7 28 3.5 57t-14 53.5t-40.5 45t-76 30.5l-395 86l10 51q17 101 51 175.5t78 121t104.5 74.5t124.5 38.5t146 10.5 q92 0 192 -20t152 -52l-88 -151q-135 47 -264 47q-46 0 -73.5 -2t-61 -11.5t-54 -27t-40 -50.5t-31.5 -81l235 -51q96 -21 155.5 -55t84 -79.5t29 -103t-10.5 -125.5l-2 -20q-19 -109 -50 -183.5t-85 -130t-136.5 -82t-199.5 -26.5q-155 0 -234.5 49t-94 144z" />
<glyph unicode="&#xe19;" horiz-adv-x="946" d="M131 289l158 899h219l-156 -889q-10 -61 18.5 -92t88.5 -31q140 0 241 125l156 887h219l-209 -1188h-186l6 152q-68 -78 -158 -119t-184 -41q-122 0 -181 74.5t-32 222.5z" />
<glyph unicode="&#xe1a;" horiz-adv-x="962" d="M148 197q-16 104 12 262l129 729h219l-125 -709q-16 -95 -19 -164t32 -108t114 -39q49 0 85.5 15t60.5 39.5t42 67t28.5 84.5t21.5 105l124 709h220l-129 -729q-21 -124 -54.5 -207.5t-89.5 -144t-139.5 -88t-200.5 -27.5q-156 0 -235.5 50.5t-95.5 154.5z" />
<glyph unicode="&#xe1b;" horiz-adv-x="1042" d="M148.5 197q-18.5 104 9.5 262l129 729h219l-125 -709q-15 -95 -16 -164t36 -108t117 -39q61 0 104 21t70.5 65t43.5 96t30 129l186 1057h219l-190 -1077q-21 -123 -56 -207.5t-93 -144t-142.5 -87.5t-202.5 -28q-157 0 -238.5 50.5t-100 154.5z" />
<glyph unicode="&#xe1c;" horiz-adv-x="997" d="M80 0l153 866q65 367 459 320l-30 -174q-59 7 -98.5 -2t-63 -36.5t-35 -60.5t-21.5 -88l-88 -506l222 398h96l82 -398l151 869h219l-208 -1188h-220l-108 506l-291 -506h-219z" />
<glyph unicode="&#xe1d;" horiz-adv-x="1058" d="M80 0l153 866q65 367 459 320l-30 -174q-59 7 -98.5 -2t-63 -36.5t-35 -60.5t-21.5 -88l-88 -506l222 398h96l82 -398l213 1217h219l-270 -1536h-220l-108 506l-291 -506h-219z" />
<glyph unicode="&#xe1e;" horiz-adv-x="1159" d="M190 0l58 1188h215l-60 -823l287 684h148l45 -684l231 823h215l-360 -1188h-203l-59 721l-314 -721h-203z" />
<glyph unicode="&#xe1f;" horiz-adv-x="1157" d="M190 0l58 1188h215l-60 -823l287 684h148l45 -684l336 1171h215l-465 -1536h-203l-59 721l-314 -721h-203z" />
<glyph unicode="&#xe20;" horiz-adv-x="1007" d="M29 2l30 174q21 -3 38.5 -3t31.5 2t25.5 8t20 12.5t16 18t12.5 22.5t10 28t8.5 32.5t7.5 37.5l11 63q23 123 66 189t143 92l-230 51l14 86q30 167 160.5 274t313.5 107q220 0 306 -114t38 -380l-123 -702h-219l125 713q31 171 -7.5 238t-150.5 67q-91 0 -153 -51 t-83 -152l217 -49l-16 -92q-47 -15 -78.5 -38t-50.5 -59t-29 -71t-20 -92l-21 -113q-16 -90 -43.5 -149.5t-75.5 -98.5t-120 -51t-174 0z" />
<glyph unicode="&#xe21;" horiz-adv-x="946" d="M80 0l209 1188h219l-156 -887q57 -125 197 -125q61 0 101 31t50 92l156 889h219l-157 -899q-27 -148 -112.5 -222.5t-207.5 -74.5q-94 0 -169.5 41t-115.5 119l-47 -152h-186z" />
<glyph unicode="&#xe22;" horiz-adv-x="950" d="M127 322q0 1 4 27t4 28q19 100 80.5 173.5t165.5 96.5q-63 16 -101 59.5t-48.5 97.5t-0.5 114q25 135 122 205.5t255 70.5q31 0 105 -8l-31 -176q-102 17 -163 -17t-70 -88q-14 -83 33.5 -129.5t150.5 -46.5l-27 -154q-107 0 -169.5 -45.5t-80.5 -144.5q0 -4 -2 -8 l-4 -33l-2 -8q-28 -168 152 -168q106 0 153 53t68 176l139 791h221l-143 -811q-35 -197 -144 -291t-325 -94q-104 0 -178.5 27.5t-112.5 75t-50.5 105t-0.5 122.5z" />
<glyph unicode="&#xe23;" horiz-adv-x="800" d="M51 72l86 139q36 -16 104.5 -28.5t131.5 -12.5q197 0 221 141q7 19 3 46t-16.5 54t-52 61.5t-102.5 68.5q-260 138 -225 336q31 168 135 243.5t303 75.5q98 0 184.5 -23.5t124.5 -54.5l-86 -141q-39 17 -105.5 30t-129.5 13q-181 0 -199 -119q-4 -19 -4.5 -33t7 -38 t25 -45.5t54.5 -51.5t92 -61q47 -27 82.5 -52.5t66 -58.5t45.5 -68t22.5 -79.5t-3.5 -94.5q-31 -168 -143.5 -247.5t-313.5 -79.5q-98 0 -184 23.5t-123 56.5z" />
<glyph unicode="&#xe24;" horiz-adv-x="960" d="M123 317l12 70q21 109 90 186.5t176 104.5l-229 51l14 86q30 167 160 274t313 107q220 0 306.5 -114t38.5 -380l-195 -1112h-219l196 1123q31 171 -7 238t-150 67q-91 0 -153 -51t-83 -152l217 -49l-16 -92q-200 -64 -234 -260l-10 -52q-9 -62 -7 -107t41 -66.5 t122 -12.5l-31 -174q-209 -24 -295.5 60.5t-56.5 254.5z" />
<glyph unicode="&#xe25;" horiz-adv-x="937" d="M106 328q29 161 135 246t328 126l199 37l6 31q11 77 10 125.5t-25 76.5t-58 38t-89 10q-122 0 -288 -45l-37 149q65 33 175 53.5t206 20.5q77 0 135.5 -13.5t104 -44.5t69 -81t30.5 -123t-12 -170l-135 -764h-221l98 559l-141 -24q-140 -27 -194.5 -67.5t-69.5 -133.5 q-15 -83 13 -127.5t118 -44.5q31 0 74 6l-27 -160q-69 -16 -137 -16q-162 0 -228.5 85.5t-38.5 250.5z" />
<glyph unicode="&#xe26;" horiz-adv-x="1007" d="M29 2l30 174q21 -3 38.5 -3t31.5 2t25.5 8t20 12.5t16 18t12.5 22.5t10 28t8.5 32.5t7.5 37.5l11 63q23 123 66 189t143 92l-230 51l14 86q30 167 160.5 274t313.5 107q220 0 306 -114t38 -380l-195 -1112h-219l197 1123q31 171 -7.5 238t-150.5 67q-91 0 -153 -51 t-83 -152l217 -49l-16 -92q-47 -15 -78.5 -38t-50.5 -59t-29 -71t-20 -92l-21 -113q-16 -90 -43.5 -149.5t-75.5 -98.5t-120 -51t-174 0z" />
<glyph unicode="&#xe27;" horiz-adv-x="817" d="M51 68l84 139q34 -14 90 -24.5t105 -10.5q123 0 200.5 87t114.5 294l14 82q35 207 -11 295t-169 88q-106 0 -209 -39l-34 141q47 32 131 54t168 22q101 0 175 -30.5t124 -97.5t61.5 -174t-12.5 -259l-15 -82q-52 -291 -195 -426t-351 -135q-84 0 -160 22t-111 54z" />
<glyph unicode="&#xe28;" horiz-adv-x="1019" d="M80 0l123 692q17 96 40.5 169.5t56 126.5t69.5 90t87.5 61.5t103.5 38.5t124 24l567 82l-28 -162l-285 -43q86 -41 114.5 -131t0.5 -256l-123 -692h-219l123 692q14 79 16 134.5t-6.5 93t-30 59t-52 30.5t-75.5 9q-76 0 -124 -26.5t-83 -98t-57 -201.5l-37 -198 q40 65 98 100t127 35h80l-31 -178h-79q-78 0 -148.5 -50.5t-81.5 -113.5l-51 -287h-219z" />
<glyph unicode="&#xe29;" horiz-adv-x="985" d="M147 197q-17 104 11 262l129 729h219l-125 -709q-16 -95 -18.5 -164t33 -108t114.5 -39q49 0 85.5 15t61 39.5t43 66.5t29 84.5t21.5 105.5l6 27h-4q-73 0 -123 14t-75.5 38t-34 62t-3 79.5t22.5 97.5h178q-23 -73 -12 -102t73 -29h4l92 522h222l-92 -522h102l-27 -160 h-102l-10 -47q-21 -123 -55 -207t-90.5 -144.5t-140.5 -88t-202 -27.5q-155 0 -235 50.5t-97 154.5z" />
<glyph unicode="&#xe2a;" horiz-adv-x="950" d="M106 328q29 161 135 246t328 126l199 37q2 2 2 6q12 81 7.5 134t-32 84t-63.5 43t-88 12q-66 0 -140 -16.5t-130 -41.5l-39 152q145 66 346 94l555 80l-29 -162l-283 -39q78 -47 106.5 -142t0.5 -261l-121 -680h-221l98 559l-141 -24q-140 -27 -194.5 -67.5t-69.5 -133.5 q-15 -83 13 -127.5t118 -44.5q31 0 74 6l-27 -160q-69 -16 -137 -16q-162 0 -228.5 85.5t-38.5 250.5z" />
<glyph unicode="&#xe2b;" horiz-adv-x="958" d="M80 0l211 1192h219l-84 -467l86 8q56 5 97.5 14t73 26t52.5 35.5t38.5 51t29 63.5t26.5 81l56 182h221l-55 -187q-41 -141 -101 -219.5t-168 -109.5q93 -18 127 -87t25 -206l-23 -377h-221l25 387q6 101 -30.5 144t-115.5 34l-174 -18l-96 -547h-219z" />
<glyph unicode="&#xe2c;" horiz-adv-x="1148" d="M190 0l58 1188h215l-60 -823l287 684h148l45 -684l114 403q32 114 26.5 159t-54.5 60l22 133q53 12 86.5 26.5t65.5 43.5t48.5 78t20.5 121h195q5 -123 -58.5 -213.5t-185.5 -122.5q64 -35 71.5 -99t-26.5 -168l-239 -786h-203l-59 721l-314 -721h-203z" />
<glyph unicode="&#xe2d;" horiz-adv-x="933" d="M133 259.5q-7 74.5 12 174.5q28 153 78 277h344l-30 -176h-162q-13 -62 -17 -86q-27 -149 7 -215t133 -66q44 0 76.5 13t62.5 46t53 95.5t39 156.5l35 197q15 85 15 146t-12 99t-39 60.5t-60 30.5t-80 8q-129 0 -273 -47l-34 151q46 26 151 49t211 23q57 0 103.5 -7 t88.5 -24t73 -44t53 -68t32.5 -94.5t8.5 -124.5t-17 -158l-35 -197q-21 -119 -57 -206.5t-79 -140.5t-101 -85t-114.5 -43.5t-127.5 -11.5q-78 0 -136 14t-104 45.5t-68.5 82.5t-29.5 125.5z" />
<glyph unicode="&#xe2e;" horiz-adv-x="952" d="M133 259.5q-7 74.5 12 174.5q28 153 78 277h344l-30 -176h-162q-13 -62 -17 -86q-27 -149 7 -215t133 -66q44 0 76.5 13t62.5 46t53 95.5t39 156.5l35 197q15 85 15 146t-12 99t-38.5 60.5t-58.5 30.5t-78 8q-110 0 -279 -53l-34 153q142 60 317 82l604 82l-29 -162 l-292 -41q81 -48 107 -137t-1 -268l-35 -197q-21 -119 -57 -206.5t-79 -140.5t-101 -85t-114.5 -43.5t-127.5 -11.5q-78 0 -136 14t-104 45.5t-68.5 82.5t-29.5 125.5z" />
<glyph unicode="&#xe2f;" horiz-adv-x="878" d="M201 714.5q-7 65.5 8 135.5q35 200 144.5 279.5t314.5 56.5l-31 -176q-57 7 -95 0.5t-60.5 -30.5t-34 -54t-19.5 -80q-31 -172 107 -172q61 0 113 38.5t79 84.5l68 391h215l-209 -1188h-215l108 612q-92 -123 -250 -123q-80 0 -134.5 30t-78 80t-30.5 115.5z" />
<glyph unicode="&#xe30;" horiz-adv-x="628" d="M114 285.5q1 52.5 23 128.5h211q-24 -75 -9.5 -105t87.5 -30h203l-31 -179h-209q-104 0 -167 22t-86 66.5t-22 97zM224 932.5q5 44.5 22 103.5h211q-22 -74 -7.5 -104.5t87.5 -30.5h202l-32 -178h-209q-84 0 -140.5 15.5t-86.5 41.5t-41 67t-6 85.5z" />
<glyph unicode="&#xe31;" d="M-403 1665h202q-25 -86 -9 -120t91 -34h385l-30 -170h-381q-193 0 -248.5 77.5t-9.5 246.5z" />
<glyph unicode="&#xe32;" horiz-adv-x="780" d="M215 1122q63 32 153 53t179 21q183 0 257 -94.5t36 -317.5l-140 -784h-221l139 784q13 60 10 102t-10.5 68t-28.5 40t-43.5 19t-56.5 5q-98 0 -235 -45z" />
<glyph unicode="&#xe33;" horiz-adv-x="780" d="M-299 1534q17 96 96.5 157.5t175.5 61.5q97 0 156.5 -61.5t42.5 -157.5q-17 -93 -98 -155t-176 -62q-97 0 -155.5 62t-41.5 155zM-143 1534q-5 -32 12.5 -54t52.5 -22q32 0 60 22.5t34 53.5q6 34 -14 56t-53 22q-35 0 -60.5 -21.5t-31.5 -56.5zM215 1122q63 32 153 53 t179 21q183 0 257 -94.5t36 -317.5l-140 -784h-221l139 784q13 60 10 102t-10.5 68t-28.5 40t-43.5 19t-56.5 5q-98 0 -235 -45z" />
<glyph unicode="&#xe34;" d="M-635 1341l31 170h790l-30 -170h-791z" />
<glyph unicode="&#xe35;" d="M-635 1341l31 170h579l29 160h211l-59 -330h-791z" />
<glyph unicode="&#xe36;" d="M-635 1341l31 170h438q17 85 74.5 133t140.5 48q84 0 125.5 -48t26.5 -128q-14 -79 -72.5 -127t-142.5 -48h-621zM-43 1516q-5 -26 9 -43t40 -17q28 0 47.5 17t24.5 43q6 28 -7.5 44.5t-41.5 16.5q-26 0 -46 -16.5t-26 -44.5z" />
<glyph unicode="&#xe37;" d="M-635 1341l31 170h366l29 160h172l-29 -160h80l29 160h172l-59 -330h-791z" />
<glyph unicode="&#xe38;" d="M-512 -295l27 156h381l-70 -393h-199l43 237h-182z" />
<glyph unicode="&#xe39;" d="M-733 -295l26 156h295l-32 -185q-7 -40 4.5 -56.5t42.5 -16.5q32 0 49 16.5t24 56.5l33 185h187l-33 -189q-14 -79 -59 -130.5t-101.5 -71t-124.5 -19.5q-104 0 -161.5 49t-39.5 150l11 55h-121z" />
<glyph unicode="&#xe3a;" d="M-424 -287q12 63 62 105.5t112 42.5q63 0 97 -42.5t22 -105.5q-11 -62 -59.5 -104.5t-110.5 -42.5t-97.5 43t-25.5 104z" />
<glyph unicode="&#xe3f;" horiz-adv-x="923" d="M80 0l252 1434h243l46 245h219l-47 -260q125 -30 178.5 -119t27.5 -233q-46 -248 -249 -315q119 -19 172 -108t28 -228q-31 -178 -136.5 -279t-268.5 -127l-45 -256h-219l43 246h-244zM332 184h98q101 0 164.5 29t94 78t44.5 127q22 117 -25.5 173t-195.5 56h-98z M446 831h84q60 0 107 20.5t75 54.5t44.5 70t23.5 77q17 98 -29.5 147t-148.5 49h-82z" />
<glyph unicode="&#xe40;" horiz-adv-x="518" d="M158 322l151 866h219l-145 -832q-12 -67 -9.5 -111.5t41.5 -64.5t122 -12l-29 -166q-210 -24 -296 60t-54 260z" />
<glyph unicode="&#xe41;" horiz-adv-x="972" d="M158 322l151 866h219l-145 -832q-12 -67 -9.5 -111.5t41.5 -64.5t122 -12l-29 -166q-210 -24 -296 60t-54 260zM612 322l152 866h219l-145 -832q-12 -67 -9 -111.5t41.5 -64.5t120.5 -12l-28 -166q-209 -24 -296 60t-55 260z" />
<glyph unicode="&#xe42;" horiz-adv-x="616" d="M211 1354l4 26q29 166 116 243t279 77h314l-29 -170h-311q-129 0 -142 -82l-2 -10q125 -27 163 -102.5t11 -229.5l-131 -750q-12 -67 -9.5 -111.5t41 -64.5t120.5 -12l-29 -166q-209 -24 -295.5 60t-54.5 260l141 808q13 65 4.5 109.5t-53 72t-137.5 42.5z" />
<glyph unicode="&#xe43;" horiz-adv-x="622" d="M258 1587q5 5 15 12.5t43.5 27t70 34.5t93 27t114.5 12q149 0 217 -70t45 -203q-10 -57 -37.5 -106.5t-60 -85.5t-65 -69.5t-58 -74.5t-33.5 -85l-115 -650q-12 -67 -9.5 -111.5t41.5 -64.5t122 -12l-29 -166q-210 -24 -297 60t-55 260l127 720q7 42 34 83.5t60.5 75 t67.5 68t61 76.5t35 85q7 43 -13 69.5t-89 26.5q-59 0 -119 -21.5t-90 -42.5l-31 -22z" />
<glyph unicode="&#xe44;" horiz-adv-x="610" d="M250 322l151 868q22 118 91 209t167 131h-380l28 170h617l-23 -129q-37 -24 -54.5 -35.5t-49 -35t-47.5 -41t-39 -46.5t-36.5 -59t-27 -71t-22.5 -89l-148 -838q-12 -67 -9.5 -111.5t41 -64.5t120.5 -12l-29 -166q-209 -24 -295.5 60t-54.5 260z" />
<glyph unicode="&#xe45;" horiz-adv-x="776" d="M213 1122q63 32 152.5 53t179.5 21q120 0 191 -38t98.5 -130.5t1.5 -243.5l-211 -1194h-219l210 1194q13 60 10 102t-10.5 68t-28.5 40t-44 19t-58 5q-98 0 -235 -45z" />
<glyph unicode="&#xe46;" horiz-adv-x="954" d="M176 547.5q-12 60.5 6 146.5q6 31 9 47.5t11 51t16 56t22 53.5t29 52.5t37.5 44t48 37t59.5 22.5t73 9q69 0 114 -33t42 -90q61 123 211 123q42 0 72.5 -9.5t50 -24t30 -41t14.5 -51.5t1 -66t-7.5 -73t-13.5 -83l-163 -924h-215l165 940q16 93 5 120q-9 22 -33 22 q-25 0 -43 -25t-26 -53t-15 -70h-131q26 150 -41 150q-28 0 -48 -14t-31 -41.5t-16.5 -52.5t-11.5 -63q-1 -9 -2 -14q-19 -102 20 -136.5t158 -20.5l-28 -166q-79 -8 -139.5 -3.5t-112 24t-78.5 57.5t-39 98.5z" />
<glyph unicode="&#xe47;" d="M-526.5 1461.5q-11.5 47.5 0.5 113.5q21 117 99.5 177t225.5 60h402l-27 -151h-395q-114 0 -127 -84q-15 -82 55 -82q40 0 62.5 23t31.5 77h142q-10 -62 14.5 -85t71.5 -23q35 0 75 8l-28 -154q-39 -6 -77 -4.5t-69 10t-53.5 34.5t-28.5 67q-63 -107 -184 -107 q-45 0 -81.5 11t-67 36.5t-42 73z" />
<glyph unicode="&#xe48;" d="M-57 1341l75 433h207l-75 -433h-207z" />
<glyph unicode="&#xe49;" d="M-428 1341l16 91q78 27 116 69t44 80q8 57 -57 57q-34 0 -72 -14l-8 119q80 33 174 33q87 0 134.5 -34.5t33.5 -111.5q-15 -101 -148 -157q130 38 236 38h184l-30 -170h-623z" />
<glyph unicode="&#xe4a;" d="M-600.5 1417.5q-12.5 43.5 0.5 110.5q36 217 201 217q106 0 131 -86q52 86 151 86q88 0 110.5 -55t2.5 -166l-6 -39q-4 -17 -2 -30t16 -13q19 0 28 28q2 4 7 25l67 260h158l-69 -264q-23 -90 -73 -128t-138 -38q-89 0 -127 38.5t-23 127.5l4 25q10 38 5.5 58.5 t-31.5 20.5q-19 0 -30 -11.5t-15 -25.5t-9 -45q-1 -8 -2 -12h-114q10 43 7 68.5t-30 25.5q-25 0 -35.5 -16.5t-17.5 -52.5q-2 -15 -2.5 -26.5t2 -19.5t5 -13.5t9 -8.5t12 -4.5t16 -2t18 -0.5t20.5 0.5t22 0.5l-22 -123q-68 -4 -113.5 1t-83 24.5t-50 63z" />
<glyph unicode="&#xe4b;" d="M-389 1495l24 139h191l27 154h192l-27 -154h191l-25 -139h-190l-29 -154h-192l28 154h-190z" />
<glyph unicode="&#xe4c;" d="M-326 1341q8 111 43 179.5t114 106.5t210 38h211l-29 -170h-219q-70 0 -96.5 -33t-32.5 -121h-201z" />
<glyph unicode="&#xe4d;" d="M-299 1534q17 96 96.5 157.5t175.5 61.5q97 0 156.5 -61.5t42.5 -157.5q-17 -93 -98 -155t-176 -62q-97 0 -155.5 62t-41.5 155zM-143 1534q-5 -32 12.5 -54t52.5 -22q32 0 60 22.5t34 53.5q6 34 -14 56t-53 22q-35 0 -60.5 -21.5t-31.5 -56.5z" />
<glyph unicode="&#xe4e;" />
<glyph unicode="&#xe4f;" horiz-adv-x="978" d="M176 649q31 177 178.5 303.5t325.5 126.5q116 0 204.5 -58t128 -157t19.5 -215q-32 -178 -179.5 -303t-324.5 -125q-179 0 -281.5 125t-70.5 303zM256 649q-26 -142 59 -245t228 -103q140 0 257.5 102.5t143.5 245.5q25 141 -57 240.5t-223 99.5q-143 0 -263 -99.5 t-145 -240.5zM346 649q19 108 107.5 182t195.5 74q105 0 166.5 -74t42.5 -182q-19 -106 -107 -182t-192 -76q-106 0 -169 76t-44 182zM422 649q-14 -75 30 -128.5t119 -53.5q77 0 136 53t73 129q14 77 -26.5 126.5t-118.5 49.5q-76 0 -138 -50t-75 -126z" />
<glyph unicode="&#xe50;" horiz-adv-x="897" d="M129.5 312q-6.5 87 15.5 202l9 43q25 141 73.5 244.5t114.5 163.5t139.5 88t157.5 28q66 0 120 -17.5t98.5 -55.5t68.5 -99t31 -148.5t-15 -203.5l-8 -43q-25 -140 -74.5 -243.5t-116 -163t-140.5 -87.5t-157 -28q-67 0 -120.5 17.5t-98 55.5t-68 99t-30 148zM356 243 q30 -83 121 -83q183 0 244 354l8 43q61 352 -121 352q-91 0 -151 -84.5t-92 -267.5l-9 -43q-30 -188 0 -271z" />
<glyph unicode="&#xe51;" horiz-adv-x="897" d="M163 493q-10 64 7 152q25 144 96.5 244.5t166.5 146t206 45.5q66 0 120 -17.5t98.5 -55.5t68.5 -99t31 -148.5t-15 -203.5l-22 -129q-46 -263 -210 -402t-444 -114l51 172q324 -31 390 344l22 129q31 186 1.5 269t-122.5 83q-90 0 -148 -68.5t-79 -187.5 q-37 -207 104 -207q4 0 60 7l-29 -166q-47 -13 -100 -13q-45 0 -84 10.5t-77.5 35.5t-60 67t-31.5 106z" />
<glyph unicode="&#xe52;" horiz-adv-x="1054" d="M160 459l172 975h211l-172 -975q-25 -144 20 -216.5t170 -72.5q126 0 197 72.5t96 216.5l53 299q23 129 -12 129q-9 0 -16.5 -6t-13.5 -19.5t-10.5 -24.5t-9 -32.5t-6 -31.5t-5.5 -32h-111q18 106 7 132q-7 15 -21 16q-25 0 -38 -35.5t-26 -110.5q-15 -88 -3.5 -118.5 t58.5 -30.5q30 0 70 6l-25 -135q-59 -12 -104 -12q-231 0 -180 290q7 38 11 59t15 61t21.5 64t29.5 55t41 48.5t53.5 30t69.5 12.5q100 0 119 -82q27 42 61 62t93 20q78 0 114.5 -45t34.5 -121t-18 -176l-49 -272q-40 -233 -177 -350t-352 -117q-214 0 -311 117t-57 350z " />
<glyph unicode="&#xe53;" horiz-adv-x="978" d="M137 381l62 350q14 80 35 140t54 109t82 74.5t113 26.5q143 0 172 -120q66 120 211 120q85 0 129 -46t47.5 -124t-12.5 -180l-129 -731h-217l131 743q5 31 7 49t1.5 43.5t-11 38.5t-30.5 13q-23 0 -39.5 -12.5t-26 -39.5t-13 -43.5t-9.5 -50.5l-35 -198h-157l35 198 q5 29 6.5 49.5t0 45.5t-13 38t-32.5 13q-20 0 -35 -13t-24 -38.5t-13.5 -44t-9.5 -48.5l-58 -319q-18 -97 -12 -154t46.5 -78.5t131.5 -13.5l-30 -176q-215 -26 -304 75t-53 304z" />
<glyph unicode="&#xe54;" horiz-adv-x="878" d="M119 283l57 323q18 101 39.5 171t56.5 129.5t83.5 94t118.5 53.5t165 19h59q91 0 129 47t43 150h195q-7 -111 -35.5 -185t-82 -114.5t-119.5 -56t-160 -15.5h-60q-34 0 -61.5 -8t-47 -19.5t-35.5 -35t-26 -43.5t-19.5 -57.5t-15 -64t-14.5 -74.5q-1 -7 -2 -11l-51 -295 q-20 -117 106 -117q68 0 119 35q0 55 12 131l52 289h315l-29 -164h-120l-23 -125q-18 -100 5.5 -133t117.5 -33l-31 -174q-111 0 -173.5 16.5t-92.5 67.5q-116 -92 -252 -92q-129 0 -189 73.5t-34 217.5z" />
<glyph unicode="&#xe55;" horiz-adv-x="878" d="M119 283l57 323q31 173 79.5 272t139.5 146q-26 47 -18 106q15 82 80 134.5t145 52.5t129.5 -53t34.5 -134q-3 -27 -16 -53q62 10 88.5 56.5t31.5 136.5h195q-7 -111 -35.5 -185t-82 -114.5t-119.5 -56t-160 -15.5h-60q-34 0 -61.5 -8t-47 -19.5t-35.5 -35t-26 -43.5 t-19.5 -57.5t-15 -64t-14.5 -74.5q-1 -7 -2 -11l-51 -295q-20 -117 106 -117q68 0 119 35q0 55 12 131l52 289h315l-29 -164h-120l-23 -125q-18 -100 5.5 -133t117.5 -33l-31 -174q-111 0 -173.5 16.5t-92.5 67.5q-116 -92 -252 -92q-129 0 -189 73.5t-34 217.5zM506 1130 q-3 -26 11 -43.5t42 -17.5q29 0 52 18t26 43q6 31 -9.5 48.5t-45.5 17.5t-50 -17t-26 -49z" />
<glyph unicode="&#xe56;" horiz-adv-x="929" d="M133 346q17 96 54 164.5t87 104t100.5 50.5t108.5 15q43 0 80 -6l-28 -166q-159 28 -191 -162q-15 -89 23.5 -135.5t126.5 -46.5q47 0 80.5 11t64 42t52.5 90t38 150l25 139q7 41 10.5 63t7 60t1.5 60t-10 50t-23 43t-41 26t-62 11q-62 0 -115.5 -30.5t-85.5 -85.5h-162 v538h215l-14 -342q84 92 248 92q60 0 105.5 -12.5t75.5 -34.5t49 -57t27 -73.5t8 -91t-6 -103t-17 -115.5l-25 -137q-14 -82 -36.5 -148.5t-50 -114t-62.5 -83.5t-71.5 -58.5t-80 -36.5t-85.5 -19t-91 -5q-84 0 -149 19.5t-113 60t-66 110.5t-2 164z" />
<glyph unicode="&#xe57;" horiz-adv-x="1316" d="M137 381l62 350q14 80 35 140t54 109t82 74.5t113 26.5q143 0 172 -120q66 120 211 120q85 0 128 -46t45.5 -124t-13.5 -180l-84 -481q-9 -47 3.5 -65.5t43.5 -18.5q35 0 53 18t27 66l207 1184h213l-205 -1162q-14 -83 -44 -140.5t-74 -89t-94 -45t-114 -13.5 q-130 0 -192 64.5t-35 223.5l84 471q5 31 7 49t1.5 43.5t-11 38.5t-30.5 13q-23 0 -39.5 -12.5t-26 -39.5t-13 -43.5t-9.5 -50.5l-35 -198h-157l35 198q5 29 6.5 49.5t0 45.5t-13 38t-32.5 13q-20 0 -35 -13t-24 -38.5t-13.5 -44t-9.5 -48.5l-58 -319q-18 -97 -12 -154 t46.5 -78.5t131.5 -13.5l-30 -176q-215 -26 -304 75t-53 304z" />
<glyph unicode="&#xe58;" horiz-adv-x="927" d="M116 156q-3 78 13 180l47 270q18 101 39.5 171t56.5 129.5t83.5 94t118.5 53.5t165 19h84q92 0 130.5 47t41.5 150h197q-7 -111 -36.5 -185t-83.5 -114.5t-120 -56t-160 -15.5h-84q-34 0 -61.5 -8t-47 -19.5t-35.5 -35t-26 -43.5t-19.5 -57.5t-15 -64t-14.5 -74.5 q-1 -7 -2 -11l-45 -264q-4 -21 -5.5 -31t-3.5 -31t-0.5 -32t5.5 -24.5t13.5 -19.5t23.5 -6q29 0 48 25.5t24 47t12 64.5q1 8 2 11l18 104h150l-19 -104l-5.5 -33t-3.5 -31.5t-0.5 -33t5.5 -24.5t13.5 -20t23.5 -6q20 0 35.5 13t24.5 38t14 44.5t10 48.5l10 59q9 49 12 79.5 t-1.5 53t-13 33.5t-31 16t-46.5 4.5t-67 -4.5l28 162q56 6 103 6q144 0 200.5 -74t26.5 -241l-14 -80q-14 -81 -33.5 -140.5t-50.5 -109t-79 -75t-112 -25.5q-133 0 -163 118q-33 -59 -80 -88.5t-123 -29.5q-86 0 -130 46t-47 124z" />
<glyph unicode="&#xe59;" horiz-adv-x="952" d="M137 381l62 350q12 67 24.5 114.5t35.5 95t53 76t76 46.5t106 18q69 0 116 -31.5t64 -88.5q23 120 147 120q109 0 115 -104l94 293h189l-193 -543h-149q5 158 -76 158q-43 0 -60 -44t-10 -96l88 -745h-192l-97 782q-7 57 -16.5 80t-32.5 23q-24 0 -36 -24.5t-21 -72.5 l-66 -364q-16 -91 -15 -148.5t38 -81.5t123 -16l-31 -176q-212 -24 -291.5 76.5t-44.5 302.5z" />
<glyph unicode="&#xe5a;" horiz-adv-x="1212" d="M203 714.5q-7 65.5 8 135.5q35 200 145 279.5t314 56.5l-31 -176q-57 7 -94.5 0.5t-59.5 -30t-33.5 -54t-19.5 -80.5q-31 -172 105 -172q62 0 113.5 38.5t78.5 84.5l68 391h215l-209 -1188h-215l108 612q-89 -123 -250 -123q-80 0 -134.5 30t-78 80t-30.5 115.5zM915 0 l209 1188h215l-209 -1188h-215z" />
<glyph unicode="&#xe5b;" horiz-adv-x="1431" d="M153 501q3 52 13 107q10 56 24.5 105.5t43 108t65.5 99.5t95.5 69t129.5 28q57 0 96.5 -18t57 -58t27 -72t5 -94t-8 -88t-14.5 -87q-1 -5 -1 -7h-147q21 125 17 175q-6 79 -60 79q-108 0 -154 -254q-56 -318 102 -318q52 0 99.5 30.5t83.5 78t68.5 114.5t54.5 129.5 t41.5 134.5t29 118t17.5 90h178l-8 -383l100 305h166q-23 -132 -9 -185q14 -57 66 -57h176l-28 -168h-176q-72 0 -116 45t-38 146l-164 -463h-108l10 416q-78 -250 -192 -382t-275 -132q-68 0 -119 22.5t-80 62t-46.5 87.5t-21 106t-0.5 110z" />
<glyph unicode="&#x2000;" horiz-adv-x="1118" />
<glyph unicode="&#x2001;" horiz-adv-x="2236" />
<glyph unicode="&#x2002;" horiz-adv-x="1118" />
<glyph unicode="&#x2003;" horiz-adv-x="2236" />
<glyph unicode="&#x2004;" horiz-adv-x="745" />
<glyph unicode="&#x2005;" horiz-adv-x="559" />
<glyph unicode="&#x2006;" horiz-adv-x="372" />
<glyph unicode="&#x2007;" horiz-adv-x="372" />
<glyph unicode="&#x2008;" horiz-adv-x="279" />
<glyph unicode="&#x2009;" horiz-adv-x="447" />
<glyph unicode="&#x200a;" horiz-adv-x="124" />
<glyph unicode="&#x2010;" horiz-adv-x="915" d="M184 598l33 182h758l-33 -182h-758z" />
<glyph unicode="&#x2011;" horiz-adv-x="915" d="M184 598l33 182h758l-33 -182h-758z" />
<glyph unicode="&#x2012;" horiz-adv-x="915" d="M184 598l33 182h758l-33 -182h-758z" />
<glyph unicode="&#x2013;" horiz-adv-x="915" d="M184 598l33 182h758l-33 -182h-758z" />
<glyph unicode="&#x2014;" horiz-adv-x="1038" d="M184 598l33 182h881l-33 -182h-881z" />
<glyph unicode="&#x2018;" horiz-adv-x="485" d="M205 942l301 492h194l-260 -492h-235z" />
<glyph unicode="&#x2019;" horiz-adv-x="485" d="M205 942l260 492h235l-301 -492h-194z" />
<glyph unicode="&#x201a;" horiz-adv-x="368" d="M-59 -225l200 471h242l-258 -471h-184z" />
<glyph unicode="&#x201c;" horiz-adv-x="815" d="M205 942l301 492h188l-260 -492h-229zM539 942l301 492h190l-260 -492h-231z" />
<glyph unicode="&#x201d;" horiz-adv-x="815" d="M205 942l260 492h229l-301 -492h-188zM539 942l260 492h231l-301 -492h-190z" />
<glyph unicode="&#x201e;" horiz-adv-x="698" d="M-59 -225l200 471h238l-258 -471h-180zM276 -225l201 471h236l-258 -471h-179z" />
<glyph unicode="&#x2020;" horiz-adv-x="870" d="M213 866l31 185h266l68 383h219l-68 -383h268l-30 -185h-269l-153 -866h-219l153 866h-266z" />
<glyph unicode="&#x2021;" horiz-adv-x="870" d="M127 383l33 190h266l53 293h-266l31 185h266l68 383h219l-68 -383h268l-30 -185h-269l-53 -293h268l-32 -190h-269l-67 -383h-219l67 383h-266z" />
<glyph unicode="&#x2022;" horiz-adv-x="649" d="M174 649q20 111 113 187.5t202 76.5q108 0 172 -76.5t44 -187.5q-19 -105 -111.5 -184.5t-198.5 -79.5q-108 0 -174.5 78t-46.5 186z" />
<glyph unicode="&#x2026;" horiz-adv-x="1118" d="M63 141q11 59 60.5 101.5t107.5 42.5q59 0 93 -42t24 -102q-10 -58 -59.5 -99.5t-108.5 -41.5t-93 41.5t-24 99.5zM440 141q11 59 60.5 101.5t107.5 42.5q59 0 94 -42t25 -102q-10 -58 -60.5 -99.5t-109.5 -41.5t-93 41.5t-24 99.5zM819 141q11 59 60.5 101.5t107.5 42.5 q59 0 93 -42t24 -102q-10 -58 -59.5 -99.5t-108.5 -41.5t-93 41.5t-24 99.5z" />
<glyph unicode="&#x202f;" horiz-adv-x="447" />
<glyph unicode="&#x2030;" horiz-adv-x="1695" d="M231 1096l7 26q29 167 106 243.5t184 76.5q108 0 160 -76.5t23 -243.5l-6 -26q-29 -166 -107.5 -243t-185.5 -77q-106 0 -158 77.5t-23 242.5zM236 0l749 1434h197l-750 -1434h-196zM395 1098q-28 -158 45 -158q81 0 109 158l4 24q25 154 -53 154q-76 0 -101 -154z M709 311l4 27q29 167 107.5 243t185.5 76t158 -76t22 -243l-4 -27q-29 -166 -108.5 -242.5t-186.5 -76.5t-157 76t-21 243zM867 193q11 -37 48 -37q79 0 107 157l4 23q25 156 -51 156t-101 -156l-4 -23q-14 -83 -3 -120zM1237 311l4 27q29 167 107.5 243t185.5 76 q108 0 159.5 -76t22.5 -243l-4 -27q-29 -167 -108.5 -243t-188.5 -76q-107 0 -157 76t-21 243zM1396 193q11 -37 48 -37q80 0 108 157l4 23q25 156 -53 156q-75 0 -100 -156l-4 -23q-14 -83 -3 -120z" />
<glyph unicode="&#x2039;" horiz-adv-x="804" d="M180 569l15 80l741 547l-43 -248l-463 -340l342 -336l-43 -247z" />
<glyph unicode="&#x203a;" horiz-adv-x="804" d="M84 25l43 247l461 336l-340 340l43 248l549 -547l-15 -80z" />
<glyph unicode="&#x2044;" horiz-adv-x="612" d="M18 0l615 1434h215l-615 -1434h-215z" />
<glyph unicode="&#x205f;" horiz-adv-x="559" />
<glyph unicode="&#x20ac;" horiz-adv-x="995" d="M102 471l29 172h121q8 83 29 156h-121l30 174h140q164 469 571 469q82 0 154 -18t103 -36l32 -18l-80 -166q-106 41 -219 41q-223 0 -324 -272h346l-30 -174h-367q-7 -32 -14 -82q0 -7 -4 -19l-6 -36q-1 -3 -2.5 -9.5t-2.5 -9.5h367l-29 -172h-346q0 -283 226 -283 q50 0 108.5 11t91.5 21l33 11l23 -165q-15 -8 -42 -20.5t-109.5 -33t-164.5 -20.5q-412 0 -405 479h-138z" />
<glyph unicode="&#x2122;" horiz-adv-x="1310" d="M246 1288l24 146h561l-24 -146h-195l-84 -479h-172l84 479h-194zM799 809l108 625h183l53 -420l198 420h183l-109 -625h-164l58 326l-150 -326h-104l-35 326l-57 -326h-164z" />
<glyph unicode="&#x2212;" horiz-adv-x="915" d="M184 598l33 182h758l-33 -182h-758z" />
<glyph unicode="&#x25cc;" horiz-adv-x="1132" d="M279 642q1 21 14 34q19 16 41 16q18 0 28 -10q13 -10 11 -31.5t-19 -34.5q-16 -16 -41 -16q-16 0 -24 8q-11 13 -10 34zM343 396q2 19 15 32q15 18 37 18q18 0 27 -12q15 -9 14 -29.5t-18 -33.5q-14 -17 -39 -17q-19 0 -27 8q-11 15 -9 34zM431 893q2 18 15 33 q15 18 37 18q18 0 27 -12q15 -12 13 -32.5t-19 -35.5q-11 -16 -33 -16q-23 0 -31 14q-11 13 -9 31zM574 284q2 19 16 33q19 19 43 19q14 0 22 -8q23 -32 -2 -68q-16 -16 -41 -16q-18 0 -26 10q-14 11 -12 30zM700 997.5q2 18.5 17 32.5q16 19 41 19q15 0 24 -9 q10 -14 9.5 -33.5t-11.5 -33.5q-24 -17 -43 -17q-15 0 -26 11q-13 12 -11 30.5zM842 396q3 19 18 32q15 18 37 18q15 0 27 -12q14 -9 14.5 -29t-16.5 -34q-17 -17 -43 -17q-18 0 -29 8q-11 15 -8 34zM930 893q3 18 18 33q15 18 35 18q17 0 29 -12q14 -12 13.5 -32.5 t-17.5 -35.5q-13 -16 -35 -16q-24 0 -35 14q-11 13 -8 31zM989 642q2 19 12 34q22 16 43 16q17 0 27 -10q12 -10 11 -31.5t-17 -34.5q-16 -16 -41 -16q-19 0 -27 8q-10 15 -8 34z" />
<glyph unicode="&#x25fc;" horiz-adv-x="1064" d="M0 0v1065h1065v-1065h-1065z" />
<glyph horiz-adv-x="925" d="M152 512l30 174h183q43 0 71.5 -23t34.5 -63l45 -414q96 144 165 294t91 276q7 55 8.5 96t-11 70.5t-29 48.5t-43 30t-54 15t-63.5 4q-114 0 -299 -59l-37 151q129 55 383 92l555 80l-29 -162l-276 -39q157 -72 114 -305q-57 -328 -391 -778h-258l-57 492q-3 20 -23 20 h-110z" />
<glyph horiz-adv-x="1447" d="M123 317l12 70q21 109 90 186.5t176 104.5l-229 51l14 86q30 168 153 274.5t304 106.5q219 0 299.5 -113t32.5 -381l-41 -239q-25 -144 -23 -187q3 -81 69 -99q23 -7 56 -7q24 0 44 4t35.5 9t28 17t21.5 21.5t17 29.5t12.5 32.5t10 39.5t8 42.5t8 49.5t8.5 52l127 721 h221l-129 -729q-18 -103 -37 -171t-51.5 -129t-78.5 -95t-114.5 -53t-162.5 -19q-155 0 -229 50.5t-83 154.5t19 262l45 254q32 174 -0.5 239.5t-143.5 65.5q-179 0 -219 -203l217 -49l-16 -92q-200 -64 -234 -260l-10 -52q-9 -62 -7 -107t41 -66.5t122 -12.5l-31 -174 q-209 -24 -295.5 60.5t-56.5 254.5z" />
<glyph d="M-297 1532q17 96 95.5 158.5t174.5 62.5t155 -62.5t42 -158.5q-17 -92 -97.5 -153.5t-176.5 -61.5t-153 61.5t-40 153.5zM-143 1532q-6 -31 12.5 -52.5t52.5 -21.5t61 21.5t33 52.5q6 37 -13 57.5t-54 20.5t-60.5 -20.5t-31.5 -57.5zM-31 1829l70 385h209l-70 -385h-209z " />
<glyph d="M-297 1532q17 96 95.5 158.5t174.5 62.5t155 -62.5t42 -158.5q-17 -92 -97.5 -153.5t-176.5 -61.5t-153 61.5t-40 153.5zM-254 1835l14 80q70 25 105 64t41 73q8 51 -51 51q-28 0 -66 -12l-8 107q72 28 158 28q79 0 120.5 -31t30.5 -98q-18 -96 -133 -143q115 35 211 35 h166l-27 -154h-561zM-143 1532q-6 -31 12.5 -52.5t52.5 -21.5t61 21.5t33 52.5q6 37 -13 57.5t-54 20.5t-60.5 -20.5t-31.5 -57.5z" />
<glyph d="M-319 2001q33 194 180 194q98 0 116 -75q46 75 140 75q79 0 98 -47.5t2 -148.5l-6 -35q-8 -39 16 -39q9 0 14.5 7t8 15t6.5 25l61 234h144l-64 -240q-21 -81 -66 -114t-124 -33q-81 0 -114.5 33t-20.5 114l4 25q8 34 4 52.5t-27 18.5q-25 0 -34.5 -19t-18.5 -67h-102 q10 40 7.5 63t-26.5 23q-23 0 -33.5 -16t-15.5 -47q-3 -15 -2.5 -26t2 -18t7 -12t10 -7t14.5 -3t17 -1t20.5 0.5t21.5 0.5l-18 -110q-57 -6 -102 0t-75.5 22.5t-42.5 55.5t-1 100zM-297 1532q17 96 95.5 158.5t174.5 62.5t155 -62.5t42 -158.5q-17 -92 -97.5 -153.5 t-176.5 -61.5t-153 61.5t-40 153.5zM-143 1532q-6 -31 12.5 -52.5t52.5 -21.5t61 21.5t33 52.5q6 37 -13 57.5t-54 20.5t-60.5 -20.5t-31.5 -57.5z" />
<glyph d="M-297 1532q17 96 95.5 158.5t174.5 62.5t155 -62.5t42 -158.5q-17 -92 -97.5 -153.5t-176.5 -61.5t-153 61.5t-40 153.5zM-178 1972l22 125h172l25 139h174l-25 -139h172l-22 -125h-172l-25 -137h-174l25 137h-172zM-143 1532q-6 -31 12.5 -52.5t52.5 -21.5t61 21.5 t33 52.5q6 37 -13 57.5t-54 20.5t-60.5 -20.5t-31.5 -57.5z" />
<glyph d="M-332 1665h199q-26 -86 -10 -120t90 -34h239l-30 -170h-228q-194 0 -249.5 77t-10.5 247z" />
<glyph d="M-518 1341l31 170h673l-30 -170h-674z" />
<glyph d="M-518 1341l31 170h462l29 160h211l-59 -330h-674z" />
<glyph d="M-518 1341l31 170h321q17 86 74 133.5t141 47.5t125.5 -48t26.5 -128q-14 -79 -72.5 -127t-142.5 -48h-504zM-43 1516q-5 -26 9 -43t40 -17q28 0 47.5 17t24.5 43q6 28 -7.5 44.5t-41.5 16.5q-26 0 -46 -16.5t-26 -44.5z" />
<glyph d="M-518 1341l31 170h260l28 160h166l-28 -160h81l29 160h166l-59 -330h-674z" />
<glyph d="M-57 1341l75 433h207l-75 -433h-207z" />
<glyph d="M-379 1341l17 91q78 27 115.5 69t43.5 80q8 57 -57 57q-34 0 -72 -14l-8 119q80 33 174 33q87 0 134.5 -34.5t33.5 -111.5q-15 -101 -147 -157q129 38 235 38h96l-30 -170h-535z" />
<glyph d="M-376.5 1448q-0.5 34 5.5 80q36 217 191 217q46 0 79.5 -22.5t45.5 -63.5q48 86 143 86q57 0 85 -27.5t30 -76.5t-10 -117l-7 -39q-7 -43 15 -43t33 47q1 4 2 6l67 260h160l-70 -264q-24 -90 -74.5 -128t-138.5 -38q-89 0 -126.5 38t-22.5 128l4 25q9 38 6 58.5t-25 20.5 q-21 0 -29 -17t-15 -59l-3 -18h-114q10 43 8 68.5t-23 25.5t-30.5 -16.5t-16.5 -52.5q-2 -15 -2.5 -26.5t2 -19.5t5 -13.5t9 -8.5t11.5 -4.5t14.5 -2t16.5 -0.5t18.5 0.5t19.5 0.5l-22 -123q-42 -3 -74 -2t-64.5 7.5t-51.5 20.5t-35 36.5t-16.5 56.5z" />
<glyph d="M-287 1520l25 141h176l27 154h192l-27 -154h175l-25 -141h-174l-27 -152h-192l26 152h-176z" />
<glyph d="M-423 1461.5q-8 45.5 1 115.5q21 117 95.5 176t220.5 59h387l-27 -151h-381q-58 0 -85.5 -21.5t-35.5 -66.5q-13 -78 51 -78q38 0 57.5 22.5t28.5 77.5h142q-10 -62 12.5 -85t67.5 -23q33 0 73 8l-28 -154q-39 -6 -75.5 -4.5t-66 10.5t-50.5 34.5t-27 66.5 q-34 -57 -76.5 -82t-106.5 -25q-42 0 -76 10.5t-63.5 37.5t-37.5 72.5z" />
<glyph d="M-55 1341l69 385h209l-69 -385h-209z" />
<glyph d="M-281 1341l15 80q71 25 105 64t40 74q8 51 -49 51q-25 0 -66 -13l-8 105q70 29 156 29q80 0 121 -30.5t30 -98.5q-19 -96 -131 -142q115 35 211 35h168l-28 -154h-564z" />
<glyph d="M-485 1507q33 195 180 195q95 0 119 -76q40 76 137 76q79 0 98 -48t2 -149l-6 -35q-8 -38 14 -38q13 0 18 10t10 32q1 3 1 5l62 233h143l-62 -239q-23 -81 -68 -114.5t-124 -33.5q-80 0 -113.5 34t-19.5 114l4 24q8 34 3.5 53t-28.5 19q-18 0 -28 -12.5t-13 -26t-8 -47.5 h-102q4 27 5 37t0.5 24.5t-7 19.5t-19.5 5q-24 0 -34 -15.5t-15 -48.5q-2 -13 -2.5 -23t1.5 -17.5t5 -12t9 -7.5t11 -4.5t14 -1.5h16t18.5 0.5t19.5 0.5l-20 -111q-56 -6 -101 0t-76 22.5t-43 55.5t-1 100z" />
<glyph d="M-180 1481l22 125h172l25 137h174l-25 -137h172l-22 -125h-172l-25 -140h-174l25 140h-172z" />
<glyph d="M-74 1464q7 111 40.5 178t111.5 103.5t209 36.5h211l-29 -164h-219q-70 0 -95.5 -32.5t-31.5 -121.5h-197z" />
<glyph d="M-240 1341q9 154 83.5 225.5t252.5 71.5h193l-29 -157h-201q-64 0 -86 -28.5t-30 -111.5h-183z" />
</font>
</defs>
</svg>
