<?xml version="1.0" standalone="no"?>
<!DOCTYPE svg PUBLIC "-//W3C//DTD SVG 1.1//EN" "http://www.w3.org/Graphics/SVG/1.1/DTD/svg11.dtd" >
<svg xmlns="http://www.w3.org/2000/svg" xmlns:xlink="http://www.w3.org/1999/xlink" version="1.1">
<metadata></metadata>
<defs>
<font id="fc_flexica_regularregular" horiz-adv-x="0" >
<font-face units-per-em="2048" ascent="1638" descent="-410" />
<missing-glyph horiz-adv-x="409" />
<glyph unicode="fi" horiz-adv-x="1067" d="M18 901v164h162v29q2 182 68 271t211 89q131 0 188 -45l-37 -143q-49 22 -104 22q-37 0 -60.5 -13t-35 -41t-15.5 -59t-4 -79v-31h203v-164h-203v-901h-211v901h-162zM711 1292q0 56 36.5 92.5t94.5 36.5q57 0 94 -36.5t37 -92.5t-37 -92.5t-94 -36.5q-58 0 -94.5 36.5 t-36.5 92.5zM735 0v1065h211v-1065h-211z" />
<glyph unicode="fl" horiz-adv-x="1026" d="M18 901v164h162v29q2 182 68 271t211 89q131 0 188 -45l-37 -143q-49 22 -104 22q-37 0 -60.5 -13t-35 -41t-15.5 -59t-4 -79v-31h203v-164h-203v-901h-211v901h-162zM715 0v1434h211v-1434h-211z" />
<glyph unicode="&#xe24;&#xe32;" horiz-adv-x="1501" d="M70 729v86q0 167 111 274t294 107q187 0 291 -82q49 36 127.5 59t163.5 23q183 0 273.5 -94.5t90.5 -317.5v-1194h-221v1194q0 74 -11.5 122t-35.5 71.5t-52 32t-71 8.5q-95 0 -168 -39q45 -105 45 -277v-1112h-219v1123q0 171 -50.5 238t-162.5 67q-91 0 -143.5 -51 t-55.5 -152l226 -49v-92q-189 -64 -189 -260v-52q0 -53 5.5 -84.5t24 -60t57.5 -38.5t102 -3v-174q-205 -24 -306.5 60.5t-101.5 254.5v70q0 109 56 186.5t159 104.5z" />
<glyph unicode="&#xe26;&#xe32;" horiz-adv-x="1521" d="M29 2v174q48 -6 76.5 0t42.5 28.5t18 50.5t4 79v63q0 47 3 81t13 68.5t27.5 58.5t46.5 43t70 30l-240 51v86q0 167 111.5 274t294.5 107q186 0 290 -82q49 36 127.5 59t163.5 23q183 0 274 -94.5t91 -317.5v-1194h-221v1194q0 74 -11.5 122t-35.5 71.5t-52 32t-71 8.5 q-95 0 -168 -39q45 -105 45 -277v-1112h-219v1123q0 171 -50.5 238t-162.5 67q-91 0 -143.5 -51t-55.5 -152l225 -49v-92q-44 -15 -71.5 -38t-40.5 -58.5t-17 -71t-4 -92.5v-113q0 -181 -78 -252t-282 -47z" />
<glyph unicode="FontcraftLogo" horiz-adv-x="1617" d="M123 -213l39 213h102l-8 -35h-59l-9 -53h50l-9 -33h-47l-18 -92h-41zM129 772q0 138 54 264t145 217t217.5 145t265.5 54q138 0 263.5 -54t216.5 -145t144.5 -217t53.5 -264t-53.5 -264t-144.5 -217t-216.5 -145t-263.5 -54q-139 0 -265.5 54t-217.5 145t-145 217 t-54 264zM250 772q0 -152 75.5 -281t204.5 -203.5t281 -74.5q151 0 280 76t203 205t74 278q0 153 -75.5 282t-203.5 203t-278 74q-114 0 -218 -44.5t-179 -119.5t-119.5 -178.5t-44.5 -216.5zM276 -160l19 107q6 26 24 41.5t43 15.5t38.5 -15.5t9.5 -41.5l-19 -107 q-11 -55 -67 -55t-48 55zM317 -162q0 -18 13 -18q16 0 16 18l23 109q0 20 -13 20q-15 0 -18 -20zM350 772q0 190 134.5 322.5t326.5 132.5q81 0 158.5 -29t138.5 -80l-82 -368q-14 -60 -34 -83.5t-60 -23.5q-36 0 -56 18t-14 56l33 155q2 18 -9.5 33t-39.5 15q-42 0 -51 -41 l-33 -150q-7 -38 -32 -66t-71 -28q-66 0 -47 90l27 133q6 38 -17.5 53t-68.5 15q-86 0 -86 -54q0 -23 11.5 -39t31.5 -16h14l-14 -76q-20 -87 17 -145.5t132 -58.5q98 0 136 79q9 -41 50.5 -60t86.5 -19q146 0 184 168l74 319q74 -122 74 -252q0 -93 -36.5 -178t-97.5 -146 t-144.5 -97t-174.5 -36q-192 0 -326.5 133.5t-134.5 323.5zM430 -213l35 213h47l6 -109v-26h2q0 5 1 11t2.5 13t2.5 11l15 100h43l-37 -213h-43l-12 137l-25 -137h-37zM618 -35l7 35h112l-6 -35h-37l-28 -178h-45l32 178h-35zM748 -160l18 107q6 26 24.5 41.5t43.5 15.5 q23 0 36 -14t9 -39q0 -2 -5 -17l-40 -2q2 6 2 15q3 20 -9 20q-13 0 -16 -20l-23 -109q0 -18 13 -18t18 18l2 15h41l-2 -13q-8 -55 -65 -55q-55 0 -47 55zM895 -213l37 213h57q53 0 43 -59v-7q-8 -32 -33 -43l7 -104h-45v96h-9l-16 -96h-41zM958 -86h11q15 0 20 20l4 11 q0 22 -14 22h-12zM1040 -213l76 213h51l7 -213h-48l2 47h-32l-15 -47h-41zM1110 -127h18l2 61zM1208 -213l39 213h103l-7 -35h-61l-8 -53h49l-6 -33h-49l-19 -92h-41zM1376 -35l6 35h113l-6 -35h-33l-33 -178h-45l33 178h-35z" />
<glyph />
<glyph />
<glyph unicode="&#xd;" horiz-adv-x="512" />
<glyph unicode="&#xa;" horiz-adv-x="614" />
<glyph unicode=" "  horiz-adv-x="409" />
<glyph unicode="&#x09;" horiz-adv-x="409" />
<glyph unicode="&#xa0;" horiz-adv-x="409" />
<glyph unicode="!" horiz-adv-x="440" d="M80 137q0 59 39.5 98t99.5 39q62 0 101.5 -38.5t39.5 -98.5q0 -59 -40 -98t-101 -39q-60 0 -99.5 39t-39.5 98zM104 1434h232l-23 -1028h-188z" />
<glyph unicode="&#x22;" horiz-adv-x="684" d="M59 1434h226l-33 -533h-168zM399 1434h228l-33 -533h-170z" />
<glyph unicode="#" horiz-adv-x="1148" d="M39 344v184h227l64 340h-197v185h234l69 381h201l-70 -381h162l72 381h200l-69 -381h178v-185h-215l-64 -340h185v-184h-217l-66 -344h-198l63 344h-166l-61 -344h-203l65 344h-194zM467 528h164l63 340h-164z" />
<glyph unicode="$" horiz-adv-x="888" d="M49 74l55 159q128 -45 271 -45q246 0 246 193q0 45 -14 83.5t-33.5 64t-54.5 51.5t-61 40.5t-69 36.5q-9 5 -14 7q-73 37 -124.5 71t-100 81t-73 105t-24.5 128q0 182 77.5 274t234.5 113v243h219v-245q146 -17 241 -72l-55 -160q-137 45 -268 45q-36 0 -64.5 -3 t-60.5 -13.5t-53.5 -27.5t-35.5 -48.5t-14 -73.5q0 -34 7.5 -62.5t25 -52.5t33.5 -41.5t46 -37t49.5 -30.5t56.5 -30.5t55 -29.5q56 -31 93.5 -55.5t79 -61.5t66 -75.5t40.5 -92t16 -117.5q0 -310 -258 -381v-260h-219v240q-196 8 -316 80z" />
<glyph unicode="%" horiz-adv-x="1165" d="M39 1096v26q0 167 64 243.5t171 76.5q108 0 173 -76.5t65 -243.5v-26q0 -165 -65 -242.5t-173 -77.5q-106 0 -170.5 77.5t-64.5 242.5zM201 1098q0 -158 73 -158q80 0 80 158v24q0 154 -80 154q-37 0 -55 -36.5t-18 -117.5v-24zM236 0l497 1434h197l-498 -1434h-196z M653 311v27q0 167 64.5 243t171.5 76t172 -76t65 -243v-27q0 -167 -65 -243t-172 -76t-171.5 76t-64.5 243zM815 313q0 -157 74 -157q78 0 78 157v23q0 156 -78 156q-74 0 -74 -156v-23z" />
<glyph unicode="&#x26;" horiz-adv-x="1013" d="M52 299q-7 88 16 176.5t80.5 175.5t142.5 150q-45 79 -47 82q-43 76 -65 153.5t-17 150.5t38 129.5t106.5 91t180.5 34.5q60 0 112 -10.5t82.5 -26t53 -30.5t31.5 -25l8 -11l-65 -145q-9 8 -25 19t-69.5 30t-110.5 19q-51 0 -82.5 -16t-42 -43.5t-10.5 -60t12.5 -71 t26.5 -70t32 -63.5l238 -424q43 181 2 391h192q30 -153 13 -313.5t-82 -294.5l172 -297h-230l-69 119q-137 -127 -326 -127q-88 0 -155 42t-101.5 109.5t-41.5 155.5zM261 359.5q-8 -74.5 26 -128t110 -53.5q113 0 185 107l-201 354q-47 -49 -79.5 -127t-40.5 -152.5z" />
<glyph unicode="'" horiz-adv-x="344" d="M59 1434h226l-33 -533h-168z" />
<glyph unicode="(" horiz-adv-x="595" d="M121 680q0 449 198 833h224q-110 -214 -157.5 -394t-47.5 -439q0 -258 49 -442.5t156 -397.5h-224q-198 384 -198 840z" />
<glyph unicode=")" horiz-adv-x="595" d="M53 -160q108 210 156.5 395.5t48.5 442.5q0 260 -47.5 440.5t-157.5 394.5h223q201 -390 201 -835q0 -448 -201 -838h-223z" />
<glyph unicode="*" horiz-adv-x="729" d="M39 1141l53 151l197 -69l-8 211h168l-9 -211l197 69l55 -151l-209 -60l131 -174l-133 -92l-116 178l-119 -178l-133 92l131 174z" />
<glyph unicode="+" horiz-adv-x="927" d="M80 598v182h276v287h215v-287h279v-182h-279v-287h-215v287h-276z" />
<glyph unicode="," horiz-adv-x="368" d="M-20 -225l118 471h242l-176 -471h-184z" />
<glyph unicode="-" horiz-adv-x="915" d="M80 598v182h758v-182h-758z" />
<glyph unicode="." horiz-adv-x="362" d="M39 141q0 59 41.5 101.5t99.5 42.5q59 0 101.5 -42t42.5 -102q0 -58 -42.5 -99.5t-101.5 -41.5q-58 0 -99.5 41t-41.5 100z" />
<glyph unicode="/" horiz-adv-x="612" d="M18 0l363 1434h215l-363 -1434h-215z" />
<glyph unicode="0" horiz-adv-x="1021" d="M70 692v47q0 81 4.5 150t17.5 142t33.5 132t54.5 112.5t79.5 89t109 56.5t141.5 21q91 0 162 -27t118.5 -78t80 -114.5t50 -146.5t24.5 -162.5t7 -174.5v-47q0 -80 -5 -149t-17.5 -142t-33.5 -131.5t-55.5 -111.5t-79.5 -88.5t-109 -56.5t-142 -21t-141.5 21t-109 56.5 t-79.5 88.5t-54.5 111t-33.5 131.5t-17.5 142.5t-4.5 149zM295 715q0 -62 1 -105.5t6 -103t13 -101t24 -86.5t38.5 -72t56 -45t76.5 -18q42 0 75.5 17.5t56 45t38.5 72t24.5 86.5t13.5 101t6 103.5t1 105.5t-1 105.5t-6 103.5t-13.5 101t-24.5 86.5t-38.5 72.5t-56 45.5 t-75.5 17.5q-43 0 -76.5 -18t-56 -45t-38.5 -72t-24 -87t-13 -101.5t-6 -103t-1 -105.5z" />
<glyph unicode="1" horiz-adv-x="739" d="M80 1001v201q196 91 326 232h172v-1434h-220v1188q-70 -111 -278 -187z" />
<glyph unicode="2" horiz-adv-x="907" d="M70 0v215q0 106 30 193.5t78.5 147t107 110.5t117 94.5t107 87t78.5 101t30 124.5q0 56 -19 92.5t-54 53.5t-68.5 22.5t-79.5 5.5q-129 0 -266 -45l-57 160q69 39 168 59.5t188 20.5q205 0 306.5 -84.5t101.5 -261.5q0 -98 -30 -179.5t-78.5 -137t-107 -105t-116.5 -95 t-106.5 -94.5t-78.5 -116t-30 -148v-33h532v-188h-753z" />
<glyph unicode="3" horiz-adv-x="919" d="M59 72l56 159q137 -45 262 -45q57 0 99.5 10t79.5 35t56 73.5t19 119.5q0 29 -3 55t-16.5 62.5t-36 62t-65 44t-100.5 18.5h-131v182h131q40 0 72.5 9t53 22.5t35 34.5t22 39t12 42.5t5 39.5t0.5 34q0 178 -223 178q-125 0 -262 -45l-55 160q69 39 163.5 59.5t176.5 20.5 q213 0 316 -88.5t103 -280.5q0 -123 -50.5 -213.5t-135.5 -103.5q89 -12 148 -110t59 -236q0 -214 -117.5 -316t-333.5 -102q-82 0 -176.5 20.5t-163.5 59.5z" />
<glyph unicode="4" horiz-adv-x="919" d="M39 281v92l491 1061h209v-967h144v-186h-144v-281h-219v281h-481zM289 467h235v534z" />
<glyph unicode="5" horiz-adv-x="899" d="M70 70l55 161q137 -45 227 -45q116 0 187 59.5t71 198.5q0 254 -260 254h-252v101l25 635h651v-185h-448l-13 -368h21q89 0 159.5 -11t135.5 -40.5t108 -77t68.5 -123t25.5 -176.5q0 -230 -121 -345.5t-335 -115.5q-169 0 -305 78z" />
<glyph unicode="6" horiz-adv-x="960" d="M70 654v38q0 151 11 261t40 206.5t78 156t128 93t187 33.5q88 0 183.5 -21t160.5 -59l-55 -158q-119 43 -266 43q-134 0 -194 -98.5t-60 -325.5q4 12 19 29.5t42.5 37t74.5 33t103 13.5q84 0 150 -27t106.5 -71t67 -104.5t37 -121t10.5 -127.5v-45q0 -68 -11 -128 t-39.5 -120.5t-74 -103t-119.5 -69.5t-170 -27q-67 0 -122 14t-95 33.5t-71.5 58.5t-51.5 69.5t-34 87.5t-20.5 91.5t-10 103.5t-4 100.5t-0.5 103.5zM291 461q0 -289 192 -289q197 0 197 289q0 291 -197 291q-192 0 -192 -291z" />
<glyph unicode="7" horiz-adv-x="866" d="M39 1245v189h790v-80l-387 -1354h-231l356 1245h-528z" />
<glyph unicode="8" horiz-adv-x="987" d="M70 406q0 290 206 342q-62 16 -103.5 65.5t-59 113.5t-17.5 140q0 169 105 272t293 103t293.5 -103t105.5 -272q0 -118 -45.5 -207t-136.5 -112q209 -53 209 -342q0 -194 -110 -304t-314 -110q-206 0 -316 109.5t-110 304.5zM287 422q0 -236 207 -236q206 0 206 236 q0 30 -2 54t-14 59.5t-32.5 59t-61 41t-96.5 17.5q-41 0 -74 -9t-54 -23t-36.5 -35.5t-23.5 -40.5t-12.5 -44.5t-5.5 -41.5t-1 -37zM315 1065q0 -21 0.5 -34.5t4 -39t10 -43t19.5 -39.5t31.5 -35t47.5 -22.5t66 -9.5q50 0 86 17.5t53.5 40.5t27.5 58t11.5 56.5t1.5 50.5 q0 88 -47 135t-133 47q-87 0 -133 -47t-46 -135z" />
<glyph unicode="9" horiz-adv-x="960" d="M70 948v47q0 68 10.5 127.5t39 119.5t73 103t118.5 70t170 27q67 0 122.5 -14t95.5 -33.5t71.5 -58.5t51.5 -69.5t34 -88t20.5 -92.5t10 -103.5t4 -101t0.5 -104.5v-12.5v-11v-12.5q0 -124 -7.5 -219.5t-26 -183.5t-51.5 -149t-81.5 -107t-118 -68t-160.5 -22 q-88 0 -183.5 21t-160.5 59l58 159q113 -45 266 -45q133 0 192.5 98.5t59.5 325.5q-4 -12 -19.5 -29t-43 -36t-74.5 -32t-103 -13q-84 0 -149.5 27t-106 70t-66.5 103t-36 120.5t-10 127.5zM281 973q0 -291 196 -291q195 0 195 291q0 289 -195 289q-98 0 -147 -74.5 t-49 -214.5z" />
<glyph unicode=":" horiz-adv-x="444" d="M80 141q0 59 41.5 101.5t99.5 42.5q59 0 101.5 -42t42.5 -102q0 -58 -42.5 -99.5t-101.5 -41.5t-100 41t-41 100zM80 934q0 58 41 99.5t100 41.5t101.5 -41t42.5 -100q0 -58 -42.5 -99.5t-101.5 -41.5t-100 41.5t-41 99.5z" />
<glyph unicode=";" horiz-adv-x="444" d="M-14 -225l118 471h250l-176 -471h-192zM80 934q0 58 41 99.5t100 41.5t101.5 -41t42.5 -100q0 -58 -42.5 -99.5t-101.5 -41.5t-100 41.5t-41 99.5z" />
<glyph unicode="&#x3c;" horiz-adv-x="804" d="M80 569v80l645 547v-248l-401 -340l401 -336v-247z" />
<glyph unicode="=" horiz-adv-x="874" d="M80 428v180h717v-180h-717zM80 770v180h717v-180h-717z" />
<glyph unicode="&#x3e;" horiz-adv-x="804" d="M80 25v247l401 336l-401 340v248l645 -547v-80z" />
<glyph unicode="?" horiz-adv-x="845" d="M59 1362q69 39 166.5 59.5t184.5 20.5q181 0 274.5 -85t93.5 -247q0 -62 -14.5 -112.5t-38 -85.5t-52 -67t-57 -66t-52 -73t-38 -97.5t-14.5 -131.5v-71h-219v71q0 85 14.5 154.5t38 115.5t52 84.5t57 68.5t52 59t38 65t14.5 78q0 80 -47.5 112.5t-132.5 32.5 q-127 0 -264 -45zM262 137q0 59 40 98t101 39t101.5 -38.5t40.5 -98.5q0 -58 -41 -97.5t-101 -39.5q-61 0 -101 39t-40 98z" />
<glyph unicode="@" horiz-adv-x="1431" d="M59 575q0 129 22.5 242t74 212.5t128 170t191 111.5t256.5 41q139 0 249 -39t183 -107t121 -164t69 -204t21 -234q0 -47 -4.5 -93.5t-15 -102t-32 -102.5t-51.5 -86.5t-77.5 -62t-106.5 -22.5q-63 0 -113.5 28t-72.5 85q-61 -103 -219 -103q-70 0 -124.5 26.5t-86.5 68.5 t-52.5 99.5t-28 112.5t-7.5 115q0 63 6.5 119t26.5 117t51.5 104.5t87 72t127.5 28.5q131 0 184 -95l11 86h170v-587q0 -79 16 -101q10 -14 27 -14q98 0 98 307q0 97 -12 178t-43.5 157.5t-82 129t-131.5 84t-188 31.5q-108 0 -193 -33.5t-138.5 -90t-88.5 -136.5t-49 -165 t-14 -184q0 -110 15 -198t52 -165t96 -128t150 -80t211 -29q90 0 209 17v-178q-128 -11 -211 -11q-156 0 -277 36t-202.5 101t-133.5 162t-75 213t-23 260zM578 567q0 -50 4.5 -87.5t18 -81.5t46 -68.5t82.5 -24.5q73 0 127 60v426q-54 57 -127 57q-31 0 -56 -10 t-40.5 -23.5t-26.5 -39t-16.5 -44.5t-8 -52.5t-3 -51t-0.5 -50.5v-10z" />
<glyph unicode="A" horiz-adv-x="925" d="M18 0l326 1434h238l325 -1434h-229l-68 336h-295l-67 -336h-230zM352 516h221l-110 541z" />
<glyph unicode="B" horiz-adv-x="923" d="M80 0v1434h328q191 0 297 -93.5t106 -273.5q0 -247 -195 -315q123 -19 192 -108.5t69 -227.5q0 -211 -121.5 -313.5t-335.5 -102.5h-340zM299 184h98q148 0 205 58t57 176q0 117 -57 173t-205 56h-98v-463zM299 831h84q60 0 103.5 20.5t65.5 54.5t32 70.5t10 76.5 q0 98 -55.5 147t-157.5 49h-82v-418z" />
<glyph unicode="C" horiz-adv-x="917" d="M59 717q0 125 15.5 230t52.5 198t94.5 157.5t145 102t200.5 37.5q82 0 157 -18t110 -36l34 -18l-51 -166q-110 41 -225 41q-63 0 -111.5 -20.5t-80.5 -59.5t-53.5 -86.5t-32 -110.5t-15 -121.5t-4.5 -129.5t4.5 -129.5t15 -122t32 -110.5t53.5 -86.5t80.5 -60 t111.5 -20.5q51 0 107.5 11t86.5 21l31 11l51 -165q-13 -8 -37.5 -20.5t-103 -33t-160.5 -20.5q-113 0 -200.5 37.5t-145 102t-94.5 157.5t-52.5 198t-15.5 230z" />
<glyph unicode="D" horiz-adv-x="958" d="M80 0v1434h239q108 0 192 -16t145.5 -44.5t105 -76t70.5 -102t42.5 -132t21 -155.5t5.5 -183q0 -82 -3 -146.5t-12 -130.5t-23.5 -116t-37.5 -98.5t-55 -83t-75.5 -64.5t-99 -48t-125.5 -28t-155 -10h-235zM299 184h25q72 0 126 13t91 33t62 60.5t38.5 76t20.5 101 t8.5 116t1.5 137.5t-1.5 135.5t-8 114t-20 100t-38.5 74.5t-61.5 59t-90.5 32t-126 13h-27v-1065z" />
<glyph unicode="E" horiz-adv-x="798" d="M80 0v1434h661v-185h-442v-418h354v-184h-354v-463h442v-184h-661z" />
<glyph unicode="F" horiz-adv-x="806" d="M80 0v1434h668v-185h-449v-440h367v-184h-367v-625h-219z" />
<glyph unicode="G" horiz-adv-x="999" d="M70 717q0 128 13 230t47 197.5t89.5 159t145 101t208.5 37.5q81 0 167 -19.5t132 -38.5l46 -20l-52 -166q-159 47 -268 47q-59 0 -105 -16.5t-76.5 -42t-52.5 -69t-34 -83.5t-18.5 -100.5t-8 -105t-2.5 -111.5q2 -221 17 -308q33 -184 153 -214q26 -7 57 -7 q55 0 100 19.5t70 48.5v391h-194v180h416v-827h-195l-18 117q-23 -50 -83.5 -87.5t-162.5 -37.5q-95 0 -165.5 38t-113 100.5t-68.5 159t-35 197t-9 230.5z" />
<glyph unicode="H" horiz-adv-x="972" d="M90 0v1434h219v-603h355v603h221v-1434h-221v647h-355v-647h-219z" />
<glyph unicode="I" horiz-adv-x="458" d="M121 0v1434h219v-1434h-219z" />
<glyph unicode="J" horiz-adv-x="706" d="M29 43l41 154q29 -11 85 -21t85 -10q147 0 147 182v905h-213v181h432v-1080q-1 -184 -88 -273t-244 -89q-63 0 -138 13t-107 38z" />
<glyph unicode="K" horiz-adv-x="921" d="M80 0v1434h219v-1434h-219zM299 717l358 717h236l-369 -717l381 -717h-235z" />
<glyph unicode="L" horiz-adv-x="759" d="M80 0v1434h219v-1250h424v-184h-643z" />
<glyph unicode="M" horiz-adv-x="1200" d="M90 0v1434h227l283 -1069l283 1069h227v-1434h-219v819l-217 -819h-148l-217 819v-819h-219z" />
<glyph unicode="N" horiz-adv-x="1003" d="M90 0v1434h213l391 -963v963h221v-1434h-215l-391 963v-963h-219z" />
<glyph unicode="O" horiz-adv-x="1032" d="M76 692v47q0 72 3 131t10.5 126t22 119.5t36.5 105.5t55.5 91.5t77 68.5t103.5 45.5t132 15.5q82 0 148 -21t111.5 -56.5t79 -90t53 -111.5t31.5 -132t15.5 -142t3.5 -150v-47q0 -83 -3.5 -149.5t-15.5 -141.5t-31.5 -132t-53 -111t-79 -89t-111.5 -56t-148 -21 q-83 0 -149 21t-111.5 56t-78.5 89t-52 110.5t-30.5 132t-15 142t-3.5 149.5zM307 715q0 -49 0.5 -81.5t2.5 -80.5t6 -81t11.5 -74t18 -69t26.5 -56.5t36 -45.5t47.5 -28t60.5 -11t60.5 11t47.5 28t36 45.5t26.5 56.5t18 69t11.5 74t6 81t2.5 80.5t0.5 81.5q0 64 -1 105.5 t-5 102.5t-12 101t-23.5 85t-37 71.5t-55 44.5t-75.5 18t-75.5 -18t-55 -44.5t-37 -71.5t-23.5 -85t-12 -101t-5 -102.5t-1 -105.5z" />
<glyph unicode="P" horiz-adv-x="899" d="M80 0v1434h369q192 0 302.5 -101.5t110.5 -294.5q0 -194 -111.5 -303.5t-301.5 -109.5h-150v-625h-219zM299 809h123q117 0 171 63t54 170q0 102 -53 154.5t-172 52.5h-123v-440z" />
<glyph unicode="Q" horiz-adv-x="1044" d="M59 692v47q0 95 7 174.5t25 163t51.5 146.5t83 114t124.5 78t170 27q82 0 149.5 -21t115 -57t83.5 -89t58 -112t35.5 -132t18.5 -142.5t5 -149.5v-47q0 -79 -5 -146t-20 -140t-40 -129.5t-67 -105.5t-99 -77l280 -67v-191l-588 152q-80 21 -141 55t-103.5 82.5t-70.5 105 t-43.5 131.5t-22 152.5t-6.5 177.5zM293 715q0 -57 0.5 -92t3.5 -90t9.5 -90.5t16.5 -79.5t27 -72t40 -53.5t56 -37.5t74 -12q46 0 82.5 17.5t60.5 44t41 72t26 85.5t13.5 100.5t5.5 102.5t1 105q0 48 -0.5 81t-3 81t-6.5 81t-12.5 74.5t-20 69.5t-29 56.5t-39.5 45.5 t-52.5 28t-66.5 11q-41 0 -74 -12t-56 -38t-40 -53.5t-27 -72t-16.5 -80t-9.5 -90.5t-3.5 -90t-0.5 -92z" />
<glyph unicode="R" horiz-adv-x="911" d="M80 0v1434h369q192 0 302.5 -101.5t110.5 -294.5q0 -146 -66.5 -247t-183.5 -138l291 -653h-239l-263 625h-100l-2 -625h-219zM299 809h123q117 0 171 63t54 170q0 102 -53 154.5t-172 52.5h-123v-440z" />
<glyph unicode="S" horiz-adv-x="888" d="M49 74l55 159q128 -45 271 -45q246 0 246 193q0 45 -14 83.5t-33.5 64t-54.5 51.5t-61 40.5t-69 36.5q-9 5 -14 7q-73 37 -124.5 71t-100 81t-73 105t-24.5 128q0 212 105 302.5t321 90.5q83 0 180 -20.5t166 -59.5l-55 -160q-137 45 -268 45q-36 0 -64.5 -3t-60.5 -13.5 t-53.5 -27.5t-35.5 -48.5t-14 -73.5q0 -34 7.5 -62.5t25 -52.5t33.5 -41.5t46 -37t49.5 -30.5t56.5 -30.5t55 -29.5q56 -31 93.5 -55.5t79 -61.5t66 -75.5t40.5 -92t16 -117.5q0 -211 -113.5 -307t-331.5 -96q-86 0 -183 20.5t-165 61.5z" />
<glyph unicode="T" horiz-adv-x="866" d="M29 1249v185h811v-185h-297v-1249h-219v1249h-295z" />
<glyph unicode="U" horiz-adv-x="1042" d="M90 592v842h219v-834q0 -173 11 -235q24 -136 124 -167q33 -10 76 -10q52 0 90 13.5t60.5 46t36 62t19 86t6.5 91t1 104.5v11v832h219v-842q0 -114 -9 -197.5t-36.5 -163.5t-74 -129.5t-125 -79.5t-187.5 -30q-79 0 -141.5 15.5t-107 42t-77 69t-52.5 90t-32 112 t-16 127.5t-4 144z" />
<glyph unicode="V" horiz-adv-x="925" d="M18 1434h230l215 -1057l215 1057h229l-325 -1434h-238z" />
<glyph unicode="W" horiz-adv-x="1384" d="M39 1434h231l154 -998l174 998h188l175 -998l153 998h234l-258 -1434h-199l-197 991l-200 -991h-199z" />
<glyph unicode="X" horiz-adv-x="935" d="M18 0l275 717l-275 717h238l213 -600l211 600h240l-275 -717l275 -717h-240l-211 602l-213 -602h-238z" />
<glyph unicode="Y" horiz-adv-x="935" d="M18 1434h238l213 -613l211 613h240l-342 -885v-549h-222v549z" />
<glyph unicode="Z" horiz-adv-x="886" d="M59 0v115l490 1134h-490v185h770v-115l-489 -1135h489v-184h-770z" />
<glyph unicode="[" horiz-adv-x="620" d="M121 -164v1680h440v-185h-221v-1311h221v-184h-440z" />
<glyph unicode="\" horiz-adv-x="612" d="M18 1434h215l363 -1434h-215z" />
<glyph unicode="]" horiz-adv-x="620" d="M59 20h222v1311h-222v185h441v-1680h-441v184z" />
<glyph unicode="^" horiz-adv-x="841" d="M59 860l258 574h207l258 -574h-227l-133 361l-135 -361h-228z" />
<glyph unicode="_" horiz-adv-x="956" d="M39 0h881v-182h-881v182z" />
<glyph unicode="`" horiz-adv-x="428" d="M0 1434h236l174 -492h-195z" />
<glyph unicode="a" horiz-adv-x="837" d="M39 299q0 280 268 326l242 41v77q0 90 -32.5 124t-127.5 34q-115 0 -244 -41l-55 144q53 31 148.5 50t175.5 19q183 0 264.5 -79t81.5 -257v-737h-189l-16 111q-111 -119 -254 -119q-121 0 -191.5 84.5t-70.5 222.5zM258 311q0 -65 29.5 -105t89.5 -40q88 0 172 67v263 l-164 -35q-66 -15 -96.5 -50t-30.5 -100z" />
<glyph unicode="b" horiz-adv-x="911" d="M80 0v1434h211v-406q77 45 174 45q87 0 154.5 -28t121.5 -90t82.5 -172.5t28.5 -264.5q0 -262 -88 -394t-252 -132q-86 0 -144.5 32.5t-84.5 86.5l-17 -111h-186zM291 231q61 -65 158 -65q69 0 112 46t59.5 121.5t16.5 186.5q0 110 -15.5 185t-46 117t-69.5 59.5 t-92 17.5q-68 0 -123 -20v-648z" />
<glyph unicode="c" horiz-adv-x="808" d="M59 532q0 279 107.5 410t294.5 131q79 0 163.5 -17t135.5 -48l-51 -144q-107 35 -211 35q-224 0 -224 -354q0 -182 60.5 -280.5t167.5 -98.5q100 0 207 35l51 -146q-52 -29 -136.5 -46t-162.5 -17q-187 0 -294.5 130.5t-107.5 409.5z" />
<glyph unicode="d" horiz-adv-x="911" d="M59 518q0 154 28.5 264.5t82.5 172.5t121.5 90t154.5 28q98 0 175 -45v406h210v-1434h-186l-16 111q-26 -54 -85 -86.5t-145 -32.5q-164 0 -252 132t-88 394zM274 520q0 -82 9.5 -144.5t31 -111t59 -73.5t89.5 -25q97 0 158 65v648q-55 20 -123 20q-53 0 -92 -17.5 t-70 -59.5t-46.5 -117.5t-15.5 -184.5z" />
<glyph unicode="e" horiz-adv-x="827" d="M59 485v68q0 145 27 248t77.5 161.5t114.5 84.5t148 26q82 0 143 -20.5t108.5 -66.5t72 -127.5t24.5 -196.5q0 -104 -8 -205h-500q9 -162 59 -228.5t148 -66.5q95 0 232 39l51 -146q-51 -29 -139 -46t-168 -17q-71 0 -128 14.5t-105.5 50t-81.5 91t-53 140.5t-22 197z M266 618h309v48q0 131 -36 187t-113 56q-148 0 -160 -291z" />
<glyph unicode="f" horiz-adv-x="614" d="M18 901v164h162v29q2 182 68 271t211 89q131 0 188 -45l-37 -143q-49 22 -104 22q-37 0 -60.5 -13t-35 -41t-15.5 -59t-4 -79v-31h203v-164h-203v-901h-211v901h-162z" />
<glyph unicode="g" horiz-adv-x="911" d="M59 522q0 120 20.5 218.5t62 174t109.5 117t157 41.5q157 0 221 -115l16 107h189v-1030q-1 -111 -21 -193t-53 -133.5t-84 -83t-108 -43.5t-130 -12q-79 0 -166 17.5t-139 47.5l53 146q101 -37 220 -37q45 0 73.5 5t58 22.5t46 50.5t27 90.5t10.5 140.5v43 q-64 -104 -218 -104q-157 0 -250.5 136t-93.5 394zM274 522q0 -164 48.5 -260t140.5 -96q97 0 158 65v603q-58 65 -158 65q-189 0 -189 -377z" />
<glyph unicode="h" horiz-adv-x="878" d="M80 0v1434h211v-467q106 106 266 106q114 0 179 -63.5t65 -216.5v-793h-211v782q0 77 -25 100t-73 23q-63 0 -119 -23t-82 -48v-834h-211z" />
<glyph unicode="i" horiz-adv-x="452" d="M94 1292q0 56 37 92.5t94 36.5q58 0 95.5 -36.5t37.5 -92.5t-37.5 -92.5t-95.5 -36.5q-57 0 -94 36.5t-37 92.5zM121 0v1065h211v-1065h-211z" />
<glyph unicode="j" horiz-adv-x="452" d="M-139 -258l37 141q54 -22 112 -22q67 0 89 47.5t22 144.5v1012h211v-1012q-2 -180 -69 -270t-208 -90q-131 0 -194 49zM94 1292q0 56 37 92.5t94 36.5q58 0 95.5 -36.5t37.5 -92.5t-37.5 -92.5t-95.5 -36.5q-57 0 -94 36.5t-37 92.5z" />
<glyph unicode="k" horiz-adv-x="858" d="M80 0v1434h211v-1434h-211zM291 532l309 533h229l-319 -533l330 -532h-230z" />
<glyph unicode="l" horiz-adv-x="411" d="M100 0v1434h211v-1434h-211z" />
<glyph unicode="m" horiz-adv-x="1288" d="M80 0v1065h186l19 -111q52 54 109 86.5t134 32.5q147 0 193 -127q38 35 69 59t84.5 46t106.5 22q122 0 175.5 -74.5t53.5 -218.5v-780h-213v748q0 73 -20.5 111t-77.5 38q-71 0 -154 -66q7 -49 7 -57v-774h-213v748q0 72 -20.5 110.5t-76.5 38.5q-71 0 -151 -68v-829 h-211z" />
<glyph unicode="n" horiz-adv-x="878" d="M80 0v1065h186l17 -107q115 115 274 115q114 0 179 -63.5t65 -216.5v-793h-211v782q0 77 -25 100t-73 23q-63 0 -119 -23t-82 -48v-834h-211z" />
<glyph unicode="o" horiz-adv-x="892" d="M55 510v43q0 112 20.5 201.5t55.5 148.5t85 97.5t106.5 55.5t121.5 17q66 0 123 -17t108 -55.5t87 -97.5t57 -148.5t21 -201.5v-43q0 -112 -21 -200.5t-57 -147.5t-87 -97.5t-108 -55.5t-123 -17q-82 0 -150 28t-123 86.5t-85.5 161.5t-30.5 242zM266 510 q0 -350 178 -350q183 0 183 350v43q0 350 -183 350q-88 0 -133 -84t-45 -266v-43z" />
<glyph unicode="p" horiz-adv-x="911" d="M80 -410v1475h186l19 -107q64 115 225 115q88 0 155 -41.5t107 -117t60 -174t20 -218.5q0 -257 -94 -393.5t-248 -136.5q-156 0 -219 104v-506h-211zM291 231q61 -65 158 -65q92 0 140 96t48 260q0 377 -188 377q-100 0 -158 -65v-603z" />
<glyph unicode="q" horiz-adv-x="911" d="M59 522q0 120 20 218.5t60 174t107 117t155 41.5q162 0 226 -115l18 107h186v-1475h-210v506q-63 -104 -220 -104q-154 0 -248 136.5t-94 393.5zM274 522q0 -164 48.5 -260t140.5 -96q97 0 158 65v603q-58 65 -158 65q-189 0 -189 -377z" />
<glyph unicode="r" horiz-adv-x="579" d="M80 0v1065h184l19 -109q46 44 121 78t149 37v-199h-23q-60 0 -122 -12q-74 -16 -117 -47v-813h-211z" />
<glyph unicode="s" horiz-adv-x="761" d="M49 70l57 135q41 -17 109 -28t117 -11q73 0 120.5 27.5t47.5 91.5q0 57 -41 99.5t-109 80.5q-17 10 -55 29.5t-59 31.5t-53.5 33t-51.5 41.5t-38.5 47.5t-28.5 60t-9 72q0 82 24 140.5t68.5 91t101 47t128.5 14.5q89 0 183.5 -19.5t146.5 -56.5l-56 -141 q-47 19 -114.5 31t-120.5 12q-148 0 -148 -98q0 -26 11 -49t26 -39.5t42.5 -36t48 -30.5t56 -29.5t52.5 -28.5q42 -22 73 -44.5t65.5 -58t53.5 -85t19 -109.5q0 -82 -27 -141.5t-75.5 -93t-108.5 -49t-135 -15.5q-87 0 -178.5 19.5t-141.5 58.5z" />
<glyph unicode="t" horiz-adv-x="657" d="M18 901v164h162v53l29 240h182v-293h203v-164h-203v-547q0 -98 23.5 -145t93.5 -47q48 0 102 24l39 -145q-27 -23 -79 -36t-109 -13q-145 0 -212 90t-69 272v547h-162z" />
<glyph unicode="u" horiz-adv-x="878" d="M80 272v793h211v-782q0 -77 24 -100t72 -23q63 0 118.5 23t84.5 48v834h211v-1065h-187l-16 106q-114 -114 -274 -114q-116 0 -180 63.5t-64 216.5z" />
<glyph unicode="v" horiz-adv-x="872" d="M18 1065h222l196 -778l197 778h221l-311 -1065h-213z" />
<glyph unicode="w" horiz-adv-x="1290" d="M39 1065h219l148 -748l159 748h160l160 -748l147 748h221l-241 -1065h-205l-162 711l-160 -711h-206z" />
<glyph unicode="x" horiz-adv-x="874" d="M18 0l258 532l-258 533h236l184 -442l185 442h235l-258 -533l258 -532h-235l-185 446l-184 -446h-236z" />
<glyph unicode="y" horiz-adv-x="878" d="M18 1065h220l202 -727l201 727h221l-448 -1464h-215l135 442z" />
<glyph unicode="z" horiz-adv-x="817" d="M59 0v98l439 799h-439v168h701v-98l-438 -799h438v-168h-701z" />
<glyph unicode="{" horiz-adv-x="698" d="M80 598v154q50 4 84 25t50.5 56.5t23 73.5t6.5 88v197q0 164 63 244t225 80h109v-185h-70q-73 0 -90.5 -33t-17.5 -131v-192q0 -116 -36 -198.5t-116 -102.5q152 -38 152 -301v-199q0 -39 1.5 -59t6.5 -41.5t17 -31t32 -16t51 -6.5h70v-184h-109q-162 0 -225 79t-63 243 v198q0 50 -6.5 88t-23 74t-50.5 56.5t-84 23.5z" />
<glyph unicode="|" horiz-adv-x="542" d="M162 -164v1680h219v-1680h-219z" />
<glyph unicode="}" horiz-adv-x="698" d="M59 20h68q73 0 91 31.5t18 122.5v199q0 264 151 301q-54 14 -89 60.5t-48.5 106.5t-13.5 134v192q0 51 -2.5 76t-13 48.5t-32.5 31.5t-61 8h-68v185h107q162 0 225.5 -80t63.5 -244v-197q0 -50 6.5 -88t23.5 -73.5t51 -56.5t85 -25v-154q-51 -3 -85 -23.5t-51 -56.5 t-23.5 -74t-6.5 -88v-198q0 -164 -63.5 -243t-225.5 -79h-107v184z" />
<glyph unicode="~" horiz-adv-x="921" d="M59 594q0 5 1 13.5t6.5 33.5t15 47.5t29 50.5t45.5 48t68 33.5t93 13.5q50 0 93.5 -17t69.5 -37.5t57.5 -37.5t58.5 -17q33 0 52.5 25t22.5 50l3 25l188 -41q0 -10 -2 -26t-17 -57t-40 -72.5t-77.5 -57.5t-123.5 -26q-51 0 -94.5 17t-68 37t-55 37t-58.5 17 q-33 0 -53.5 -25t-24.5 -50l-4 -25z" />
<glyph unicode="&#xa1;" horiz-adv-x="440" d="M80 934q0 59 39.5 98t99.5 39q61 0 101 -39t40 -98q0 -60 -39.5 -98.5t-101.5 -38.5q-60 0 -99.5 39t-39.5 98zM104 -362l21 1030h188l23 -1030h-232z" />
<glyph unicode="&#xa2;" horiz-adv-x="808" d="M59 532q0 242 81.5 373t226.5 160v246h219v-248q107 -16 174 -55l-51 -144q-107 35 -211 35q-224 0 -224 -354q0 -182 60.5 -280.5t167.5 -98.5q100 0 207 35l51 -146q-53 -31 -174 -53v-248h-219v248q-145 29 -226.5 159t-81.5 371z" />
<glyph unicode="&#xa3;" horiz-adv-x="909" d="M39 0v184h123v613q0 101 2 163.5t10.5 139t25 121.5t45.5 92.5t72 72t105.5 40.5t144.5 16q80 0 155.5 -19.5t111.5 -38.5l36 -20l-53 -166q-120 47 -237 47q-49 0 -85 -13t-57 -36.5t-34 -56.5t-17 -73.5t-6 -87.5t0 -99v-58v-30h356v-185h-356v-422h463v-184h-805z" />
<glyph unicode="&#xa4;" horiz-adv-x="1071" d="M80 993l125 127l110 -112q92 69 217 69q124 0 216 -69l110 112l135 -127l-114 -110q65 -98 66 -218t-66 -219l114 -112l-131 -125l-114 110q-89 -65 -213 -65q-128 0 -220 65l-112 -110l-121 133l108 104q-69 100 -67 218.5t67 218.5zM301 666q0 -96 67.5 -166t166.5 -70 q96 0 163.5 70t67.5 166t-67.5 164.5t-163.5 68.5q-99 0 -166.5 -68.5t-67.5 -164.5z" />
<glyph unicode="&#xa5;" horiz-adv-x="935" d="M18 1434h238l213 -613l211 613h240l-275 -707h186v-174h-253v-139h253v-174h-253v-240h-222v240h-250v174h250v139h-250v174h185z" />
<glyph unicode="&#xa6;" horiz-adv-x="542" d="M162 -164v653h219v-653h-219zM162 981v657h219v-657h-219z" />
<glyph unicode="&#xa7;" horiz-adv-x="768" d="M51 745q0 156 135 205q-63 36 -96 84t-33 135q0 273 328 273q87 0 182.5 -19.5t145.5 -56.5l-58 -141q-47 18 -114 30.5t-119 12.5q-41 0 -73 -8t-55.5 -31t-23.5 -60q0 -31 14.5 -56t43.5 -45t56 -34t69 -33.5t67 -33.5q82 -47 113 -76q86 -78 86 -201q0 -155 -137 -205 q64 -38 97.5 -85.5t33.5 -133.5q0 -274 -328 -274q-88 0 -183.5 19.5t-146.5 56.5l58 143q45 -19 112 -31t121 -12q152 0 152 98q0 30 -14.5 55t-43 45t-56 34.5t-69.5 34.5t-67 34q-30 17 -42.5 24.5t-42 27.5t-44.5 38.5t-33.5 46.5t-26.5 63t-8 76zM262 752 q0 -31 12.5 -56.5t35 -44.5t46.5 -34t52 -30q9 -5 14 -7q84 24 84 104q0 17 -4.5 32.5t-10 27t-18 25t-20 20.5t-26 19t-25.5 16.5t-29 16.5t-27 15q-84 -25 -84 -104z" />
<glyph unicode="&#xa8;" horiz-adv-x="811" d="M80 1298q0 56 38.5 96t96.5 40q56 0 94.5 -40t38.5 -96q0 -60 -38 -99.5t-95 -39.5q-58 0 -96.5 39.5t-38.5 99.5zM461 1298q0 56 39.5 96t97.5 40q56 0 94.5 -40t38.5 -96q0 -60 -38 -99.5t-95 -39.5q-59 0 -98 39.5t-39 99.5z" />
<glyph unicode="&#xa9;" horiz-adv-x="1273" d="M59 717q0 124 18.5 229t61 198t108 158t165 102.5t225.5 37.5t225 -37.5t164.5 -102.5t108 -158t61 -198t18.5 -229t-18.5 -229t-61 -198t-108 -158t-164.5 -102.5t-225 -37.5t-225.5 37.5t-165 102.5t-108 158t-61 198t-18.5 229zM240 717q0 -125 19.5 -222t63.5 -175.5 t123 -121t191 -42.5t191 42.5t123 121t63.5 175.5t19.5 222t-19.5 222t-63.5 175.5t-123 121t-191 42.5t-191 -42.5t-123 -121t-63.5 -175.5t-19.5 -222zM344 717q0 57 6.5 109.5t27.5 113.5t55 104.5t94.5 73t140.5 29.5q112 0 198 -57l-45 -136q-67 31 -133 31 q-158 0 -158 -268q0 -35 3 -67t13 -71t27 -67t47.5 -47t71.5 -19q52 0 129 31l45 -135q-82 -55 -200 -55q-79 0 -139 29.5t-94 73.5t-55 104.5t-27.5 113t-6.5 109.5z" />
<glyph unicode="&#xaa;" horiz-adv-x="585" d="M39 965q0 164 143 196l162 35v33q0 45 -15 60.5t-61 15.5q-51 0 -157 -29l-45 115q94 51 215 51q119 0 173 -52t54 -161v-459h-141l-11 61q-61 -67 -141 -67q-88 0 -132 61t-44 140zM207 973q0 -68 49 -68q43 0 88 31v123l-76 -15q-33 -9 -47 -24.5t-14 -46.5z" />
<glyph unicode="&#xab;" horiz-adv-x="1337" d="M80 569v80l645 547v-248l-401 -340l401 -336v-247zM610 569v80l647 547v-248l-403 -340l403 -336v-247z" />
<glyph unicode="&#xac;" horiz-adv-x="915" d="M80 573v181h758v-430h-215v249h-543z" />
<glyph unicode="&#xad;" horiz-adv-x="915" d="M80 598v182h758v-182h-758z" />
<glyph unicode="&#xae;" horiz-adv-x="1273" d="M59 717q0 124 18.5 229t61 198t108 158t165 102.5t225.5 37.5t225 -37.5t164.5 -102.5t108 -158t61 -198t18.5 -229t-18.5 -229t-61 -198t-108 -158t-164.5 -102.5t-225 -37.5t-225.5 37.5t-165 102.5t-108 158t-61 198t-18.5 229zM240 717q0 -125 19.5 -222t63.5 -175.5 t123 -121t191 -42.5t191 42.5t123 121t63.5 175.5t19.5 222t-19.5 222t-63.5 175.5t-123 121t-191 42.5t-191 -42.5t-123 -121t-63.5 -175.5t-19.5 -222zM412 295v850h227q123 0 190.5 -67t67.5 -177q0 -73 -32.5 -134t-100.5 -91l160 -381h-181l-133 352h-26v-352h-172z M584 795h39q54 0 79 27.5t25 82.5q0 50 -25 72t-79 22h-39v-204z" />
<glyph unicode="&#xaf;" horiz-adv-x="956" d="M39 1526v180h881v-180h-881z" />
<glyph unicode="&#xb0;" horiz-adv-x="610" d="M39 1153q0 77 23 134.5t62 90t84.5 48.5t96.5 16q50 0 96 -16t85.5 -48.5t63 -90.5t23.5 -134t-23.5 -134t-63.5 -90t-85.5 -47.5t-95.5 -15.5q-51 0 -96.5 15.5t-84.5 47.5t-62 89.5t-23 134.5zM190 1155q0 -141 115 -141q117 0 117 141q0 80 -32 108.5t-85 28.5 q-52 0 -83.5 -28.5t-31.5 -108.5z" />
<glyph unicode="&#xb1;" horiz-adv-x="927" d="M80 0v180h770v-180h-770zM80 614v181h276v286h215v-286h279v-181h-279v-286h-215v286h-276z" />
<glyph unicode="&#xb2;" horiz-adv-x="583" d="M70 1389q98 53 206 53q238 0 238 -195q0 -56 -19.5 -102t-49 -75t-64 -58t-64.5 -52t-51.5 -55.5t-23.5 -70.5h264v-150h-432v135q0 73 28 130t68 92.5t80 65t68 62.5t28 70q0 30 -18.5 41.5t-61.5 11.5q-66 0 -155 -28z" />
<glyph unicode="&#xb3;" horiz-adv-x="587" d="M59 735l43 127q89 -28 152 -28q53 0 73.5 19.5t20.5 70.5q0 40 -27 63t-69 23h-78v139h78q41 0 63.5 21t22.5 61q0 59 -80 59q-78 0 -149 -24l-46 127q62 29 104 39t103 10q238 0 238 -211q0 -47 -26 -87.5t-70 -60.5q50 -17 78 -60t28 -105q0 -112 -63.5 -175 t-190.5 -63q-111 0 -205 55z" />
<glyph unicode="&#xb4;" horiz-adv-x="485" d="M59 1188l134 409h235l-174 -409h-195z" />
<glyph unicode="&#xb6;" horiz-adv-x="1202" d="M59 1004q0 122 29.5 207.5t86.5 133.5t130.5 68.5t171.5 20.5h645v-1434h-200v1255h-142v-1255h-198v606q-63 -18 -133 -18q-90 0 -159 21.5t-122 68.5t-81 129t-28 197z" />
<glyph unicode="&#xb7;" horiz-adv-x="661" d="M152 649q0 73 53.5 124.5t128.5 51.5q72 0 124 -51.5t52 -124.5q0 -75 -52 -127.5t-124 -52.5q-75 0 -128.5 52.5t-53.5 127.5z" />
<glyph unicode="&#xb8;" horiz-adv-x="661" d="M39 -473l51 119q88 -31 154 -31q42 0 74.5 3t65.5 11t50.5 25t16.5 43q-1 41 -30 53t-106 12h-196l8 80l135 234h187l-105 -180q57 -1 95.5 -5t76 -16t59.5 -33.5t35 -58t13 -88.5q0 -47 -14 -84t-41 -61t-59.5 -40.5t-76.5 -24.5t-85 -11.5t-91 -3.5q-128 0 -217 57z " />
<glyph unicode="&#xb9;" horiz-adv-x="526" d="M39 1155v158q174 70 217 121h131v-754h-170v557q-29 -23 -82 -47t-96 -35z" />
<glyph unicode="&#xba;" horiz-adv-x="653" d="M70 1075q0 54 6 101.5t23 98t44.5 86t74.5 58.5t108 23q260 0 260 -391q0 -53 -6 -100.5t-23.5 -98t-45.5 -86.5t-75.5 -59t-109.5 -23q-66 0 -114.5 25.5t-75 63.5t-42 93.5t-20 103t-4.5 105.5zM242 1063q0 -227 84 -227q29 0 48 26t27 68t10.5 72t2.5 61 q0 30 -2.5 60.5t-10.5 73t-27 69t-48 26.5q-84 0 -84 -229z" />
<glyph unicode="&#xbb;" horiz-adv-x="1337" d="M80 25v247l401 336l-401 340v248l645 -547v-80zM610 25v247l404 336l-404 340v248l647 -547v-80z" />
<glyph unicode="&#xbc;" horiz-adv-x="1169" d="M39 1155v158q174 70 217 121h131v-703h-170v506q-29 -23 -82 -47t-96 -35zM317 0l363 1434h184l-362 -1434h-185zM653 135v70l262 547h144v-482h71v-135h-71v-135h-168v135h-238zM817 270h86v197z" />
<glyph unicode="&#xbd;" horiz-adv-x="1271" d="M39 1155v158q174 70 217 121h131v-703h-170v506q-29 -23 -82 -47t-96 -35zM317 0l363 1434h184l-362 -1434h-185zM758 702q103 56 207 56q237 0 237 -195q0 -48 -14.5 -88.5t-38 -68.5t-51.5 -53t-57 -47t-53 -44t-40 -50.5t-18 -61.5h264v-150h-432v133q0 62 20 113.5 t50.5 83t65.5 62t65.5 52t50.5 50.5t20 61q0 30 -18.5 41.5t-61.5 11.5q-70 0 -155 -30z" />
<glyph unicode="&#xbe;" horiz-adv-x="1232" d="M59 735l43 127q89 -28 152 -28q53 0 73.5 19.5t20.5 70.5q0 40 -27 63t-69 23h-78v139h78q41 0 63.5 21t22.5 61q0 59 -80 59q-78 0 -149 -24l-46 127q62 29 104 39t103 10q238 0 238 -211q0 -47 -26 -87.5t-70 -60.5q50 -17 78 -60t28 -105q0 -112 -63.5 -175 t-190.5 -63q-111 0 -205 55zM381 0l362 1434h185l-363 -1434h-184zM717 135v70l262 547h143v-482h72v-135h-72v-135h-168v135h-237zM881 270h88v197z" />
<glyph unicode="&#xbf;" horiz-adv-x="845" d="M70 -39q0 62 14.5 112.5t38 85.5t51.5 67.5t56 66.5t51.5 73.5t38 98t14.5 131.5v72h221v-72q0 -85 -14.5 -155t-38 -116t-52 -84.5t-57 -69t-52 -59.5t-38 -65t-14.5 -78q0 -80 47.5 -112.5t132.5 -32.5q127 0 264 45l55 -160q-69 -39 -166.5 -59.5t-185.5 -20.5 q-181 0 -273.5 85t-92.5 247zM303 934q0 59 40 98t101 39q60 0 100 -39t40 -98t-40 -98t-100 -39q-62 0 -101.5 38.5t-39.5 98.5z" />
<glyph unicode="&#xc0;" horiz-adv-x="925" d="M18 0l326 1434h238l325 -1434h-229l-68 336h-295l-67 -336h-230zM207 1966h235l133 -410h-194zM352 516h221l-110 541z" />
<glyph unicode="&#xc1;" horiz-adv-x="925" d="M18 0l326 1434h238l325 -1434h-229l-68 336h-295l-67 -336h-230zM352 516h221l-110 541zM362 1556l134 410h235l-174 -410h-195z" />
<glyph unicode="&#xc2;" horiz-adv-x="925" d="M18 0l326 1434h238l325 -1434h-229l-68 336h-295l-67 -336h-230zM150 1556l239 410h148l237 -410h-209l-102 205l-103 -205h-210zM352 516h221l-110 541z" />
<glyph unicode="&#xc3;" horiz-adv-x="925" d="M18 0l326 1434h238l325 -1434h-229l-68 336h-295l-67 -336h-230zM106 1602q0 5 0.5 13t4.5 32t11.5 46t24.5 48.5t40 46t61 32.5t86 13q42 0 79.5 -16.5t60 -35.5t50.5 -35.5t54 -16.5q33 0 48 23.5t14 47.5l-1 23l180 -41v-13t-4 -31.5t-11.5 -45t-24.5 -47.5 t-40.5 -44.5t-62 -31.5t-86.5 -13q-43 0 -80 16t-59 35.5t-50 35.5t-55 16q-20 0 -34 -9.5t-19.5 -23.5t-8 -28t-2.5 -24l1 -9zM352 516h221l-110 541z" />
<glyph unicode="&#xc4;" horiz-adv-x="925" d="M18 0l326 1434h238l325 -1434h-229l-68 336h-295l-67 -336h-230zM135 1702q0 57 40 96t97 39t96.5 -39t39.5 -96t-39.5 -96t-96.5 -39t-97 39t-40 96zM352 516h221l-110 541zM516 1702q0 57 40.5 96t100.5 39q56 0 95 -39t39 -96t-39 -96t-95 -39q-60 0 -100.5 39 t-40.5 96z" />
<glyph unicode="&#xc5;" horiz-adv-x="925" d="M18 0l310 1364q-49 30 -78 78t-29 106q0 101 70 165.5t170 64.5q99 0 170 -65t71 -165q0 -57 -29 -105.5t-77 -76.5l311 -1366h-229l-68 336h-295l-67 -336h-230zM352 516h221l-110 541zM379 1548q0 -32 23 -55t59 -23t61 23.5t25 54.5q0 39 -24 61.5t-62 22.5 q-37 0 -59.5 -22.5t-22.5 -61.5z" />
<glyph unicode="&#xc6;" horiz-adv-x="1449" d="M18 0l695 1434h680v-185h-443v-418h357v-184h-357v-463h443v-184h-662v336h-315l-162 -336h-236zM504 516h227v479z" />
<glyph unicode="&#xc7;" horiz-adv-x="917" d="M59 717q0 125 15.5 230t52.5 198t94.5 157.5t145 102t200.5 37.5q82 0 157 -18t110 -36l34 -18l-51 -166q-110 41 -225 41q-63 0 -111.5 -20.5t-80.5 -59.5t-53.5 -86.5t-32 -110.5t-15 -121.5t-4.5 -129.5t4.5 -129.5t15 -122t32 -110.5t53.5 -86.5t80.5 -60 t111.5 -20.5q51 0 107.5 11t86.5 21l31 11l51 -165q-11 -7 -31.5 -18t-87.5 -30.5t-137 -23.5l-59 -98q58 -1 97 -5t76.5 -16t59.5 -33.5t35 -58t13 -88.5q0 -47 -14 -84t-41.5 -61t-60 -40.5t-76.5 -24.5t-85 -11.5t-90 -3.5q-127 0 -219 57l53 119q85 -31 154 -31 q42 0 74.5 3t65.5 11t50.5 25t16.5 43q-1 41 -30.5 53t-105.5 12h-196l8 80l94 166q-373 90 -373 709z" />
<glyph unicode="&#xc8;" horiz-adv-x="798" d="M80 0v1434h661v-185h-442v-418h354v-184h-354v-463h442v-184h-661zM197 1966h235l133 -410h-194z" />
<glyph unicode="&#xc9;" horiz-adv-x="798" d="M80 0v1434h661v-185h-442v-418h354v-184h-354v-463h442v-184h-661zM303 1556l133 410h236l-174 -410h-195z" />
<glyph unicode="&#xca;" horiz-adv-x="798" d="M80 0v1434h661v-185h-442v-418h354v-184h-354v-463h442v-184h-661zM102 1556l238 410h147l240 -410h-211l-102 205l-103 -205h-209z" />
<glyph unicode="&#xcb;" horiz-adv-x="800" d="M80 0v1434h661v-185h-442v-418h354v-184h-354v-463h442v-184h-661zM88 1702q0 57 40 96t99 39q57 0 95 -39t38 -96t-38 -96t-95 -39q-59 0 -99 39t-40 96zM471 1702q0 57 40 96t99 39q57 0 95 -39t38 -96t-38 -96t-95 -39q-59 0 -99 39t-40 96z" />
<glyph unicode="&#xcc;" horiz-adv-x="458" d="M-41 1966h236l133 -410h-195zM121 0v1434h219v-1434h-219z" />
<glyph unicode="&#xcd;" horiz-adv-x="458" d="M121 0v1434h219v-1434h-219zM127 1556l133 410h236l-174 -410h-195z" />
<glyph unicode="&#xce;" horiz-adv-x="458" d="M-82 1556l238 410h147l240 -410h-211l-103 205l-102 -205h-209zM121 0v1434h219v-1434h-219z" />
<glyph unicode="&#xcf;" horiz-adv-x="458" d="M-98 1702q0 57 40 96t97 39q58 0 96.5 -39t38.5 -96t-38.5 -96t-96.5 -39q-57 0 -97 39t-40 96zM121 0v1434h219v-1434h-219zM285 1702q0 57 40 96t99 39q56 0 94.5 -39t38.5 -96t-38.5 -96t-94.5 -39q-59 0 -99 39t-40 96z" />
<glyph unicode="&#xd0;" horiz-adv-x="1038" d="M16 645v180h144v609h241q107 0 191 -16t145 -44.5t104.5 -76t70.5 -102t42.5 -132t21 -155.5t5.5 -183q0 -106 -5.5 -186t-21 -159t-42.5 -134.5t-71 -104.5t-105 -78.5t-146 -46t-193 -16.5h-237v645h-144zM379 184h24q83 0 143 14.5t98 51t60.5 74.5t32.5 109.5 t12.5 128.5t2.5 159q0 88 -1.5 135.5t-8 113.5t-19.5 100t-38 74.5t-62 59.5t-91 32t-126 13h-27v-424h194v-180h-194v-461z" />
<glyph unicode="&#xd1;" horiz-adv-x="1003" d="M90 0v1434h213l391 -963v963h221v-1434h-215l-391 963v-963h-219zM145 1602q0 5 0.5 13t4.5 32t11.5 46t24.5 48.5t40 46t61 32.5t86 13q43 0 81 -16.5t60 -35.5t50.5 -35.5t53.5 -16.5q32 0 47.5 23.5t14.5 47.5v23l180 -41v-13t-4 -31.5t-11.5 -45t-24.5 -47.5 t-40.5 -44.5t-62.5 -31.5t-88 -13q-43 0 -80 16t-58.5 35.5t-49.5 35.5t-54 16q-32 0 -47.5 -23.5t-15.5 -47.5v-23z" />
<glyph unicode="&#xd2;" horiz-adv-x="1032" d="M76 692v47q0 72 3 131t10.5 126t22 119.5t36.5 105.5t55.5 91.5t77 68.5t103.5 45.5t132 15.5q82 0 148 -21t111.5 -56.5t79 -90t53 -111.5t31.5 -132t15.5 -142t3.5 -150v-47q0 -83 -3.5 -149.5t-15.5 -141.5t-31.5 -132t-53 -111t-79 -89t-111.5 -56t-148 -21 q-83 0 -149 21t-111.5 56t-78.5 89t-52 110.5t-30.5 132t-15 142t-3.5 149.5zM291 1966h235l133 -410h-194zM307 715q0 -49 0.5 -81.5t2.5 -80.5t6 -81t11.5 -74t18 -69t26.5 -56.5t36 -45.5t47.5 -28t60.5 -11t60.5 11t47.5 28t36 45.5t26.5 56.5t18 69t11.5 74t6 81 t2.5 80.5t0.5 81.5q0 64 -1 105.5t-5 102.5t-12 101t-23.5 85t-37 71.5t-55 44.5t-75.5 18t-75.5 -18t-55 -44.5t-37 -71.5t-23.5 -85t-12 -101t-5 -102.5t-1 -105.5z" />
<glyph unicode="&#xd3;" horiz-adv-x="1032" d="M76 692v47q0 72 3 131t10.5 126t22 119.5t36.5 105.5t55.5 91.5t77 68.5t103.5 45.5t132 15.5q82 0 148 -21t111.5 -56.5t79 -90t53 -111.5t31.5 -132t15.5 -142t3.5 -150v-47q0 -83 -3.5 -149.5t-15.5 -141.5t-31.5 -132t-53 -111t-79 -89t-111.5 -56t-148 -21 q-83 0 -149 21t-111.5 56t-78.5 89t-52 110.5t-30.5 132t-15 142t-3.5 149.5zM307 715q0 -49 0.5 -81.5t2.5 -80.5t6 -81t11.5 -74t18 -69t26.5 -56.5t36 -45.5t47.5 -28t60.5 -11t60.5 11t47.5 28t36 45.5t26.5 56.5t18 69t11.5 74t6 81t2.5 80.5t0.5 81.5q0 64 -1 105.5 t-5 102.5t-12 101t-23.5 85t-37 71.5t-55 44.5t-75.5 18t-75.5 -18t-55 -44.5t-37 -71.5t-23.5 -85t-12 -101t-5 -102.5t-1 -105.5zM418 1556l133 410h235l-174 -410h-194z" />
<glyph unicode="&#xd4;" horiz-adv-x="1032" d="M76 692v47q0 72 3 131t10.5 126t22 119.5t36.5 105.5t55.5 91.5t77 68.5t103.5 45.5t132 15.5q82 0 148 -21t111.5 -56.5t79 -90t53 -111.5t31.5 -132t15.5 -142t3.5 -150v-47q0 -83 -3.5 -149.5t-15.5 -141.5t-31.5 -132t-53 -111t-79 -89t-111.5 -56t-148 -21 q-83 0 -149 21t-111.5 56t-78.5 89t-52 110.5t-30.5 132t-15 142t-3.5 149.5zM205 1556l239 410h148l237 -410h-208l-103 205l-102 -205h-211zM307 715q0 -49 0.5 -81.5t2.5 -80.5t6 -81t11.5 -74t18 -69t26.5 -56.5t36 -45.5t47.5 -28t60.5 -11t60.5 11t47.5 28t36 45.5 t26.5 56.5t18 69t11.5 74t6 81t2.5 80.5t0.5 81.5q0 64 -1 105.5t-5 102.5t-12 101t-23.5 85t-37 71.5t-55 44.5t-75.5 18t-75.5 -18t-55 -44.5t-37 -71.5t-23.5 -85t-12 -101t-5 -102.5t-1 -105.5z" />
<glyph unicode="&#xd5;" horiz-adv-x="1032" d="M76 692v47q0 72 3 131t10.5 126t22 119.5t36.5 105.5t55.5 91.5t77 68.5t103.5 45.5t132 15.5q82 0 148 -21t111.5 -56.5t79 -90t53 -111.5t31.5 -132t15.5 -142t3.5 -150v-47q0 -83 -3.5 -149.5t-15.5 -141.5t-31.5 -132t-53 -111t-79 -89t-111.5 -56t-148 -21 q-83 0 -149 21t-111.5 56t-78.5 89t-52 110.5t-30.5 132t-15 142t-3.5 149.5zM162 1602v13t4 32t11 46t23.5 48.5t40 46t62 32.5t86.5 13q42 0 79.5 -16.5t60 -35.5t50.5 -35.5t54 -16.5q33 0 48 23.5t14 47.5l-1 23l180 -41v-13t-4 -31.5t-11.5 -45t-24.5 -47.5 t-40.5 -44.5t-62 -31.5t-86.5 -13q-43 0 -80 16t-59 35.5t-50 35.5t-55 16q-32 0 -47.5 -23.5t-15.5 -47.5v-23zM307 715q0 -49 0.5 -81.5t2.5 -80.5t6 -81t11.5 -74t18 -69t26.5 -56.5t36 -45.5t47.5 -28t60.5 -11t60.5 11t47.5 28t36 45.5t26.5 56.5t18 69t11.5 74t6 81 t2.5 80.5t0.5 81.5q0 64 -1 105.5t-5 102.5t-12 101t-23.5 85t-37 71.5t-55 44.5t-75.5 18t-75.5 -18t-55 -44.5t-37 -71.5t-23.5 -85t-12 -101t-5 -102.5t-1 -105.5z" />
<glyph unicode="&#xd6;" horiz-adv-x="1032" d="M76 692v47q0 72 3 131t10.5 126t22 119.5t36.5 105.5t55.5 91.5t77 68.5t103.5 45.5t132 15.5q82 0 148 -21t111.5 -56.5t79 -90t53 -111.5t31.5 -132t15.5 -142t3.5 -150v-47q0 -83 -3.5 -149.5t-15.5 -141.5t-31.5 -132t-53 -111t-79 -89t-111.5 -56t-148 -21 q-83 0 -149 21t-111.5 56t-78.5 89t-52 110.5t-30.5 132t-15 142t-3.5 149.5zM193 1702q0 57 40 96t97 39q58 0 96.5 -39t38.5 -96t-38.5 -96t-96.5 -39q-57 0 -97 39t-40 96zM307 715q0 -49 0.5 -81.5t2.5 -80.5t6 -81t11.5 -74t18 -69t26.5 -56.5t36 -45.5t47.5 -28 t60.5 -11t60.5 11t47.5 28t36 45.5t26.5 56.5t18 69t11.5 74t6 81t2.5 80.5t0.5 81.5q0 64 -1 105.5t-5 102.5t-12 101t-23.5 85t-37 71.5t-55 44.5t-75.5 18t-75.5 -18t-55 -44.5t-37 -71.5t-23.5 -85t-12 -101t-5 -102.5t-1 -105.5zM575 1702q0 57 40.5 96t99.5 39 q56 0 94.5 -39t38.5 -96t-38.5 -96t-94.5 -39q-59 0 -99.5 39t-40.5 96z" />
<glyph unicode="&#xd7;" horiz-adv-x="845" d="M80 475l213 213l-213 215l129 129l215 -213l213 213l131 -129l-215 -215l215 -213l-131 -131l-213 215l-215 -215z" />
<glyph unicode="&#xd8;" horiz-adv-x="1032" d="M76 692v47q0 72 3 131t10.5 126t22 119.5t36.5 105.5t55.5 91.5t77 68.5t103.5 45.5t132 15.5q82 0 148 -21t111.5 -56.5t79 -90t53 -111.5t31.5 -132t15.5 -142t3.5 -150v-47q0 -83 -3.5 -149.5t-15.5 -141.5t-31.5 -132t-53 -111t-79 -89t-111.5 -56t-148 -21 q-83 0 -149 21t-111.5 56t-78.5 89t-52 110.5t-30.5 132t-15 142t-3.5 149.5zM307 715q0 -275 39 -385l227 905q-21 8 -57 8q-42 0 -75.5 -18t-55 -44.5t-37 -71.5t-23.5 -85t-12 -101t-5 -102.5t-1 -105.5zM461 197q36 -9 55 -9q33 0 60.5 11t47.5 28t36 45.5t26.5 56.5 t18 69t11.5 74t6 81t2.5 80.5t0.5 81.5q0 271 -39 379z" />
<glyph unicode="&#xd9;" horiz-adv-x="1042" d="M90 592v842h219v-834q0 -173 11 -235q24 -136 124 -167q33 -10 76 -10q52 0 90 13.5t60.5 46t36 62t19 86t6.5 91t1 104.5v11v832h219v-842q0 -114 -9 -197.5t-36.5 -163.5t-74 -129.5t-125 -79.5t-187.5 -30q-79 0 -141.5 15.5t-107 42t-77 69t-52.5 90t-32 112 t-16 127.5t-4 144zM295 1966h235l134 -410h-195z" />
<glyph unicode="&#xda;" horiz-adv-x="1042" d="M90 592v842h219v-834q0 -173 11 -235q24 -136 124 -167q33 -10 76 -10q52 0 90 13.5t60.5 46t36 62t19 86t6.5 91t1 104.5v11v832h219v-842q0 -114 -9 -197.5t-36.5 -163.5t-74 -129.5t-125 -79.5t-187.5 -30q-79 0 -141.5 15.5t-107 42t-77 69t-52.5 90t-32 112 t-16 127.5t-4 144zM418 1556l133 410h235l-174 -410h-194z" />
<glyph unicode="&#xdb;" horiz-adv-x="1042" d="M90 592v842h219v-834q0 -173 11 -235q24 -136 124 -167q33 -10 76 -10q52 0 90 13.5t60.5 46t36 62t19 86t6.5 91t1 104.5v11v832h219v-842q0 -114 -9 -197.5t-36.5 -163.5t-74 -129.5t-125 -79.5t-187.5 -30q-79 0 -141.5 15.5t-107 42t-77 69t-52.5 90t-32 112 t-16 127.5t-4 144zM209 1556l240 410h147l238 -410h-209l-103 205l-102 -205h-211z" />
<glyph unicode="&#xdc;" horiz-adv-x="1042" d="M90 592v842h219v-834q0 -173 11 -235q24 -136 124 -167q33 -10 76 -10q52 0 90 13.5t60.5 46t36 62t19 86t6.5 91t1 104.5v11v832h219v-842q0 -114 -9 -197.5t-36.5 -163.5t-74 -129.5t-125 -79.5t-187.5 -30q-79 0 -141.5 15.5t-107 42t-77 69t-52.5 90t-32 112 t-16 127.5t-4 144zM197 1702q0 57 40 96t97 39q58 0 96.5 -39t38.5 -96t-38.5 -96t-96.5 -39q-57 0 -97 39t-40 96zM580 1702q0 57 40 96t99 39q56 0 94.5 -39t38.5 -96t-38.5 -96t-94.5 -39q-59 0 -99 39t-40 96z" />
<glyph unicode="&#xdd;" horiz-adv-x="935" d="M18 1434h238l213 -613l211 613h240l-342 -885v-549h-222v549zM377 1556l133 410h235l-174 -410h-194z" />
<glyph unicode="&#xde;" horiz-adv-x="899" d="M80 0v1434h219v-324h150q192 0 302.5 -101.5t110.5 -293.5q0 -194 -111.5 -304t-301.5 -110h-150v-301h-219zM299 485h123q117 0 171 63.5t54 170.5q0 102 -53 154.5t-172 52.5h-123v-441z" />
<glyph unicode="&#xdf;" horiz-adv-x="999" d="M90 0v1055q0 199 85 293t294 94q87 0 156 -19.5t113.5 -51.5t73.5 -76.5t41.5 -91.5t12.5 -99q0 -63 -5.5 -106.5t-22.5 -90.5t-54.5 -78.5t-95.5 -48.5q262 -78 262 -366q0 -203 -112.5 -311.5t-300.5 -108.5q-47 0 -93 6v176q135 -20 211 39.5t76 204.5q0 65 -17 114 t-44 79t-65.5 48.5t-77 25.5t-83.5 7v160q107 0 155 42t48 144q0 45 -3 74.5t-13 61t-28.5 49.5t-51.5 29.5t-80 11.5q-43 0 -72.5 -10t-47 -26.5t-27 -47t-12.5 -63.5t-3 -85v-1034h-219z" />
<glyph unicode="&#xe0;" horiz-adv-x="837" d="M39 299q0 280 268 326l242 41v77q0 90 -32.5 124t-127.5 34q-115 0 -244 -41l-55 144q53 31 148.5 50t175.5 19q183 0 264.5 -79t81.5 -257v-737h-189l-16 111q-111 -119 -254 -119q-121 0 -191.5 84.5t-70.5 222.5zM242 1597h235l133 -409h-194zM258 311 q0 -65 29.5 -105t89.5 -40q88 0 172 67v263l-164 -35q-66 -15 -96.5 -50t-30.5 -100z" />
<glyph unicode="&#xe1;" horiz-adv-x="837" d="M39 299q0 280 268 326l242 41v77q0 90 -32.5 124t-127.5 34q-115 0 -244 -41l-55 144q53 31 148.5 50t175.5 19q183 0 264.5 -79t81.5 -257v-737h-189l-16 111q-111 -119 -254 -119q-121 0 -191.5 84.5t-70.5 222.5zM258 311q0 -65 29.5 -105t89.5 -40q88 0 172 67v263 l-164 -35q-66 -15 -96.5 -50t-30.5 -100zM322 1188l133 409h235l-174 -409h-194z" />
<glyph unicode="&#xe2;" horiz-adv-x="837" d="M39 299q0 280 268 326l242 41v77q0 90 -32.5 124t-127.5 34q-115 0 -244 -41l-55 144q53 31 148.5 50t175.5 19q183 0 264.5 -79t81.5 -257v-737h-189l-16 111q-111 -119 -254 -119q-121 0 -191.5 84.5t-70.5 222.5zM123 1188l237 409h148l240 -409h-211l-103 205 l-102 -205h-209zM258 311q0 -65 29.5 -105t89.5 -40q88 0 172 67v263l-164 -35q-66 -15 -96.5 -50t-30.5 -100z" />
<glyph unicode="&#xe3;" horiz-adv-x="837" d="M39 299q0 280 268 326l242 41v77q0 90 -32.5 124t-127.5 34q-115 0 -244 -41l-55 144q53 31 148.5 50t175.5 19q183 0 264.5 -79t81.5 -257v-737h-189l-16 111q-111 -119 -254 -119q-121 0 -191.5 84.5t-70.5 222.5zM90 1235v13t4 32t11.5 45.5t24.5 48t40 45.5t61 32 t86 13q43 0 81 -16t60.5 -35t51 -35t53.5 -16q32 0 47.5 23.5t15.5 46.5l-1 24l180 -43v-13t-4.5 -31.5t-12 -44.5t-24.5 -47t-40.5 -44.5t-62.5 -31.5t-88 -13q-43 0 -80 16t-58.5 36t-49 36t-53.5 16q-32 0 -48 -23.5t-16 -46.5v-24zM258 311q0 -65 29.5 -105t89.5 -40 q88 0 172 67v263l-164 -35q-66 -15 -96.5 -50t-30.5 -100z" />
<glyph unicode="&#xe4;" horiz-adv-x="837" d="M39 299q0 280 268 326l242 41v77q0 90 -32.5 124t-127.5 34q-115 0 -244 -41l-55 144q53 31 148.5 50t175.5 19q183 0 264.5 -79t81.5 -257v-737h-189l-16 111q-111 -119 -254 -119q-121 0 -191.5 84.5t-70.5 222.5zM115 1333q0 57 40 96t97 39q58 0 96.5 -39t38.5 -96 t-38.5 -96t-96.5 -39q-57 0 -97 39t-40 96zM258 311q0 -65 29.5 -105t89.5 -40q88 0 172 67v263l-164 -35q-66 -15 -96.5 -50t-30.5 -100zM498 1333q0 57 40 96t99 39q56 0 94.5 -39t38.5 -96t-38.5 -96t-94.5 -39q-59 0 -99 39t-40 96z" />
<glyph unicode="&#xe5;" horiz-adv-x="837" d="M39 299q0 280 268 326l242 41v77q0 90 -32.5 124t-127.5 34q-115 0 -244 -41l-55 144q53 31 148.5 50t175.5 19q183 0 264.5 -79t81.5 -257v-737h-189l-16 111q-111 -119 -254 -119q-121 0 -191.5 84.5t-70.5 222.5zM225 1401q0 97 67.5 159t164.5 62q96 0 165.5 -62.5 t69.5 -158.5q0 -93 -69.5 -155t-165.5 -62q-97 0 -164.5 61.5t-67.5 155.5zM258 311q0 -65 29.5 -105t89.5 -40q88 0 172 67v263l-164 -35q-66 -15 -96.5 -50t-30.5 -100zM379 1401q0 -33 21.5 -54.5t56.5 -21.5q34 0 58 22t24 54q0 36 -23.5 57t-58.5 21q-36 0 -57 -21 t-21 -57z" />
<glyph unicode="&#xe6;" horiz-adv-x="1318" d="M39 299q0 280 268 326l242 41v77q0 90 -32.5 124t-127.5 34q-115 0 -244 -41l-55 144q53 31 148.5 50t175.5 19q95 0 165 -33t99 -90q25 55 97 89t145 34q81 0 142 -20.5t108 -66.5t71.5 -127.5t24.5 -196.5q0 -120 -9 -205h-497q7 -161 57.5 -228t147.5 -67q95 0 231 39 l53 -146q-53 -29 -140 -46t-167 -17q-206 0 -297 127q-57 -65 -144.5 -96t-156.5 -31q-154 0 -229.5 82t-75.5 225zM258 311q0 -66 29.5 -107.5t89.5 -41.5q39 0 94.5 28t108.5 70q-31 107 -31 236l-164 -35q-66 -15 -96.5 -50t-30.5 -100zM760 618h309v48q0 131 -36 187 t-113 56q-151 0 -160 -291z" />
<glyph unicode="&#xe7;" horiz-adv-x="808" d="M59 532q0 279 107.5 410t294.5 131q79 0 163.5 -17t135.5 -48l-51 -144q-107 35 -211 35q-224 0 -224 -354q0 -182 60.5 -280.5t167.5 -98.5q100 0 207 35l51 -146q-80 -46 -242 -61l-57 -98q72 -1 117.5 -8t85.5 -27t58.5 -61t18.5 -105q0 -56 -21.5 -98t-55 -66 t-84 -38t-98.5 -18.5t-109 -4.5q-125 0 -217 57l51 119q88 -31 153 -31q43 0 75.5 3t65 11t50 25t16.5 43q0 41 -29 53t-106 12h-196l8 80l96 166q-281 78 -281 524z" />
<glyph unicode="&#xe8;" horiz-adv-x="827" d="M59 485v68q0 145 27 248t77.5 161.5t114.5 84.5t148 26q82 0 143 -20.5t108.5 -66.5t72 -127.5t24.5 -196.5q0 -104 -8 -205h-500q9 -162 59 -228.5t148 -66.5q95 0 232 39l51 -146q-51 -29 -139 -46t-168 -17q-71 0 -128 14.5t-105.5 50t-81.5 91t-53 140.5t-22 197z M238 1597h235l133 -409h-194zM266 618h309v48q0 131 -36 187t-113 56q-148 0 -160 -291z" />
<glyph unicode="&#xe9;" horiz-adv-x="827" d="M59 485v68q0 145 27 248t77.5 161.5t114.5 84.5t148 26q82 0 143 -20.5t108.5 -66.5t72 -127.5t24.5 -196.5q0 -104 -8 -205h-500q9 -162 59 -228.5t148 -66.5q95 0 232 39l51 -146q-51 -29 -139 -46t-168 -17q-71 0 -128 14.5t-105.5 50t-81.5 91t-53 140.5t-22 197z M266 618h309v48q0 131 -36 187t-113 56q-148 0 -160 -291zM330 1188l133 409h235l-174 -409h-194z" />
<glyph unicode="&#xea;" horiz-adv-x="827" d="M59 485v68q0 145 27 248t77.5 161.5t114.5 84.5t148 26q82 0 143 -20.5t108.5 -66.5t72 -127.5t24.5 -196.5q0 -104 -8 -205h-500q9 -162 59 -228.5t148 -66.5q95 0 232 39l51 -146q-51 -29 -139 -46t-168 -17q-71 0 -128 14.5t-105.5 50t-81.5 91t-53 140.5t-22 197z M115 1188l237 409h148l239 -409h-211l-102 205l-102 -205h-209zM266 618h309v48q0 131 -36 187t-113 56q-148 0 -160 -291z" />
<glyph unicode="&#xeb;" horiz-adv-x="827" d="M59 485v68q0 145 27 248t77.5 161.5t114.5 84.5t148 26q82 0 143 -20.5t108.5 -66.5t72 -127.5t24.5 -196.5q0 -104 -8 -205h-500q9 -162 59 -228.5t148 -66.5q95 0 232 39l51 -146q-51 -29 -139 -46t-168 -17q-71 0 -128 14.5t-105.5 50t-81.5 91t-53 140.5t-22 197z M106 1333q0 57 40.5 96t97.5 39t96 -39t39 -96t-39 -96t-96 -39t-97.5 39t-40.5 96zM266 618h309v48q0 131 -36 187t-113 56q-148 0 -160 -291zM487 1333q0 57 41 96t101 39q56 0 94.5 -39t38.5 -96t-38.5 -96t-94.5 -39q-60 0 -101 39t-41 96z" />
<glyph unicode="&#xec;" horiz-adv-x="452" d="M-47 1597h235l134 -409h-195zM121 0v1065h211v-1065h-211z" />
<glyph unicode="&#xed;" horiz-adv-x="452" d="M121 0v1065h211v-1065h-211zM129 1188l133 409h236l-174 -409h-195z" />
<glyph unicode="&#xee;" horiz-adv-x="452" d="M-86 1188l238 409h147l240 -409h-211l-103 205l-102 -205h-209zM121 0v1065h211v-1065h-211z" />
<glyph unicode="&#xef;" horiz-adv-x="452" d="M-100 1333q0 57 40 96t97 39q58 0 96.5 -39t38.5 -96t-38.5 -96t-96.5 -39q-57 0 -97 39t-40 96zM121 0v1065h211v-1065h-211zM283 1333q0 57 40 96t99 39q56 0 94.5 -39t38.5 -96t-38.5 -96t-94.5 -39q-59 0 -99 39t-40 96z" />
<glyph unicode="&#xf0;" horiz-adv-x="954" d="M70 418v45q0 82 19.5 155t59 134.5t107.5 98t156 36.5q84 0 116 -27l-94 191h-289v143h220l-111 229h233l113 -229h244v-143h-174q9 -18 50 -99.5t53 -107.5t41 -95.5t39.5 -111t21 -102t10.5 -117.5q0 -67 -10.5 -125t-38.5 -115t-72 -97t-117 -64.5t-168 -24.5 q-96 0 -169 24.5t-117.5 64.5t-73 97t-39 115t-10.5 125zM279 438q0 -141 48.5 -208.5t151.5 -67.5q101 0 149 67.5t48 208.5q0 143 -48 212t-149 69q-102 0 -151 -69t-49 -212z" />
<glyph unicode="&#xf1;" horiz-adv-x="878" d="M80 0v1065h186l17 -107q115 115 274 115q114 0 179 -63.5t65 -216.5v-793h-211v782q0 77 -25 100t-73 23q-63 0 -119 -23t-82 -48v-834h-211zM84 1235v13t4 32t11 45.5t23.5 48t40 45.5t62 32t86.5 13q42 0 79.5 -16t60 -35t50.5 -35t54 -16q33 0 48 23.5t14 46.5l-1 24 l181 -43v-13t-4.5 -31.5t-12 -44.5t-24.5 -47t-40 -44.5t-62 -31.5t-87 -13q-43 0 -80 16t-58.5 36t-49.5 36t-55 16q-32 0 -48 -23.5t-16 -46.5v-24z" />
<glyph unicode="&#xf2;" horiz-adv-x="892" d="M55 510v43q0 112 20.5 201.5t55.5 148.5t85 97.5t106.5 55.5t121.5 17q66 0 123 -17t108 -55.5t87 -97.5t57 -148.5t21 -201.5v-43q0 -112 -21 -200.5t-57 -147.5t-87 -97.5t-108 -55.5t-123 -17q-82 0 -150 28t-123 86.5t-85.5 161.5t-30.5 242zM236 1597h235l133 -409 h-194zM266 510q0 -350 178 -350q183 0 183 350v43q0 350 -183 350q-88 0 -133 -84t-45 -266v-43z" />
<glyph unicode="&#xf3;" horiz-adv-x="892" d="M55 510v43q0 112 20.5 201.5t55.5 148.5t85 97.5t106.5 55.5t121.5 17q66 0 123 -17t108 -55.5t87 -97.5t57 -148.5t21 -201.5v-43q0 -112 -21 -200.5t-57 -147.5t-87 -97.5t-108 -55.5t-123 -17q-82 0 -150 28t-123 86.5t-85.5 161.5t-30.5 242zM266 510 q0 -350 178 -350q183 0 183 350v43q0 350 -183 350q-88 0 -133 -84t-45 -266v-43zM352 1188l133 409h236l-174 -409h-195z" />
<glyph unicode="&#xf4;" horiz-adv-x="892" d="M55 510v43q0 112 20.5 201.5t55.5 148.5t85 97.5t106.5 55.5t121.5 17q66 0 123 -17t108 -55.5t87 -97.5t57 -148.5t21 -201.5v-43q0 -112 -21 -200.5t-57 -147.5t-87 -97.5t-108 -55.5t-123 -17q-82 0 -150 28t-123 86.5t-85.5 161.5t-30.5 242zM135 1188l240 409h147 l238 -409h-209l-102 205l-103 -205h-211zM266 510q0 -350 178 -350q183 0 183 350v43q0 350 -183 350q-88 0 -133 -84t-45 -266v-43z" />
<glyph unicode="&#xf5;" horiz-adv-x="892" d="M55 510v43q0 112 20.5 201.5t55.5 148.5t85 97.5t106.5 55.5t121.5 17q66 0 123 -17t108 -55.5t87 -97.5t57 -148.5t21 -201.5v-43q0 -112 -21 -200.5t-57 -147.5t-87 -97.5t-108 -55.5t-123 -17q-82 0 -150 28t-123 86.5t-85.5 161.5t-30.5 242zM90 1235v13t4 32 t11.5 45.5t24.5 48t40 45.5t61 32t86 13q43 0 81 -16t60.5 -35t51 -35t53.5 -16q32 0 47.5 23.5t15.5 46.5l-1 24l180 -43v-13t-4.5 -31.5t-12 -44.5t-24.5 -47t-40.5 -44.5t-62.5 -31.5t-88 -13q-43 0 -80 16t-58.5 36t-49 36t-53.5 16q-32 0 -48 -23.5t-16 -46.5v-24z M266 510q0 -350 178 -350q183 0 183 350v43q0 350 -183 350q-88 0 -133 -84t-45 -266v-43z" />
<glyph unicode="&#xf6;" horiz-adv-x="892" d="M55 510v43q0 112 20.5 201.5t55.5 148.5t85 97.5t106.5 55.5t121.5 17q66 0 123 -17t108 -55.5t87 -97.5t57 -148.5t21 -201.5v-43q0 -112 -21 -200.5t-57 -147.5t-87 -97.5t-108 -55.5t-123 -17q-82 0 -150 28t-123 86.5t-85.5 161.5t-30.5 242zM123 1333q0 57 40 96 t97 39q58 0 96.5 -39t38.5 -96t-38.5 -96t-96.5 -39q-57 0 -97 39t-40 96zM266 510q0 -350 178 -350q183 0 183 350v43q0 350 -183 350q-88 0 -133 -84t-45 -266v-43zM506 1333q0 57 40 96t99 39q56 0 94.5 -39t38.5 -96t-38.5 -96t-94.5 -39q-59 0 -99 39t-40 96z" />
<glyph unicode="&#xf7;" horiz-adv-x="915" d="M80 598v182h758v-182h-758zM322 389q0 57 40 97t97 40q56 0 97.5 -39.5t41.5 -97.5q0 -55 -41.5 -96t-97.5 -41q-57 0 -97 40.5t-40 96.5zM322 989q0 56 40 96.5t97 40.5q56 0 97.5 -40.5t41.5 -96.5t-41.5 -96.5t-97.5 -40.5q-57 0 -97 40t-40 97z" />
<glyph unicode="&#xf8;" horiz-adv-x="890" d="M55 510v43q0 112 20.5 201.5t55.5 148.5t85 97.5t106.5 55.5t121.5 17q66 0 123 -17t108 -55.5t87 -97.5t57 -148.5t21 -201.5v-43q0 -112 -21 -200.5t-57 -147.5t-87 -97.5t-108 -55.5t-123 -17q-82 0 -150 28t-123 86.5t-85.5 161.5t-30.5 242zM266 510q0 -165 39 -242 l160 635h-23q-88 0 -132 -84t-44 -266v-43zM426 162q6 -2 23 -2q178 0 178 350v43q0 167 -39 246z" />
<glyph unicode="&#xf9;" horiz-adv-x="878" d="M80 272v793h211v-782q0 -77 24 -100t72 -23q63 0 118.5 23t84.5 48v834h211v-1065h-187l-16 106q-114 -114 -274 -114q-116 0 -180 63.5t-64 216.5zM236 1597h235l133 -409h-194z" />
<glyph unicode="&#xfa;" horiz-adv-x="878" d="M80 272v793h211v-782q0 -77 24 -100t72 -23q63 0 118.5 23t84.5 48v834h211v-1065h-187l-16 106q-114 -114 -274 -114q-116 0 -180 63.5t-64 216.5zM324 1188l133 409h235l-174 -409h-194z" />
<glyph unicode="&#xfb;" horiz-adv-x="878" d="M80 272v793h211v-782q0 -77 24 -100t72 -23q63 0 118.5 23t84.5 48v834h211v-1065h-187l-16 106q-114 -114 -274 -114q-116 0 -180 63.5t-64 216.5zM127 1188l240 409h147l238 -409h-209l-103 205l-102 -205h-211z" />
<glyph unicode="&#xfc;" horiz-adv-x="878" d="M80 272v793h211v-782q0 -77 24 -100t72 -23q63 0 118.5 23t84.5 48v834h211v-1065h-187l-16 106q-114 -114 -274 -114q-116 0 -180 63.5t-64 216.5zM115 1333q0 57 40 96t99 39q57 0 96 -39t39 -96t-39 -96t-96 -39q-59 0 -99 39t-40 96zM498 1333q0 57 40 96t99 39 q57 0 95 -39t38 -96t-38 -96t-95 -39q-59 0 -99 39t-40 96z" />
<glyph unicode="&#xfd;" horiz-adv-x="878" d="M18 1065h220l202 -727l201 727h221l-448 -1464h-215l135 442zM330 1188l133 409h235l-174 -409h-194z" />
<glyph unicode="&#xfe;" horiz-adv-x="911" d="M80 -410v1844h211v-465q66 104 219 104q88 0 155 -41.5t107 -117t60 -174t20 -218.5q0 -257 -94 -393.5t-248 -136.5q-156 0 -219 104v-506h-211zM291 231q61 -65 158 -65q92 0 140 96t48 260q0 377 -188 377q-100 0 -158 -65v-603z" />
<glyph unicode="&#xff;" horiz-adv-x="878" d="M18 1065h220l202 -727l201 727h221l-448 -1464h-215l135 442zM127 1333q0 57 40 96t99 39q57 0 95 -39t38 -96t-38 -96t-95 -39q-59 0 -99 39t-40 96zM510 1333q0 57 40 96t99 39q57 0 95 -39t38 -96t-38 -96t-95 -39q-59 0 -99 39t-40 96z" />
<glyph unicode="&#x110;" horiz-adv-x="1038" d="M16 645v180h144v609h241q107 0 191 -16t145 -44.5t104.5 -76t70.5 -102t42.5 -132t21 -155.5t5.5 -183q0 -106 -5.5 -186t-21 -159t-42.5 -134.5t-71 -104.5t-105 -78.5t-146 -46t-193 -16.5h-237v645h-144zM379 184h24q83 0 143 14.5t98 51t60.5 74.5t32.5 109.5 t12.5 128.5t2.5 159q0 88 -1.5 135.5t-8 113.5t-19.5 100t-38 74.5t-62 59.5t-91 32t-126 13h-27v-424h194v-180h-194v-461z" />
<glyph unicode="&#x111;" horiz-adv-x="968" d="M59 518q0 154 28.5 264.5t82.5 172.5t121.5 90t154.5 28q98 0 175 -45v135h-355v144h355v143h210v-143h121v-144h-121v-1163h-186l-16 111q-26 -54 -85 -86.5t-145 -32.5q-164 0 -252 132t-88 394zM274 520q0 -82 9.5 -144.5t31 -111t59 -73.5t89.5 -25q97 0 158 65v648 q-55 20 -123 20q-53 0 -92 -17.5t-70 -59.5t-46.5 -117.5t-15.5 -184.5z" />
<glyph unicode="&#x131;" horiz-adv-x="452" d="M121 0v1065h211v-1065h-211z" />
<glyph unicode="&#x141;" horiz-adv-x="847" d="M18 653v172h150v609h219v-609h264v-172h-264v-469h424v-184h-643v653h-150z" />
<glyph unicode="&#x142;" horiz-adv-x="743" d="M18 653v172h244v609h219v-609h244v-172h-244v-653h-219v653h-244z" />
<glyph unicode="&#x152;" horiz-adv-x="1423" d="M76 692v47q0 72 3 131t10.5 126t22 119.5t36.5 105.5t55.5 91.5t77 68.5t103.5 45.5t132 15.5q57 0 96 -8h754v-185h-498q81 -143 88 -418h324v-184h-322q-7 -320 -88 -463h496v-184h-752q-41 -8 -98 -8q-83 0 -149 21t-111.5 56t-78.5 89t-52 110.5t-30.5 132t-15 142 t-3.5 149.5zM307 715q0 -49 0.5 -81.5t2.5 -80.5t6 -81t11.5 -74t18 -69t26.5 -56.5t36 -45.5t47.5 -28t60.5 -11t60.5 11t47.5 28t36 45.5t26.5 56.5t18 69t11.5 74t6 81t2.5 80.5t0.5 81.5q0 64 -1 105.5t-5 102.5t-12 101t-23.5 85t-37 71.5t-55 44.5t-75.5 18t-75.5 -18 t-55 -44.5t-37 -71.5t-23.5 -85t-12 -101t-5 -102.5t-1 -105.5z" />
<glyph unicode="&#x153;" horiz-adv-x="1396" d="M55 510v43q0 112 20.5 201.5t55.5 148.5t85 97.5t106.5 55.5t121.5 17q89 0 167.5 -42.5t113.5 -123.5q32 83 107 124.5t165 41.5q81 0 142 -20.5t108 -66.5t71.5 -127.5t24.5 -196.5q0 -129 -8 -205h-497q7 -161 57 -228t147 -67q96 0 232 39l53 -146q-53 -29 -140 -46 t-167 -17q-98 0 -178.5 43.5t-114.5 124.5q-37 -80 -116 -124t-167 -44q-82 0 -150 28t-123 86.5t-85.5 161.5t-30.5 242zM266 510q0 -350 178 -350q183 0 183 350v43q0 350 -183 350q-88 0 -133 -84t-45 -266v-43zM838 618h309v48q0 130 -36.5 186.5t-113.5 56.5 q-150 0 -159 -291z" />
<glyph unicode="&#x160;" horiz-adv-x="888" d="M49 74l55 159q128 -45 271 -45q246 0 246 193q0 45 -14 83.5t-33.5 64t-54.5 51.5t-61 40.5t-69 36.5q-9 5 -14 7q-73 37 -124.5 71t-100 81t-73 105t-24.5 128q0 212 105 302.5t321 90.5q83 0 180 -20.5t166 -59.5l-55 -160q-137 45 -268 45q-36 0 -64.5 -3t-60.5 -13.5 t-53.5 -27.5t-35.5 -48.5t-14 -73.5q0 -34 7.5 -62.5t25 -52.5t33.5 -41.5t46 -37t49.5 -30.5t56.5 -30.5t55 -29.5q56 -31 93.5 -55.5t79 -61.5t66 -75.5t40.5 -92t16 -117.5q0 -211 -113.5 -307t-331.5 -96q-86 0 -183 20.5t-165 61.5zM133 1966h211l102 -205l103 205h209 l-238 -410h-147z" />
<glyph unicode="&#x161;" horiz-adv-x="761" d="M49 70l57 135q41 -17 109 -28t117 -11q73 0 120.5 27.5t47.5 91.5q0 57 -41 99.5t-109 80.5q-17 10 -55 29.5t-59 31.5t-53.5 33t-51.5 41.5t-38.5 47.5t-28.5 60t-9 72q0 82 24 140.5t68.5 91t101 47t128.5 14.5q89 0 183.5 -19.5t146.5 -56.5l-56 -141 q-47 19 -114.5 31t-120.5 12q-148 0 -148 -98q0 -26 11 -49t26 -39.5t42.5 -36t48 -30.5t56 -29.5t52.5 -28.5q42 -22 73 -44.5t65.5 -58t53.5 -85t19 -109.5q0 -82 -27 -141.5t-75.5 -93t-108.5 -49t-135 -15.5q-87 0 -178.5 19.5t-141.5 58.5zM74 1597h211l102 -204 l102 204h209l-237 -409h-148z" />
<glyph unicode="&#x178;" horiz-adv-x="935" d="M18 1434h238l213 -613l211 613h240l-342 -885v-549h-222v549zM139 1702q0 57 40 96t97 39q58 0 97 -39t39 -96t-39 -96t-97 -39q-57 0 -97 39t-40 96zM522 1702q0 57 40.5 96t99.5 39q56 0 94.5 -39t38.5 -96t-38.5 -96t-94.5 -39q-59 0 -99.5 39t-40.5 96z" />
<glyph unicode="&#x17d;" horiz-adv-x="886" d="M59 0v115l490 1134h-490v185h770v-115l-489 -1135h489v-184h-770zM131 1966h211l102 -205l103 205h209l-238 -410h-147z" />
<glyph unicode="&#x17e;" horiz-adv-x="817" d="M59 0v98l439 799h-439v168h701v-98l-438 -799h438v-168h-701zM96 1597h211l103 -204l102 204h209l-238 -409h-147z" />
<glyph unicode="&#x192;" horiz-adv-x="751" d="M16 37l37 143q46 -22 105 -22q69 0 90.5 46.5t21.5 145.5v551h-161v164h161v29q2 182 68 271t211 89q131 0 188 -45l-37 -143q-49 22 -104 22q-37 0 -60.5 -13t-35 -41t-15.5 -59t-4 -79v-31h203v-164h-203v-549q-2 -182 -67 -271t-209 -89q-58 0 -111 12t-78 33z" />
<glyph unicode="&#x2c6;" horiz-adv-x="741" d="M59 1188l238 409h147l240 -409h-211l-102 205l-103 -205h-209z" />
<glyph unicode="&#x2c7;" horiz-adv-x="741" d="M59 1597h209l103 -204l102 204h211l-240 -409h-147z" />
<glyph unicode="&#x2d8;" horiz-adv-x="692" d="M59 1448h185q0 -121 98 -121q104 0 104 121h187q0 -124 -78.5 -204.5t-212.5 -80.5q-131 0 -207 80.5t-76 204.5z" />
<glyph unicode="&#x2d9;" horiz-adv-x="389" d="M59 1315q0 57 40.5 96t97.5 39t96 -39t39 -96q0 -58 -39 -96.5t-96 -38.5q-58 0 -98 38.5t-40 96.5z" />
<glyph unicode="&#x2da;" horiz-adv-x="583" d="M59 1401q0 97 67.5 159t164.5 62q96 0 165.5 -62.5t69.5 -158.5q0 -93 -69.5 -155t-165.5 -62q-97 0 -164.5 61.5t-67.5 155.5zM213 1401q0 -33 21.5 -54.5t56.5 -21.5q34 0 58 22t24 54q0 36 -23.5 57t-58.5 21q-36 0 -57 -21t-21 -57z" />
<glyph unicode="&#x2db;" horiz-adv-x="573" />
<glyph unicode="&#x2dc;" horiz-adv-x="833" d="M59 1235q0 5 0.5 13t4.5 32t11.5 45.5t24.5 48t40 45.5t61 32t86 13q43 0 81 -16t60 -35t50.5 -35t53.5 -16q32 0 47.5 23.5t14.5 46.5v24l180 -43v-13t-4 -31.5t-11.5 -44.5t-24.5 -47t-40.5 -44.5t-62.5 -31.5t-88 -13q-35 0 -65.5 10.5t-52 26t-41 31t-40.5 26 t-43 10.5q-32 0 -47.5 -23.5t-15.5 -46.5v-24z" />
<glyph unicode="&#x2dd;" horiz-adv-x="815" d="M39 942l174 492h229l-215 -492h-188zM373 942l174 492h231l-215 -492h-190z" />
<glyph unicode="&#x3bc;" horiz-adv-x="878" d="M80 -410v1475h211v-782q0 -76 26.5 -99.5t75.5 -23.5q62 0 114.5 22.5t82.5 48.5v834h211v-1065h-187l-16 106q-48 -55 -94.5 -84.5t-108.5 -29.5q-33 0 -64 9.5t-40 23.5v-435h-211z" />
<glyph unicode="&#xe01;" horiz-adv-x="987" d="M70 729v86q0 167 111 274t294 107q146 0 239 -47t143 -157t50 -290v-702h-219v713q0 171 -50.5 238t-162.5 67q-91 0 -143.5 -51t-55.5 -152l226 -49v-92q-168 -57 -168 -260v-414h-219v393q0 111 47.5 186t146.5 99z" />
<glyph unicode="&#xe02;" horiz-adv-x="933" d="M45 1151q100 41 209 41q96 0 155.5 -43.5t59.5 -142.5q0 -60 -25.5 -125t-55.5 -114t-55.5 -117t-25.5 -132v-117q0 -139 33 -186t125 -47q94 0 132 48t38 185v787h221v-787q0 -122 -26.5 -203.5t-80 -126t-121 -62t-163.5 -17.5q-78 0 -137 13.5t-99.5 34t-67.5 60.5 t-42 75.5t-22.5 98.5t-9 110t-1.5 128q0 68 18.5 129t44.5 104.5t52 81t44.5 74.5t18.5 70q0 63 -90 63q-32 0 -80 -10z" />
<glyph unicode="&#xe03;" horiz-adv-x="970" d="M38.5 1104q0.5 44 12.5 84h176q-5 -17 -8 -35.5t-3.5 -41.5t8.5 -37.5t28 -14.5q36 0 66 35.5t30 93.5h172v-109q0 -63 -18 -125t-44 -112.5t-52 -100.5t-44 -108t-18 -115v-117q0 -138 33.5 -185.5t124.5 -47.5q94 0 132 48t38 185v787h219v-787q0 -122 -26 -203.5 t-79.5 -126t-120.5 -62t-163 -17.5q-78 0 -137 13.5t-99.5 34t-67.5 60.5t-42 75.5t-22.5 98.5t-9 110t-1.5 128q0 78 26.5 152.5t59 122.5t65.5 102.5t41 91.5q-44 -63 -125 -63q-57 0 -93 28t-47.5 71t-11 87z" />
<glyph unicode="&#xe04;" horiz-adv-x="1009" d="M80 0v692q0 143 28.5 242.5t86 156t133 81t178.5 24.5t178 -24.5t132 -81t85.5 -156t28.5 -242.5v-692h-219v692q0 130 -22 201.5t-64.5 98t-118.5 26.5t-119 -26.5t-65.5 -98t-22.5 -201.5v-198q28 65 80 100t121 35h80v-178h-80q-78 0 -139.5 -50.5t-61.5 -113.5v-287 h-219z" />
<glyph unicode="&#xe05;" horiz-adv-x="1011" d="M80 0v848q0 66 4.5 114t18.5 94.5t38 75.5t65 46.5t97 17.5q161 0 203 -129q39 129 203 129q56 0 97 -17.5t65 -46.5t38 -75.5t18.5 -94.5t4.5 -114v-848h-219v862q0 27 -2 47t-8.5 44.5t-22 37.5t-39.5 13t-39.5 -12.5t-21.5 -37t-7.5 -44t-1.5 -50.5h-133 q0 23 -0.5 33.5t-2 31t-5.5 31.5t-11 24t-19.5 18.5t-28.5 5.5q-24 0 -39.5 -13t-22 -37.5t-8.5 -44.5t-2 -47v-368q28 65 80 100t121 35h80v-178h-80q-78 0 -139.5 -50.5t-61.5 -113.5v-287h-219z" />
<glyph unicode="&#xe06;" horiz-adv-x="989" d="M38.5 1104q0.5 44 12.5 84h180q-29 -129 27 -129q34 0 63.5 35.5t30.5 93.5h172v-109q0 -63 -18.5 -125t-45 -112.5t-53 -100.5t-45 -108t-18.5 -115v-217q79 -125 219 -125q59 0 93 31t34 92v889h221v-899q0 -148 -72 -222.5t-196 -74.5q-94 0 -175 41t-136 119 l-21 -152h-188v512q0 78 27 152.5t60.5 122.5t67 102.5t41.5 91.5q-44 -63 -129 -63q-57 0 -93 28t-47.5 71t-11 87z" />
<glyph unicode="&#xe07;" horiz-adv-x="944" d="M20 1188h224l270 -1008q156 319 156 623q0 112 -32 164.5t-103 52.5q-20 0 -45.5 -3.5t-40.5 -6.5l-15 -4l-41 153q76 37 189 37q150 0 226.5 -91.5t76.5 -291.5q0 -208 -68.5 -406t-181.5 -407h-273z" />
<glyph unicode="&#xe08;" horiz-adv-x="886" d="M49 1124q58 33 162 52.5t201 19.5q104 0 181 -21.5t133.5 -69.5t85 -129t28.5 -196q0 -354 -240 -780h-262l-145 492q-7 20 -27 20h-105v174h183q43 0 76 -23.5t45 -62.5l118 -414q66 136 103 288t37 284q0 81 -16 134.5t-49 80.5t-70.5 37t-92.5 10q-141 0 -284 -47z " />
<glyph unicode="&#xe09;" horiz-adv-x="948" d="M82 289v387h219v-377q0 -61 34.5 -92t94.5 -31q140 0 219 125v436q0 72 -11 123t-29 82t-49 48.5t-64 23.5t-80 6q-66 0 -143 -13.5t-130 -33.5l-61 151q58 32 161 52t195 20q80 0 143 -13t118.5 -44.5t91.5 -83t56.5 -132t20.5 -186.5v-737h-186l-20 152 q-54 -78 -137 -119t-177 -41q-122 0 -194 74.5t-72 222.5z" />
<glyph unicode="&#xe0a;" horiz-adv-x="933" d="M45 1151q100 41 209 41q96 0 155.5 -43.5t59.5 -142.5q0 -60 -25.5 -125t-55.5 -114t-55.5 -117t-25.5 -132v-117q0 -139 33 -186t125 -47q94 0 132 48t38 185v134q0 47 -8 85t-18 60.5t-29.5 43t-32 29.5t-35.5 23v125q20 11 35 20t33.5 22.5t31.5 27.5t27 32.5t22 40.5 t13.5 48t5.5 58.5t-6 68.5h209q27 -127 -21.5 -227.5t-171.5 -153.5q83 -47 124.5 -116.5t41.5 -193.5v-127q0 -122 -26.5 -203.5t-80 -126t-121 -62t-163.5 -17.5q-95 0 -160.5 17.5t-117 62t-76.5 126t-25 203.5v111q0 68 18.5 129t44.5 104.5t52 81t44.5 74.5t18.5 70 q0 63 -90 63q-32 0 -80 -10z" />
<glyph unicode="&#xe0b;" horiz-adv-x="970" d="M38.5 1104q0.5 44 12.5 84h176q-5 -17 -8 -35.5t-3.5 -41.5t8.5 -37.5t28 -14.5q35 0 65 35.5t31 93.5h172v-109q0 -63 -18 -125t-44 -112.5t-52 -100.5t-44 -108t-18 -115v-117q0 -138 33.5 -185.5t124.5 -47.5q94 0 132 48t38 185v134q0 58 -10 100.5t-31.5 69.5 t-38 40.5t-45.5 30.5v125q20 10 35.5 19.5t34 22.5t32 27.5t27 33t21.5 40.5t13.5 48t5 58.5t-6.5 68.5h209q28 -126 -20 -227t-171 -154q82 -47 123 -116.5t41 -193.5v-127q0 -122 -26 -203.5t-79.5 -126t-120.5 -62t-163 -17.5q-78 0 -137 13.5t-99.5 34t-67.5 60.5 t-42 75.5t-22.5 98.5t-9 110t-1.5 128q0 78 26.5 152.5t59 122.5t65.5 102.5t41 91.5q-44 -63 -125 -63q-57 0 -93 28t-47.5 71t-11 87z" />
<glyph unicode="&#xe0c;" horiz-adv-x="1472" d="M70 729v86q0 168 104 274.5t285 106.5q219 0 319.5 -113t100.5 -381v-401q38 -60 80.5 -92.5t107.5 -32.5q54 0 79 29t25 94v889h222v-899q0 -150 -63.5 -223.5t-182.5 -73.5q-169 0 -281 160l-20 -152h-189v713q0 175 -44 240t-154 65q-180 0 -183 -203l226 -49v-92 q-189 -64 -189 -260v-52q0 -53 5.5 -84.5t24 -60t57.5 -38.5t102 -3v-174q-205 -24 -306.5 60.5t-101.5 254.5v70q0 109 56 186.5t159 104.5z" />
<glyph unicode="&#xe0d;" horiz-adv-x="1474" d="M70 729v86q0 168 104 274.5t285 106.5q219 0 319.5 -113t100.5 -381v-239v-21v-60.5t2 -51.5t6 -47.5t11 -38t18 -33t27 -22t38.5 -15.5t50.5 -4q24 0 43.5 4t33.5 9t25 17t18 21.5t11.5 29t7 32.5t3.5 40t1 43t-0.5 49t-0.5 52v721h221v-729q0 -73 -3.5 -126t-13 -104.5 t-26.5 -86.5t-44 -65.5t-65.5 -48t-90.5 -27t-120 -9.5q-95 0 -161 19t-108 53.5t-65.5 94t-32 129.5t-8.5 171v254q0 175 -44 240t-154 65q-180 0 -183 -203l226 -49v-92q-189 -64 -189 -260v-52q0 -53 5.5 -84.5t24 -60t57.5 -38.5t102 -3v-174q-205 -24 -306.5 60.5 t-101.5 254.5v70q0 109 56 186.5t159 104.5zM662 -74h202q-14 -75 22.5 -110t135.5 -35h367v-160h-412q-99 0 -167 23t-102 65.5t-45 96t-1 120.5z" />
<glyph unicode="&#xe0e;" horiz-adv-x="1007" d="M29 2v174q48 -6 76.5 0t42.5 28.5t18 50.5t4 79v63q0 47 3 81t13 68.5t27.5 58.5t46.5 43t70 30l-240 51v86q0 167 111.5 274t294.5 107q146 0 239 -47t143 -157t50 -290v-1112h-234q-64 87 -124.5 124.5t-131.5 37.5q-136 0 -112 -162h-220q-26 142 53 236t228 94 q217 0 322 -172v965q0 171 -50.5 238t-162.5 67q-91 0 -143.5 -51t-55.5 -152l225 -49v-92q-44 -15 -71.5 -38t-40.5 -58.5t-17 -71t-4 -92.5v-113q0 -181 -78 -252t-282 -47z" />
<glyph unicode="&#xe0f;" horiz-adv-x="1007" d="M29 2v174q48 -6 76.5 0t42.5 28.5t18 50.5t4 79v63q0 47 3 81t13 68.5t27.5 58.5t46.5 43t70 30l-240 51v86q0 167 111.5 274t294.5 107q146 0 239 -47t143 -157t50 -290v-829q0 -143 -70.5 -217t-189.5 -74q-100 0 -172.5 51t-85.5 138q-39 -103 -117 -148t-209 -33v185 q90 -14 155 25t97 118h162q16 -77 45.5 -116.5t79.5 -39.5q86 0 86 119v832q0 171 -50.5 238t-162.5 67q-92 0 -144 -51.5t-55 -151.5l225 -49v-92q-44 -15 -71.5 -38t-40.5 -58.5t-17 -71t-4 -92.5v-113q0 -181 -78 -252t-282 -47z" />
<glyph unicode="&#xe10;" horiz-adv-x="925" d="M47 1112q120 55 367 92l540 80v-162l-268 -39q168 -71 168 -305q0 -327 -254 -778h-258l-143 492q-7 20 -27 20h-111v174h183q43 0 76 -23.5t45 -62.5l118 -414q156 323 156 570q0 80 -18 134t-53 81.5t-74.5 38t-94.5 10.5q-114 0 -288 -59zM49 -248q87 -13 149.5 23.5 t92.5 111.5h155q14 -75 41 -111t78 -36q90 0 90 110v41h189v-49q0 -136 -70 -205t-186 -69q-93 0 -153.5 45.5t-72.5 128.5q-39 -98 -113 -138t-200 -28v176z" />
<glyph unicode="&#xe11;" horiz-adv-x="1105" d="M30.5 1104q0.5 44 12.5 84h176q-5 -17 -8 -35.5t-3.5 -41.5t8.5 -37.5t28 -14.5q35 0 65 35.5t31 93.5h168v-101q122 109 252 109q122 0 194 -74t72 -217v-905h-219v895q0 60 -32.5 88.5t-86.5 28.5q-94 0 -161.5 -71.5t-67.5 -201.5v-739h-221v600q0 232 102 381 q-58 -63 -158 -63q-57 0 -93 28t-47.5 71t-11 87z" />
<glyph unicode="&#xe12;" horiz-adv-x="1523" d="M71.5 707.5q1.5 50.5 3 100.5t9 98.5t17.5 91.5t29.5 79.5t45 62.5t63 41t83.5 15q72 0 120.5 -33.5t67.5 -95.5q42 129 199 129q56 0 97 -17.5t64.5 -46.5t37 -75.5t18 -94.5t4.5 -114v-547q38 -60 80.5 -92.5t107.5 -32.5q55 0 80 29t25 94v889h221v-899 q0 -150 -63.5 -223.5t-182.5 -73.5q-168 0 -280 160l-21 -152h-188v862q0 78 -9 103q-14 39 -55 39q-23 0 -38 -12.5t-20.5 -37.5t-7 -43.5t-1.5 -50.5h-134q0 56 -17.5 100t-53.5 44q-30 0 -47.5 -29t-24.5 -99.5t-8.5 -125t-1.5 -168.5v-31q0 -86 5 -146t17 -105t32 -69 t49 -39.5t68.5 -16t90.5 2.5v-176q-61 -6 -117 -6q-75 0 -130 15t-101 52t-74 100t-43.5 159t-15.5 229v58q-2 48 -0.5 98.5z" />
<glyph unicode="&#xe13;" horiz-adv-x="1472" d="M70 729v86q0 168 104 274.5t285 106.5q219 0 319.5 -113t100.5 -381v-403q0 -65 25 -94t79 -29q65 0 107.5 32.5t80.5 92.5v887h222v-1188h-189l-20 152q-112 -160 -281 -160q-246 0 -246 297v424q0 175 -44 240t-154 65q-177 0 -183 -203l226 -49v-92 q-189 -64 -189 -260v-52q0 -53 5.5 -84.5t24 -60t57.5 -38.5t102 -3v-174q-205 -24 -306.5 60.5t-101.5 254.5v70q0 109 56 186.5t159 104.5z" />
<glyph unicode="&#xe14;" horiz-adv-x="997" d="M70 596q0 75 3.5 134t15 123.5t30.5 113t51 93.5t76.5 73.5t107.5 45.5t142 17q103 0 178 -24.5t132 -81t85.5 -156t28.5 -242.5v-692h-222v692q0 131 -21 201.5t-63 97.5t-118 27q-38 0 -69 -10t-52 -28t-37 -42.5t-24.5 -53t-14.5 -61t-7.5 -65.5t-2.5 -66.5t0 -64.5 v-31q0 -84 3.5 -144.5t12 -109t22 -77.5t33.5 -50.5t47 -28.5t62.5 -10.5t79.5 2.5v-176q-55 -6 -105 -6q-76 0 -133 16.5t-104 57.5t-76 109t-45 171.5t-16 245.5z" />
<glyph unicode="&#xe15;" horiz-adv-x="1007" d="M71.5 707.5q1.5 50.5 3 100.5t9 98.5t17.5 91.5t29.5 79.5t45 62.5t63 41t83.5 15q72 0 120.5 -33.5t67.5 -95.5q42 129 199 129q56 0 97 -17.5t64.5 -46.5t37 -75.5t18 -94.5t4.5 -114v-848h-221v862q0 78 -9 103q-14 39 -55 39q-23 0 -38 -12.5t-20.5 -37.5t-7 -43.5 t-1.5 -50.5h-134q0 56 -17.5 100t-53.5 44q-30 0 -47.5 -29t-24.5 -99.5t-8.5 -125t-1.5 -168.5v-31q0 -86 5 -146t17 -105t32 -69t49 -39.5t68.5 -16t90.5 2.5v-176q-61 -6 -117 -6q-75 0 -130 15t-101 52t-74 100t-43.5 159t-15.5 229v58q-2 48 -0.5 98.5z" />
<glyph unicode="&#xe16;" horiz-adv-x="987" d="M70 729v86q0 167 111 274t294 107q146 0 239 -47t143 -157t50 -290v-702h-219v713q0 171 -50.5 238t-162.5 67q-91 0 -143.5 -51t-55.5 -152l226 -49v-92q-189 -64 -189 -260v-52q0 -53 5.5 -84.5t24 -60t57.5 -38.5t102 -3v-174q-205 -24 -306.5 60.5t-101.5 254.5v70 q0 109 56 186.5t159 104.5z" />
<glyph unicode="&#xe17;" horiz-adv-x="946" d="M80 0v1188h186l21 -152q54 78 136.5 119t176.5 41q122 0 194 -74.5t72 -222.5v-899h-219v889q0 61 -34.5 92t-94.5 31q-142 0 -219 -125v-887h-219z" />
<glyph unicode="&#xe18;" horiz-adv-x="940" d="M80 418v133h219v-113q0 -44 1 -71.5t5 -59t11 -50t20 -37.5t31.5 -28.5t45.5 -15.5t62 -6q41 0 70.5 6.5t48.5 23t30 35t16.5 53t7 64.5t1.5 82v19q0 151 -160 186l-409 86v51q0 101 20.5 175.5t56.5 121t91.5 74.5t117.5 38.5t144 10.5q92 0 195 -20t161 -52l-61 -151 q-143 47 -273 47q-46 0 -73 -2t-59 -11.5t-49.5 -27t-30.5 -50.5t-17 -81l244 -51q100 -21 165 -54t99 -81.5t46.5 -101t12.5 -126.5v-20q0 -109 -17.5 -183.5t-61.5 -130t-121.5 -82t-194.5 -26.5t-195 27t-121.5 83.5t-61 131.5t-17.5 184z" />
<glyph unicode="&#xe19;" horiz-adv-x="946" d="M80 289v899h219v-889q0 -61 34.5 -92t94.5 -31q140 0 219 125v887h219v-1188h-186l-21 152q-54 -78 -136.5 -119t-176.5 -41q-122 0 -194 74.5t-72 222.5z" />
<glyph unicode="&#xe1a;" horiz-adv-x="962" d="M80 459v729h219v-709q0 -64 3 -105.5t13.5 -84.5t30 -67t53 -39t82.5 -15t83 15t53.5 39.5t30 67t13.5 84t3 105.5v709h219v-729q0 -124 -18.5 -207.5t-64 -144t-124 -88t-195.5 -27.5q-118 0 -196 27.5t-123.5 88t-63.5 144t-18 207.5z" />
<glyph unicode="&#xe1b;" horiz-adv-x="983" d="M80 459v729h219v-709q0 -61 4 -105t16 -85t33 -66t56 -40t84 -15t84 15t55.5 40t32.5 66t16 85t4 105v1057h219v-1077q0 -123 -20 -207.5t-67.5 -144.5t-126.5 -87.5t-197 -27.5t-198 27.5t-127 87.5t-67 144.5t-20 207.5z" />
<glyph unicode="&#xe1c;" horiz-adv-x="997" d="M80 0v866q0 367 403 320v-174q-61 7 -98.5 -2t-56 -36.5t-24 -60.5t-5.5 -88v-506l152 398h96l151 -398v869h220v-1188h-220l-198 506l-201 -506h-219z" />
<glyph unicode="&#xe1d;" horiz-adv-x="997" d="M80 0v866q0 367 403 320v-174q-61 7 -98.5 -2t-56 -36.5t-24 -60.5t-5.5 -88v-506l152 398h96l151 -398v1217h220v-1536h-220l-198 506l-201 -506h-219z" />
<glyph unicode="&#xe1e;" horiz-adv-x="1159" d="M39 1188h215l86 -823l166 684h147l166 -684l86 823h215l-151 -1188h-203l-186 721l-187 -721h-203z" />
<glyph unicode="&#xe1f;" horiz-adv-x="1157" d="M39 1188h215l86 -823l166 684h147l166 -684l129 1171h215l-194 -1536h-203l-186 721l-187 -721h-203z" />
<glyph unicode="&#xe20;" horiz-adv-x="1007" d="M29 2v174q48 -6 76.5 0t42.5 28.5t18 50.5t4 79v63q0 47 3 81t13 68.5t27.5 58.5t46.5 43t70 30l-240 51v86q0 167 111.5 274t294.5 107q146 0 239 -47t143 -157t50 -290v-702h-219v713q0 171 -50.5 238t-162.5 67q-91 0 -143.5 -51t-55.5 -152l225 -49v-92 q-44 -15 -71.5 -38t-40.5 -58.5t-17 -71t-4 -92.5v-113q0 -181 -78 -252t-282 -47z" />
<glyph unicode="&#xe21;" horiz-adv-x="946" d="M80 0v1188h219v-887q79 -125 219 -125q60 0 94.5 31t34.5 92v889h219v-899q0 -148 -72 -222.5t-194 -74.5q-94 0 -176.5 41t-136.5 119l-21 -152h-186z" />
<glyph unicode="&#xe22;" horiz-adv-x="950" d="M70 322v55q0 100 48 173.5t148 96.5q-97 23 -146.5 100t-49.5 171q0 135 85 205.5t242 70.5q33 0 107 -8v-176q-105 17 -160 -17t-55 -88q0 -83 56 -129.5t159 -46.5v-154q-107 0 -161 -45.5t-54 -144.5v-49q0 -73 41 -120.5t141 -47.5q106 0 143 52.5t37 176.5v791h221 v-811q0 -197 -92.5 -291t-308.5 -94q-104 0 -183 27.5t-125.5 75t-69.5 105t-23 122.5z" />
<glyph unicode="&#xe23;" horiz-adv-x="800" d="M39 72l61 139q39 -16 109 -28.5t133 -12.5q197 0 197 141q0 26 -5.5 47t-24.5 51.5t-64 64t-115 67.5q-146 71 -214.5 153.5t-68.5 182.5q0 168 91 243.5t290 75.5q98 0 189 -23.5t135 -54.5l-62 -141q-42 17 -111.5 30t-132.5 13q-178 0 -178 -119q0 -25 5 -43.5 t23.5 -48t65.5 -64t121 -73.5q135 -69 205 -150.5t70 -202.5q0 -168 -98.5 -247.5t-299.5 -79.5q-98 0 -188.5 24t-132.5 56z" />
<glyph unicode="&#xe24;" horiz-adv-x="987" d="M70 729v86q0 167 111 274t294 107q146 0 239 -47t143 -157t50 -290v-1112h-219v1123q0 171 -50.5 238t-162.5 67q-91 0 -143.5 -51t-55.5 -152l226 -49v-92q-189 -64 -189 -260v-52q0 -53 5.5 -84.5t24 -60t57.5 -38.5t102 -3v-174q-205 -24 -306.5 60.5t-101.5 254.5v70 q0 109 56 186.5t159 104.5z" />
<glyph unicode="&#xe25;" horiz-adv-x="937" d="M49 328q0 161 90.5 246t306.5 126l193 37v31q0 147 -48 198.5t-159 51.5q-122 0 -280 -45l-64 149q60 33 166.5 53.5t202.5 20.5q97 0 169 -22t125.5 -71.5t81 -134t27.5 -204.5v-764h-221v559l-137 -24q-135 -27 -182.5 -67.5t-47.5 -133.5q0 -83 36.5 -127.5 t125.5 -44.5q34 0 74 6v-160q-66 -16 -133 -16q-163 0 -244.5 86t-81.5 250z" />
<glyph unicode="&#xe26;" horiz-adv-x="1007" d="M29 2v174q48 -6 76.5 0t42.5 28.5t18 50.5t4 79v63q0 47 3 81t13 68.5t27.5 58.5t46.5 43t70 30l-240 51v86q0 167 111.5 274t294.5 107q146 0 239 -47t143 -157t50 -290v-1112h-219v1123q0 171 -50.5 238t-162.5 67q-91 0 -143.5 -51t-55.5 -152l225 -49v-92 q-44 -15 -71.5 -38t-40.5 -58.5t-17 -71t-4 -92.5v-113q0 -181 -78 -252t-282 -47z" />
<glyph unicode="&#xe27;" horiz-adv-x="817" d="M39 68l59 139q91 -35 201 -35q123 0 185.5 87t62.5 294v82q0 207 -62.5 295t-185.5 88q-105 0 -201 -39l-59 141q41 32 121 54t164 22q208 0 327 -135t119 -426v-82q0 -291 -119 -426t-327 -135q-84 0 -164 22t-121 54z" />
<glyph unicode="&#xe28;" horiz-adv-x="1019" d="M80 0v692q0 115 16.5 198t46 138t80 90.5t108 53.5t140.5 30l553 82v-162l-276 -43q93 -41 137.5 -131t44.5 -256v-692h-219v692q0 130 -22 201.5t-64.5 98t-118.5 26.5t-119 -26.5t-65.5 -98t-22.5 -201.5v-198q28 65 80 100t121 35h80v-178h-80q-78 0 -139.5 -50.5 t-61.5 -113.5v-287h-219z" />
<glyph unicode="&#xe29;" horiz-adv-x="987" d="M80 459v729h219v-709q0 -63 3 -105t14 -84.5t30.5 -67t53.5 -39.5t83 -15t83 15t54 39.5t31 66.5t14 84.5t3 105.5v27h-4q-91 0 -150 21t-85 59t-33.5 92t3.5 119h179q-6 -78 9 -104.5t77 -26.5h4v522h221v-522h102v-160h-102v-47q0 -124 -19 -207.5t-65 -144t-125 -88 t-197 -27.5q-117 0 -195.5 27.5t-124 88t-64.5 144t-19 207.5z" />
<glyph unicode="&#xe2a;" horiz-adv-x="950" d="M49 328q0 161 90.5 246t306.5 126l193 37q0 136 -48.5 207.5t-174.5 71.5q-66 0 -138 -16.5t-124 -41.5l-66 152q133 65 330 94l540 80v-162l-274 -39q86 -47 131 -142t45 -261v-680h-221v559l-137 -24q-135 -27 -182.5 -67.5t-47.5 -133.5q0 -83 36.5 -127.5 t125.5 -44.5q34 0 74 6v-160q-66 -16 -133 -16q-163 0 -244.5 86t-81.5 250z" />
<glyph unicode="&#xe2b;" horiz-adv-x="958" d="M80 0v1192h219v-467l84 8q55 5 95 14t68.5 26t46 35.5t29.5 51t18.5 63.5t12.5 81l23 182h221l-23 -187q-16 -142 -61.5 -220t-148.5 -109q96 -18 142.5 -87t61.5 -206l43 -377h-221l-43 387q-12 101 -56 144t-122 34l-170 -18v-547h-219z" />
<glyph unicode="&#xe2c;" horiz-adv-x="1148" d="M39 1188h215l86 -823l166 684h147l166 -684l43 403q12 115 -1.5 159.5t-65.5 59.5v133q24 6 42 12t37.5 14.5t33.5 19t27 25t20.5 33.5t12.5 43t4.5 54.5t-5.5 67.5h194q27 -123 -20 -214t-164 -122q71 -35 88 -93.5t4 -173.5l-100 -786h-203l-186 721l-187 -721h-203z " />
<glyph unicode="&#xe2d;" horiz-adv-x="933" d="M70 434q0 151 28 277h344v-176h-161q-2 -29 -2 -86q0 -149 45.5 -215t144.5 -66q59 0 95 23.5t58.5 93.5t22.5 194v197q0 105 -15.5 174.5t-48.5 105.5t-73.5 50t-99.5 14q-127 0 -265 -47l-61 151q43 26 143.5 49t206.5 23q80 0 143.5 -14.5t119.5 -50.5t92.5 -94.5 t57.5 -149.5t21 -211v-197q0 -99 -13.5 -176.5t-40 -130t-60.5 -89t-80 -56t-93.5 -27.5t-105.5 -8q-200 0 -301.5 101t-101.5 341z" />
<glyph unicode="&#xe2e;" horiz-adv-x="952" d="M70 434q0 151 28 277h344v-176h-161q-2 -29 -2 -86q0 -149 45.5 -215t144.5 -66q59 0 95 23.5t58.5 93.5t22.5 194v197q0 105 -15.5 174.5t-48 105.5t-72 50t-97.5 14q-113 0 -269 -53l-61 153q128 59 301 82l590 82v-162l-285 -41q89 -48 133.5 -141.5t44.5 -263.5v-197 q0 -99 -13.5 -176.5t-40 -130t-60.5 -89t-80 -56t-93.5 -27.5t-105.5 -8q-200 0 -301.5 101t-101.5 341z" />
<glyph unicode="&#xe2f;" horiz-adv-x="878" d="M59 850q0 200 95 279.5t305 56.5v-176q-59 7 -95.5 0.5t-54.5 -30.5t-24 -54t-6 -80q0 -172 137 -172q61 0 107.5 39t62.5 84v391h215v-1188h-215v612q-70 -123 -228 -123q-80 0 -139.5 29.5t-93.5 81t-50 114t-16 136.5z" />
<glyph unicode="&#xe30;" horiz-adv-x="628" d="M62.5 286.5q-10.5 57.5 0.5 127.5h211q-6 -80 12 -107.5t91 -27.5h203v-179h-209q-104 0 -171 23t-97 64.5t-40.5 99zM62.5 909.5q-10.5 57.5 0.5 126.5h211q-6 -79 12 -107t91 -28h203v-178h-209q-104 0 -171.5 23t-97 64.5t-40 99z" />
<glyph unicode="&#xe31;" d="M-696 1665h202q-8 -89 13.5 -121.5t95.5 -32.5h385v-170h-381q-193 0 -263 77.5t-52 246.5z" />
<glyph unicode="&#xe32;" horiz-adv-x="780" d="M16 1122q58 32 144.5 53t175.5 21q183 0 273.5 -94.5t90.5 -317.5v-784h-221v784q0 74 -11.5 122t-35.5 71.5t-52 32t-71 8.5q-98 0 -227 -45z" />
<glyph unicode="&#xe33;" horiz-adv-x="780" d="M-569 1534q0 96 68.5 157.5t164.5 61.5q97 0 167.5 -61.5t70.5 -157.5q0 -93 -71 -155t-167 -62t-164.5 62t-68.5 155zM-414 1534q0 -32 22 -54t56 -22t58 22.5t24 53.5q0 35 -23.5 56.5t-58.5 21.5t-56.5 -21.5t-21.5 -56.5zM16 1122q58 32 144.5 53t175.5 21 q183 0 273.5 -94.5t90.5 -317.5v-784h-221v784q0 74 -11.5 122t-35.5 71.5t-52 32t-71 8.5q-98 0 -227 -45z" />
<glyph unicode="&#xe34;" d="M-870 1341v170h790v-170h-790z" />
<glyph unicode="&#xe35;" d="M-870 1341v170h579v160h211v-330h-790z" />
<glyph unicode="&#xe36;" d="M-870 1341v170h438q1 85 50 133t132 48q84 0 134 -48t50 -128q0 -79 -50 -127t-134 -48h-620zM-309 1516q0 -26 16.5 -43t42.5 -17q28 0 45 17t17 43q0 28 -17 44.5t-45 16.5q-26 0 -42.5 -16.5t-16.5 -44.5z" />
<glyph unicode="&#xe37;" d="M-870 1341v170h366v160h172v-160h80v160h172v-330h-790z" />
<glyph unicode="&#xe38;" d="M-461 -139h381v-393h-199v237h-182v156z" />
<glyph unicode="&#xe39;" d="M-682 -139h295v-185q0 -40 14.5 -56.5t44.5 -16.5q32 0 47 16.5t15 56.5v185h186v-189q0 -79 -36 -130.5t-89 -71t-121 -19.5q-103 0 -169 49t-66 150v55h-121v156z" />
<glyph unicode="&#xe3a;" d="M-373 -287q0 63 43 105.5t105 42.5q63 0 104 -42.5t41 -105.5q0 -62 -41.5 -104.5t-103.5 -42.5t-105 43t-43 104z" />
<glyph unicode="&#xe3f;" horiz-adv-x="923" d="M80 0v1434h244v245h219v-260q129 -30 198.5 -119t69.5 -233q0 -247 -195 -315q123 -19 192 -108.5t69 -227.5q0 -178 -87.5 -279t-246.5 -127v-256h-219v246h-244zM299 184h98q148 0 205 58t57 176q0 117 -57 173t-205 56h-98v-463zM299 831h84q60 0 103.5 20.5 t65.5 54.5t32 70.5t10 76.5q0 98 -55.5 147t-157.5 49h-82v-418z" />
<glyph unicode="&#xe40;" horiz-adv-x="518" d="M100 322v866h219v-832q0 -56 6 -89t24.5 -60t57.5 -36t101 -3v-166q-206 -24 -307 60t-101 260z" />
<glyph unicode="&#xe41;" horiz-adv-x="972" d="M100 322v866h219v-832q0 -56 6 -89t24.5 -60t57.5 -36t101 -3v-166q-206 -24 -307 60t-101 260zM555 322v866h219v-832q0 -55 6 -88.5t25 -60.5t57.5 -36t100.5 -3v-166q-205 -24 -306.5 60t-101.5 260z" />
<glyph unicode="&#xe42;" horiz-adv-x="616" d="M-29 1354v26q0 82 15.5 139t53.5 99t105 62t166 20h314v-170h-312q-70 0 -98.5 -21t-28.5 -61v-10q130 -27 182 -103t52 -229v-750q0 -56 5.5 -88.5t24 -60t56.5 -36.5t100 -3v-166q-205 -24 -306 60t-101 260v808q0 53 -8.5 86.5t-32.5 62.5t-69 46t-118 29z" />
<glyph unicode="&#xe43;" horiz-adv-x="622" d="M-23 1587q5 5 13.5 12.5t39 27t64.5 34.5t88.5 27t112.5 12q149 0 229 -70t80 -203q0 -57 -18.5 -106.5t-45 -85.5t-53 -69.5t-45 -74.5t-18.5 -85v-650q0 -56 5.5 -88.5t24.5 -60t57.5 -36.5t100.5 -3v-166q-206 -24 -307.5 60t-101.5 260v720q0 42 19.5 83.5t47.5 75 t56 68t47.5 76.5t19.5 85t-25 69.5t-94 26.5q-37 0 -74 -9t-63 -21.5t-46.5 -25t-30.5 -21.5l-11 -9z" />
<glyph unicode="&#xe44;" horiz-adv-x="610" d="M8 1530v170h617v-129q-34 -24 -49 -35t-42.5 -35t-40.5 -41t-31.5 -46.5t-26.5 -59.5t-14.5 -71t-6.5 -89v-838q0 -56 5.5 -88.5t24 -60t56.5 -36.5t100 -3v-166q-205 -24 -306 60t-101 260v868q0 118 52.5 209t143.5 131h-381z" />
<glyph unicode="&#xe45;" horiz-adv-x="778" d="M16 1122q58 32 144 53t176 21q120 0 197.5 -38t121 -130.5t43.5 -243.5v-1194h-219v1194q0 74 -11.5 122t-35.5 71.5t-52.5 32t-72.5 8.5q-98 0 -227 -45z" />
<glyph unicode="&#xe46;" horiz-adv-x="954" d="M59 694q0 39 0.5 62t5 67.5t13 72.5t26.5 64t42.5 56.5t63.5 35.5t89 15q69 0 120 -33t58 -90q39 123 189 123q42 0 74 -9.5t54 -24t37.5 -41t23.5 -51.5t12.5 -66t5.5 -73t1 -83v-924h-215v940q0 94 -17 121q-12 21 -36 21q-59 0 -59 -148h-131q0 150 -68 150 q-19 0 -32.5 -6.5t-21.5 -18t-13 -27.5t-6.5 -34t-2.5 -38t0 -40v-21q0 -103 45 -137t162 -20v-166q-93 -12 -170 -0.5t-133 45t-86.5 103.5t-30.5 175z" />
<glyph unicode="&#xe47;" d="M-805 1575q0 117 69 177t216 60h401v-151h-395q-113 0 -113 -84q0 -82 70 -82q40 0 59 23t19 77h141q0 -108 105 -108q33 0 73 8v-154q-38 -6 -76.5 -4.5t-71 10t-59.5 34.5t-41 67q-23 -56 -62.5 -81.5t-100.5 -25.5q-45 0 -84 11t-74 36.5t-55.5 73t-20.5 113.5z" />
<glyph unicode="&#xe48;" d="M-293 1341v433h207v-433h-207z" />
<glyph unicode="&#xe49;" d="M-696 1743q74 33 168 33q87 0 140.5 -34.5t53.5 -111.5q0 -103 -121 -157q124 38 230 38h184v-170h-623v91q73 27 103.5 69t30.5 80q0 57 -68 57q-35 0 -70 -14z" />
<glyph unicode="&#xe4a;" d="M-870 1528q0 217 163 217q104 0 146 -86q36 86 137 86q88 0 120 -55t32 -166v-39q0 -43 22 -43q8 0 13 3t7.5 13t3 15t1.5 22l22 260h158l-23 -264q-7 -90 -50.5 -128t-131.5 -38q-90 0 -134 38.5t-44 127.5v25q0 44 -7 61.5t-34 17.5q-19 0 -28 -11.5t-10 -24.5t-1 -45 v-4v-4.5v-4.5h-115v27t-1 22.5t-3.5 19.5t-7 13t-11 9.5t-16.5 2.5q-25 0 -32.5 -16.5t-7.5 -52.5q0 -19 2 -32.5t8.5 -21.5t12 -13t18 -6.5t20 -1.5t25.5 0.5t28 0.5v-123q-49 -2 -92 -1t-78 13t-60 33.5t-38.5 60.5t-13.5 93z" />
<glyph unicode="&#xe4b;" d="M-653 1495v139h190v154h193v-154h190v-139h-190v-154h-193v154h-190z" />
<glyph unicode="&#xe4c;" d="M-561 1341q-9 83 1.5 141t44.5 100.5t99 62.5t164 20h211v-170h-219q-70 0 -89.5 -32.5t-10.5 -121.5h-201z" />
<glyph unicode="&#xe4d;" d="M-569 1534q0 96 68.5 157.5t164.5 61.5q97 0 167.5 -61.5t70.5 -157.5q0 -93 -71 -155t-167 -62t-164.5 62t-68.5 155zM-414 1534q0 -32 22 -54t56 -22t58 22.5t24 53.5q0 35 -23.5 56.5t-58.5 21.5t-56.5 -21.5t-21.5 -56.5z" />
<glyph unicode="&#xe4e;" />
<glyph unicode="&#xe4f;" horiz-adv-x="978" d="M61 649q0 178 125 304t303 126q177 0 303 -126.5t126 -303.5q0 -178 -126 -303t-303 -125q-117 0 -215.5 57t-155.5 155.5t-57 215.5zM141 649q0 -143 102.5 -245.5t245.5 -102.5q141 0 240.5 102.5t99.5 245.5q0 141 -99.5 240.5t-240.5 99.5q-143 0 -245.5 -99.5 t-102.5 -240.5zM231 649q0 108 75.5 182t182.5 74q105 0 179.5 -74t74.5 -182q0 -106 -75 -182t-179 -76q-106 0 -182 76t-76 182zM307 649q0 -75 53.5 -128.5t128.5 -53.5q77 0 127 53t50 129q0 77 -49.5 126.5t-127.5 49.5q-76 0 -129 -50t-53 -126z" />
<glyph unicode="&#xe50;" horiz-adv-x="897" d="M55 514v43q0 141 31 244.5t86 163.5t124 88t153 28q83 0 152 -28t125 -88t87 -164t31 -244v-43q0 -112 -21 -201.5t-56.5 -149t-86.5 -98.5t-108 -56t-123 -17q-84 0 -153 28t-124 87.5t-86 163t-31 243.5zM266 514q0 -184 46 -269t137 -85q182 0 182 354v43 q0 352 -182 352q-91 0 -137 -85t-46 -267v-43z" />
<glyph unicode="&#xe51;" horiz-adv-x="897" d="M55 645q0 109 31 194t85.5 137t125 78.5t152.5 26.5q83 0 152 -28t125 -88t87 -164t31 -244v-129q0 -264 -138.5 -402.5t-422.5 -113.5l20 172q96 -9 163 16t101.5 77.5t49 113t14.5 137.5v129q0 184 -44.5 268t-137.5 84q-90 0 -136.5 -68.5t-46.5 -187.5 q0 -207 140 -207q3 0 59 7v-166q-47 -13 -98 -13q-45 0 -86 10t-83.5 36t-73 66.5t-50 107t-19.5 151.5z" />
<glyph unicode="&#xe52;" horiz-adv-x="1054" d="M80 459v975h211v-975q0 -144 57 -216.5t182 -72.5q127 0 185.5 72.5t58.5 216.5v299q0 129 -35 129q-13 0 -21 -13t-11.5 -39.5t-4 -44.5t-0.5 -49h-110q0 31 -1 49.5t-4 45t-12.5 40t-23.5 13.5q-13 0 -21 -10t-11.5 -34t-4 -43t-0.5 -59q0 -87 17 -118t65 -31 q28 0 68 6v-135q-55 -12 -103 -12q-231 0 -231 290q0 36 0.5 59t4 61.5t10.5 63.5t20.5 55.5t32.5 48t48.5 30t67.5 12.5q96 0 133 -82q19 42 49.5 62t89.5 20q48 0 83 -17.5t55.5 -45.5t32.5 -74t16 -93.5t4 -111.5v-272q0 -233 -116 -350t-331 -117q-214 0 -332 117 t-118 350z" />
<glyph unicode="&#xe53;" horiz-adv-x="978" d="M70 381v350q0 80 10.5 140t35 109t69 74.5t108.5 26.5q142 0 192 -120q23 59 68 89.5t123 30.5q65 0 110 -25.5t69.5 -74.5t35 -109.5t10.5 -140.5v-731h-217v743q0 31 -1 49t-6 44t-17.5 38.5t-32.5 12.5q-16 0 -27.5 -5.5t-18.5 -19.5t-11 -24.5t-5.5 -32.5t-1.5 -31 v-33v-198h-157v198q0 146 -64 146q-20 0 -32.5 -12.5t-17.5 -38.5t-6 -44t-1 -49v-319q0 -63 4.5 -102.5t17 -72t36 -48.5t60.5 -22t91 -1v-176q-210 -26 -317 75t-107 304z" />
<glyph unicode="&#xe54;" horiz-adv-x="878" d="M70 283v323q0 101 9 171t33.5 129.5t67.5 94t109.5 53.5t161.5 19h59q91 0 120 46.5t17 150.5h195q13 -111 -3 -185t-62.5 -114.5t-109.5 -56t-157 -15.5h-59q-25 0 -45 -3t-36 -12t-28 -17t-21 -24.5t-15.5 -29t-10 -37t-6 -39.5t-3.5 -46.5t-1 -49.5v-55v-295 q0 -117 127 -117q68 0 112 35q-10 62 -10 131v289h315v-164h-120v-125q0 -100 28.5 -133t122.5 -33v-174q-111 0 -176.5 16.5t-103.5 67.5q-98 -92 -236 -92q-129 0 -201.5 73.5t-72.5 217.5z" />
<glyph unicode="&#xe55;" horiz-adv-x="878" d="M70 283v323q0 173 31 272t114 146q-37 47 -37 106q0 81 56.5 134t136.5 53t138 -53t58 -134q0 -32 -8 -53q61 10 80 56.5t8 136.5h195q13 -111 -3 -185t-62.5 -114.5t-109.5 -56t-157 -15.5h-59q-25 0 -45 -3t-36 -12t-28 -17t-21 -24.5t-15.5 -29t-10 -37t-6 -39.5 t-3.5 -46.5t-1 -49.5v-55v-295q0 -117 127 -117q68 0 112 35q-10 62 -10 131v289h315v-164h-120v-125q0 -100 28.5 -133t122.5 -33v-174q-111 0 -176.5 16.5t-103.5 67.5q-98 -92 -236 -92q-129 0 -201.5 73.5t-72.5 217.5zM307 1130q0 -26 17.5 -43.5t46.5 -17.5t48 18 t19 43q0 31 -18.5 48.5t-48.5 17.5t-47 -17t-17 -49z" />
<glyph unicode="&#xe56;" horiz-adv-x="929" d="M39 1331h215l47 -342q67 92 231 92q60 0 108 -12.5t82 -34.5t59 -57t40 -74t24 -91t12 -102.5t3 -115.5v-137q0 -95 -14 -169.5t-41 -124.5t-61.5 -84.5t-81 -53t-93 -26t-104.5 -7.5q-66 0 -123.5 12t-107.5 38.5t-85.5 67t-56 101t-20.5 135.5q0 78 17 137.5t45 96 t67 60t79 32t85 8.5q42 0 79 -6v-166q-73 12 -117 -21t-44 -141q0 -89 47 -135.5t135 -46.5q47 0 78.5 11t57 42t37 90t11.5 150v139q0 41 -0.5 62.5t-3.5 60t-9.5 60.5t-19 50.5t-30.5 43t-45.5 25.5t-63.5 11q-62 0 -110 -30.5t-70 -85.5h-162z" />
<glyph unicode="&#xe57;" horiz-adv-x="1316" d="M70 381v350q0 80 10.5 140t35 109t69 74.5t108.5 26.5q142 0 192 -120q23 59 68 89.5t123 30.5q65 0 109.5 -25.5t68 -75t33.5 -109t10 -140.5v-481q0 -47 16 -65.5t48 -18.5q35 0 49 18t14 66v1184h213v-1162q0 -83 -20 -140.5t-58.5 -89t-86 -45t-111.5 -13.5 q-62 0 -109.5 13.5t-87 45t-60 89.5t-20.5 140v471q0 31 -1 49t-6 44t-17.5 38.5t-32.5 12.5q-16 0 -27.5 -5.5t-18.5 -19.5t-11 -24.5t-5.5 -32.5t-1.5 -31v-33v-198h-157v198q0 146 -64 146q-20 0 -32.5 -12.5t-17.5 -38.5t-6 -44t-1 -49v-319q0 -63 4.5 -102.5t17 -72 t36 -48.5t60.5 -22t91 -1v-176q-210 -26 -317 75t-107 304z" />
<glyph unicode="&#xe58;" horiz-adv-x="927" d="M70 336v270q0 101 9 171t33.5 129.5t67.5 94t109.5 53.5t161.5 19h84q92 0 121.5 46.5t15.5 150.5h196q12 -111 -4 -185t-62.5 -114.5t-109.5 -56t-157 -15.5h-84q-25 0 -45 -3t-36 -12t-28 -17t-21 -24.5t-15.5 -29t-10 -37t-6 -39.5t-3.5 -46.5t-1 -49.5v-55v-264 q0 -30 1 -48t6 -44t18 -39t34 -13q11 0 19.5 2.5t14.5 9.5t10.5 12.5t7 17.5t4.5 19t2.5 22t0.5 21v23v21v104h150v-104q0 -32 1 -50.5t6 -45t18 -39.5t34 -13q20 0 33 13t17.5 38.5t6 44t1.5 48.5v59q0 49 -2.5 79.5t-11 53t-19 33.5t-33.5 16t-46.5 4.5t-65.5 -4.5v162 q55 6 100 6q144 0 213 -74t69 -241v-80q0 -82 -8.5 -140.5t-31 -108.5t-65.5 -75.5t-107 -25.5q-134 0 -185 118q-23 -59 -64.5 -88.5t-117.5 -29.5q-65 0 -110.5 25.5t-70 75t-34.5 109.5t-10 140z" />
<glyph unicode="&#xe59;" horiz-adv-x="952" d="M70 381v350q0 67 4.5 114.5t18.5 95t39 76t68 46.5t103 18q69 0 122 -31.5t79 -88.5q2 57 33.5 88.5t93.5 31.5q108 0 133 -104l43 293h188l-98 -543h-149q-21 158 -103 158q-30 0 -43.5 -23.5t-12.5 -54t11 -62.5l219 -745h-192l-234 782q-16 57 -30 80t-37 23 q-24 0 -32.5 -25t-8.5 -72v-364q0 -51 2 -83t8 -64.5t18.5 -50t33.5 -31.5t52 -17.5t74 0.5v-176q-208 -24 -305.5 76.5t-97.5 302.5z" />
<glyph unicode="&#xe5a;" horiz-adv-x="1212" d="M61 850q0 200 96 279.5t304 56.5v-176q-58 7 -94 0.5t-54 -30.5t-24 -54t-6 -80q0 -78 29.5 -125t105.5 -47q62 0 107.5 39t62.5 84v391h215v-1188h-215v612q-66 -123 -228 -123q-80 0 -139.5 29.5t-93.5 81t-50 114t-16 136.5zM915 0v1188h215v-1188h-215z" />
<glyph unicode="&#xe5b;" horiz-adv-x="1431" d="M59 608q0 56 5.5 105.5t23.5 108t48 99.5t83.5 69t124.5 28q39 0 71.5 -10t55.5 -25t41.5 -41.5t30 -49t19.5 -59t12 -60t6 -64.5t2 -59.5v-55.5h-148q0 133 -17 185q-22 68 -71 69q-108 0 -108 -254q0 -318 157 -318q52 0 94.5 30.5t70 78t48 114.5t31.5 129.5 t17.5 134.5t8 118t1.5 90h178l59 -383l47 305h166v-30.5t1 -35t3.5 -41.5t7 -38.5t12 -38.5t18 -29t25.5 -22t34 -7h176v-168h-176q-72 0 -123 45t-64 146l-82 -463h-108l-64 416q-34 -250 -125 -382t-252 -132q-81 0 -143 33t-98.5 83t-59.5 118.5t-31 131t-8 129.5z" />
<glyph unicode="&#x2000;" horiz-adv-x="1118" />
<glyph unicode="&#x2001;" horiz-adv-x="2236" />
<glyph unicode="&#x2002;" horiz-adv-x="1118" />
<glyph unicode="&#x2003;" horiz-adv-x="2236" />
<glyph unicode="&#x2004;" horiz-adv-x="745" />
<glyph unicode="&#x2005;" horiz-adv-x="559" />
<glyph unicode="&#x2006;" horiz-adv-x="372" />
<glyph unicode="&#x2007;" horiz-adv-x="372" />
<glyph unicode="&#x2008;" horiz-adv-x="279" />
<glyph unicode="&#x2009;" horiz-adv-x="447" />
<glyph unicode="&#x200a;" horiz-adv-x="124" />
<glyph unicode="&#x2010;" horiz-adv-x="915" d="M80 598v182h758v-182h-758z" />
<glyph unicode="&#x2011;" horiz-adv-x="915" d="M80 598v182h758v-182h-758z" />
<glyph unicode="&#x2012;" horiz-adv-x="915" d="M80 598v182h758v-182h-758z" />
<glyph unicode="&#x2013;" horiz-adv-x="915" d="M80 598v182h758v-182h-758z" />
<glyph unicode="&#x2014;" horiz-adv-x="1038" d="M80 598v182h881v-182h-881z" />
<glyph unicode="&#x2018;" horiz-adv-x="485" d="M39 942l215 492h195l-175 -492h-235z" />
<glyph unicode="&#x2019;" horiz-adv-x="485" d="M39 942l174 492h236l-216 -492h-194z" />
<glyph unicode="&#x201a;" horiz-adv-x="368" d="M-20 -225l118 471h242l-176 -471h-184z" />
<glyph unicode="&#x201c;" horiz-adv-x="815" d="M39 942l215 492h188l-174 -492h-229zM373 942l215 492h190l-174 -492h-231z" />
<glyph unicode="&#x201d;" horiz-adv-x="815" d="M39 942l174 492h229l-215 -492h-188zM373 942l174 492h231l-215 -492h-190z" />
<glyph unicode="&#x201e;" horiz-adv-x="698" d="M-20 -225l118 471h238l-176 -471h-180zM315 -225l119 471h236l-176 -471h-179z" />
<glyph unicode="&#x2020;" horiz-adv-x="870" d="M59 866v185h267v383h219v-383h268v-185h-268v-866h-219v866h-267z" />
<glyph unicode="&#x2021;" horiz-adv-x="870" d="M59 383v190h267v293h-267v185h267v383h219v-383h268v-185h-268v-293h268v-190h-268v-383h-219v383h-267z" />
<glyph unicode="&#x2022;" horiz-adv-x="649" d="M59 649q0 111 80 187.5t189 76.5q108 0 185 -76.5t77 -187.5q0 -105 -78 -184.5t-184 -79.5q-108 0 -188.5 78t-80.5 186z" />
<glyph unicode="&#x2026;" horiz-adv-x="1118" d="M39 141q0 59 41.5 101.5t99.5 42.5q59 0 101.5 -42t42.5 -102q0 -58 -42.5 -99.5t-101.5 -41.5q-58 0 -99.5 41t-41.5 100zM416 141q0 59 41.5 101.5t99.5 42.5q59 0 102 -42t43 -102q0 -58 -43 -99.5t-102 -41.5t-100 41t-41 100zM795 141q0 59 41.5 101.5t99.5 42.5 q59 0 101 -42t42 -102q0 -58 -42 -99.5t-101 -41.5q-58 0 -99.5 41t-41.5 100z" />
<glyph unicode="&#x202f;" horiz-adv-x="447" />
<glyph unicode="&#x2030;" horiz-adv-x="1695" d="M39 1096v26q0 167 64 243.5t171 76.5q108 0 173 -76.5t65 -243.5v-26q0 -165 -65 -242.5t-173 -77.5q-106 0 -170.5 77.5t-64.5 242.5zM201 1098q0 -158 73 -158q80 0 80 158v24q0 154 -80 154q-37 0 -55 -36.5t-18 -117.5v-24zM236 0l497 1434h197l-498 -1434h-196z M653 311v27q0 167 64.5 243t171.5 76t172 -76t65 -243v-27q0 -167 -65 -243t-172 -76t-171.5 76t-64.5 243zM815 313q0 -157 74 -157q78 0 78 157v23q0 156 -78 156q-74 0 -74 -156v-23zM1182 311v27q0 167 64 243t171 76q109 0 174.5 -76t65.5 -243v-27q0 -167 -65.5 -243 t-174.5 -76q-107 0 -171 76t-64 243zM1343 313q0 -157 74 -157q80 0 80 157v23q0 156 -80 156q-74 0 -74 -156v-23z" />
<glyph unicode="&#x2039;" horiz-adv-x="804" d="M80 569v80l645 547v-248l-401 -340l401 -336v-247z" />
<glyph unicode="&#x203a;" horiz-adv-x="804" d="M80 25v247l401 336l-401 340v248l645 -547v-80z" />
<glyph unicode="&#x2044;" horiz-adv-x="612" d="M18 0l363 1434h215l-363 -1434h-215z" />
<glyph unicode="&#x205f;" horiz-adv-x="559" />
<glyph unicode="&#x20ac;" horiz-adv-x="995" d="M18 471v172h121q-2 25 -2 74q0 55 2 82h-121v174h140q84 469 489 469q82 0 157 -18t110 -36l34 -18l-51 -166q-112 41 -225 41q-222 0 -277 -272h346v-174h-366v-156h366v-172h-346q51 -283 277 -283q50 0 106.5 11t87.5 21l31 11l51 -165q-13 -8 -37.5 -20.5t-103 -33 t-160.5 -20.5q-411 0 -491 479h-138z" />
<glyph unicode="&#x2122;" horiz-adv-x="1310" d="M18 1288v146h562v-146h-195v-479h-172v479h-195zM655 809v625h183l127 -420l125 420h182v-625h-164v326l-92 -326h-105l-92 326v-326h-164z" />
<glyph unicode="&#x2212;" horiz-adv-x="915" d="M80 598v182h758v-182h-758z" />
<glyph unicode="&#x25cc;" horiz-adv-x="1132" d="M165 642q-3 20 9 34q16 16 39 16q16 0 29 -10q15 -10 16.5 -31.5t-12.5 -34.5q-13 -16 -37 -16q-16 0 -27 8q-14 14 -17 34zM274 396q-2 19 9 32q12 18 34 18q17 0 29 -12q17 -9 18.5 -29.5t-12.5 -33.5q-10 -17 -35 -17q-17 0 -28 8q-13 15 -15 34zM274 893q-2 18 9 33 q12 18 34 18q17 0 29 -12q17 -12 18.5 -32.5t-12.5 -35.5q-8 -16 -28 -16q-24 0 -35 14q-13 13 -15 31zM523 284q-1 20 12 33q13 19 38 19q17 0 25 -8q29 -32 10 -68q-16 -16 -39 -16q-18 0 -28 10q-17 10 -18 30zM523 998q-1 19 12 32q13 19 38 19q16 0 25 -9 q13 -13 16 -33.5t-6 -33.5q-20 -17 -39 -17q-13 0 -28 11q-17 12 -18 31zM772.5 396q-0.5 19 11.5 32q12 18 33 18q16 0 31 -12q15 -9 18 -29t-10 -34q-14 -17 -39 -17q-20 0 -31 8q-13 15 -13.5 34zM772.5 893q-0.5 18 11.5 33q12 18 33 18q16 0 31 -12t18 -32.5t-10 -35.5 q-11 -16 -33 -16q-23 0 -37 14q-13 13 -13.5 31zM876.5 642q-1.5 21 6.5 34q19 16 39 16q15 0 28 -10q14 -11 16.5 -31.5t-10.5 -34.5q-13 -16 -38 -16q-16 0 -27 8q-13 13 -14.5 34z" />
<glyph unicode="&#x25fc;" horiz-adv-x="1064" d="M0 0v1065h1065v-1065h-1065z" />
<glyph horiz-adv-x="925" d="M47 1112q120 55 367 92l540 80v-162l-268 -39q168 -71 168 -305q0 -327 -254 -778h-258l-143 492q-7 20 -27 20h-111v174h183q43 0 76 -23.5t45 -62.5l118 -414q156 323 156 570q0 80 -18 134t-53 81.5t-74.5 38t-94.5 10.5q-114 0 -288 -59z" />
<glyph horiz-adv-x="1474" d="M70 729v86q0 168 104 274.5t285 106.5q219 0 319.5 -113t100.5 -381v-239v-21v-60.5t2 -51.5t6 -47.5t11 -38t18 -33t27 -22t38.5 -15.5t50.5 -4q24 0 43.5 4t33.5 9t25 17t18 21.5t11.5 29t7 32.5t3.5 40t1 43t-0.5 49t-0.5 52v721h221v-729q0 -73 -3.5 -126t-13 -104.5 t-26.5 -86.5t-44 -65.5t-65.5 -48t-90.5 -27t-120 -9.5q-95 0 -161 19t-108 53.5t-65.5 94t-32 129.5t-8.5 171v254q0 175 -44 240t-154 65q-180 0 -183 -203l226 -49v-92q-189 -64 -189 -260v-52q0 -53 5.5 -84.5t24 -60t57.5 -38.5t102 -3v-174q-205 -24 -306.5 60.5 t-101.5 254.5v70q0 109 56 186.5t159 104.5z" />
<glyph d="M-567 1532q0 96 67.5 158.5t163.5 62.5t166 -62.5t70 -158.5q0 -92 -70 -153.5t-166 -61.5q-95 0 -163 61.5t-68 153.5zM-414 1532q0 -31 22.5 -52.5t55.5 -21.5q34 0 58 21.5t24 52.5q0 37 -23.5 57.5t-58.5 20.5t-56.5 -20.5t-21.5 -57.5zM-352 1829v385h209v-385h-209 z" />
<glyph d="M-606 2198q65 28 151 28q79 0 126.5 -31t47.5 -98q0 -96 -106 -143q109 35 205 35h166v-154h-562v80q66 25 93.5 64t27.5 73q0 51 -59 51q-30 0 -64 -12zM-567 1532q0 96 67.5 158.5t163.5 62.5t166 -62.5t70 -158.5q0 -92 -70 -153.5t-166 -61.5q-95 0 -163 61.5 t-68 153.5zM-414 1532q0 -31 22.5 -52.5t55.5 -21.5q34 0 58 21.5t24 52.5q0 37 -23.5 57.5t-58.5 20.5t-56.5 -20.5t-21.5 -57.5z" />
<glyph d="M-672 2001q0 194 146 194q97 0 131 -75q29 75 125 75q79 0 107 -48t28 -148v-35q0 -39 22 -39q6 0 10.5 3t6.5 11t2.5 13.5t1.5 19.5l20 234h144l-21 -240q-7 -81 -47 -114t-119 -33q-81 0 -120 33.5t-39 113.5v25q0 38 -7 54.5t-30 16.5q-13 0 -21 -5t-11.5 -19 t-4 -25.5t-0.5 -36.5h-103q0 27 -0.5 37t-3.5 24.5t-10 19.5t-20 5q-23 0 -30 -15.5t-7 -47.5q0 -17 2 -29t8 -19t10.5 -11.5t16 -6t18 -1.5t23 0.5t24.5 0.5v-110q-55 -6 -101.5 0t-80 22.5t-52 55.5t-18.5 100zM-567 1532q0 96 67.5 158.5t163.5 62.5t166 -62.5t70 -158.5 q0 -92 -70 -153.5t-166 -61.5q-95 0 -163 61.5t-68 153.5zM-414 1532q0 -31 22.5 -52.5t55.5 -21.5q34 0 58 21.5t24 52.5q0 37 -23.5 57.5t-58.5 20.5t-56.5 -20.5t-21.5 -57.5z" />
<glyph d="M-567 1532q0 96 67.5 158.5t163.5 62.5t166 -62.5t70 -158.5q0 -92 -70 -153.5t-166 -61.5q-95 0 -163 61.5t-68 153.5zM-526 1972v125h172v139h174v-139h172v-125h-172v-137h-174v137h-172zM-414 1532q0 -31 22.5 -52.5t55.5 -21.5q34 0 58 21.5t24 52.5 q0 37 -23.5 57.5t-58.5 20.5t-56.5 -20.5t-21.5 -57.5z" />
<glyph d="M-625 1665h199q-9 -88 12.5 -121t94.5 -33h239v-170h-227q-194 0 -264 77.5t-54 246.5z" />
<glyph d="M-754 1341v170h674v-170h-674z" />
<glyph d="M-754 1341v170h463v160h211v-330h-674z" />
<glyph d="M-754 1341v170h322q1 86 49.5 133.5t132.5 47.5t134 -48t50 -128q0 -79 -50 -127t-134 -48h-504zM-309 1516q0 -26 16.5 -43t42.5 -17q28 0 45 17t17 43q0 28 -17 44.5t-45 16.5q-26 0 -42.5 -16.5t-16.5 -44.5z" />
<glyph d="M-754 1341v170h260v160h166v-160h82v160h166v-330h-674z" />
<glyph d="M-293 1341v433h207v-433h-207z" />
<glyph d="M-647 1743q74 33 168 33q87 0 140.5 -34.5t53.5 -111.5q0 -103 -121 -157q124 38 230 38h96v-170h-534v91q73 27 103 69t30 80q0 57 -68 57q-34 0 -69 -14z" />
<glyph d="M-641 1528q0 217 154 217q46 0 82.5 -22.5t56.5 -63.5q31 86 129 86q82 0 112.5 -55t30.5 -166v-39q0 -43 23 -43q14 0 18.5 11t5.5 34v8l23 260h160l-23 -264q-9 -90 -52.5 -128t-131.5 -38q-90 0 -134 38.5t-44 127.5v25q0 30 -1.5 44.5t-9 24.5t-22.5 10 q-11 0 -18 -4.5t-9.5 -17.5t-3 -22.5t-0.5 -33.5v-16h-115q0 29 -0.5 40t-3 27t-9 21.5t-17.5 5.5q-21 0 -28 -17t-7 -52q0 -19 2.5 -32.5t8.5 -21.5t11 -13t17 -6.5t19 -1.5t23.5 0.5t24.5 0.5v-123q-47 -2 -88 -1t-75 13t-58 33.5t-37.5 60.5t-13.5 93z" />
<glyph d="M-555 1520v141h176v154h193v-154h174v-141h-174v-152h-193v152h-176z" />
<glyph d="M-700 1577q0 117 64 176t210 59h387v-151h-381q-58 0 -81 -21.5t-23 -66.5q0 -78 63 -78q38 0 54 22.5t16 77.5h141q0 -62 26.5 -85t71.5 -23q32 0 72 8v-154q-38 -6 -75 -4.5t-68 10t-56.5 34.5t-39.5 67q-23 -57 -60.5 -82t-101.5 -25q-42 0 -78.5 11t-69.5 36.5 t-52 73.5t-19 115z" />
<glyph d="M-291 1341v385h209v-385h-209z" />
<glyph d="M-545 1702q66 29 152 29q174 0 174 -129q0 -95 -107 -142q109 35 205 35h168v-154h-563v80q65 25 93 64t28 74q0 51 -60 51q-26 0 -63 -13z" />
<glyph d="M-752 1507q0 195 146 195q96 0 133 -76q27 76 123 76q79 0 107 -48.5t28 -148.5v-35q0 -38 22 -38q3 0 5.5 0.5t4.5 1.5t3 3t2 3.5t2 5t1.5 5.5t1 6t0.5 6.5t0.5 7.5t0.5 8l20 233h144l-21 -239q-7 -81 -47 -114.5t-119 -33.5q-80 0 -119.5 34t-39.5 114v24 q0 39 -6.5 55.5t-30.5 16.5t-29.5 -17t-5.5 -61v-8h-102v25t-1 20.5t-3.5 18t-6 11.5t-9.5 8.5t-15 2.5q-24 0 -31.5 -16t-7.5 -48q0 -20 4 -33t8.5 -19.5t17.5 -10t19.5 -3.5t26.5 0.5t28 0.5v-111q-55 -6 -101.5 0t-80.5 22.5t-53 55.5t-19 100z" />
<glyph d="M-440 1481v125h172v137h174v-137h172v-125h-172v-140h-174v140h-172z" />
<glyph d="M-332 1464q-9 83 0.5 140t43.5 98.5t98 60.5t163 19h211v-164h-219q-70 0 -89.5 -32.5t-10.5 -121.5h-197z" />
<glyph d="M-475 1341q-18 155 43 226t239 71h193v-157h-201q-64 0 -82 -29t-10 -111h-182z" />
</font>
</defs>
</svg>
