<?xml version="1.0" standalone="no"?>
<!DOCTYPE svg PUBLIC "-//W3C//DTD SVG 1.1//EN" "http://www.w3.org/Graphics/SVG/1.1/DTD/svg11.dtd" >
<svg xmlns="http://www.w3.org/2000/svg" xmlns:xlink="http://www.w3.org/1999/xlink" version="1.1">
<metadata></metadata>
<defs>
<font id="fc_flexicalight_italic" horiz-adv-x="0" >
<font-face units-per-em="2048" ascent="1638" descent="-410" />
<missing-glyph horiz-adv-x="409" />
<glyph unicode="fi" horiz-adv-x="1015" d="M182 922l27 143h164l6 33q33 180 110 268t213 88q119 0 166 -41l-55 -125q-48 23 -98 23q-75 0 -107 -52t-49 -161l-6 -33h203l-27 -143h-203l-161 -922h-181l162 922h-164zM713 0l188 1065h180l-188 -1065h-180zM915 1284q7 47 47 81t87 34t76 -34t22 -81 q-9 -49 -49 -83t-88 -34q-47 0 -75.5 35t-19.5 82z" />
<glyph unicode="fl" horiz-adv-x="974" d="M182 922l27 143h164l6 33q33 180 110 268t213 88q119 0 166 -41l-55 -125q-48 23 -98 23q-75 0 -107 -52t-49 -161l-6 -33h203l-27 -143h-203l-161 -922h-181l162 922h-164zM692 0l252 1434h180l-252 -1434h-180z" />
<glyph unicode="&#xe24;&#xe32;" horiz-adv-x="1435" d="M119.5 201q-1.5 52 7.5 112l16 88q19 111 91 189.5t180 101.5l-236 53l15 76q28 164 153 269.5t301 105.5q189 0 271 -88q52 40 132.5 64t170.5 24q85 0 142.5 -20.5t95.5 -67.5t44.5 -125t-10.5 -192l-211 -1201h-188l211 1201q10 54 11.5 94.5t-5.5 68t-18.5 45 t-32.5 27t-42.5 13t-52.5 3.5q-107 0 -186 -45q29 -105 -2 -290l-197 -1117h-188l199 1127q14 95 13 157.5t-24.5 99.5t-61 52.5t-97.5 15.5q-207 0 -254 -217l225 -51l-17 -86q-96 -32 -159.5 -99.5t-81.5 -166.5l-10 -66q-9 -46 -11.5 -74t2.5 -59t22.5 -46.5t53 -23 t90.5 -1.5l-26 -152q-86 -9 -150 1.5t-102 38t-60 68.5t-23.5 93z" />
<glyph unicode="&#xe26;&#xe32;" horiz-adv-x="1486" d="M31 0l26 152q53 -7 85 0t49.5 32t25 53t16.5 79q2 13 3 20l12 65q10 60 24 103.5t38 84t63 66.5t92 37l-236 53l15 76q28 164 153 269.5t301 105.5q189 0 271 -88q52 40 132.5 64t170.5 24q85 0 142.5 -20.5t95.5 -67.5t44.5 -125t-10.5 -192l-211 -1201h-188l211 1201 q10 54 11.5 94.5t-5.5 68t-18.5 45t-32 27t-42 13t-52.5 3.5q-108 0 -187 -45q29 -105 -2 -290l-197 -1117h-188l199 1127q14 95 13 157.5t-24.5 99.5t-61 52.5t-97.5 15.5q-207 0 -254 -217l225 -51l-16 -86q-88 -29 -128 -92t-61 -174l-22 -129q-6 -35 -13 -63.5 t-17 -57.5t-22.5 -50.5t-30 -43t-38 -34.5t-47.5 -26t-59 -16.5t-72 -6t-86 4.5z" />
<glyph unicode="FontcraftLogo" horiz-adv-x="1617" d="M123 -213h41l18 92h47l9 33h-50l9 53h59l8 35h-102zM129 772q0 138 54 264t145 217t217.5 145t265.5 54q138 0 263.5 -54t216.5 -145t144.5 -217t53.5 -264t-53.5 -264t-144.5 -217t-216.5 -145t-263.5 -54q-139 0 -265.5 54t-217.5 145t-145 217t-54 264zM250 772 q0 -152 75.5 -281t204.5 -203.5t281 -74.5q151 0 280 76t203 205t74 278q0 153 -75.5 282t-203.5 203t-278 74q-114 0 -218 -44.5t-179 -119.5t-119.5 -178.5t-44.5 -216.5zM276 -160q-8 -55 48 -55t67 55l19 107q4 26 -9.5 41.5t-38.5 15.5t-43 -15.5t-24 -41.5zM317 -162 l21 109q3 20 18 20q13 0 13 -20l-23 -109q0 -18 -16 -18q-13 0 -13 18zM350 772q0 190 134.5 322.5t326.5 132.5q81 0 158.5 -29t138.5 -80l-82 -368q-14 -60 -34 -83.5t-60 -23.5q-36 0 -56 18t-14 56l33 155q2 18 -9.5 33t-39.5 15q-42 0 -51 -41l-33 -150q-7 -38 -32 -66 t-71 -28q-66 0 -47 90l27 133q6 38 -17.5 53t-68.5 15q-86 0 -86 -54q0 -23 11.5 -39t31.5 -16h14l-14 -76q-20 -87 17 -145.5t132 -58.5q98 0 136 79q9 -41 50.5 -60t86.5 -19q146 0 184 168l74 319q74 -122 74 -252q0 -93 -36.5 -178t-97.5 -146t-144.5 -97t-174.5 -36 q-192 0 -326.5 133.5t-134.5 323.5zM430 -213h37l18 98q1 6 3.5 19.5t3.5 19.5l12 -137h43l37 213h-43l-15 -100q0 -1 -3 -14.5t-3 -20.5h-2v26l-6 109h-47zM618 -35h35l-32 -178h45l28 178h37l6 35h-112zM748 -160q-8 -55 47 -55q57 0 65 55l2 13h-41l-2 -15 q-5 -18 -18 -18t-13 18l23 109q3 20 16 20q12 0 9 -20q0 -9 -2 -15l40 2q5 15 5 17q4 25 -9 39t-36 14q-25 0 -43.5 -15.5t-24.5 -41.5zM895 -213h41l16 96h9v-96h45l-7 104q25 11 33 43v7q10 59 -43 59h-57zM958 -86l9 53h12q14 0 14 -22l-4 -11q-5 -20 -20 -20h-11z M1040 -213h41l15 47h32l-2 -47h48l-7 213h-51zM1110 -127l20 61l-2 -61h-18zM1208 -213h41l19 92h49l6 33h-49l8 53h61l7 35h-103zM1376 -35h35l-33 -178h45l33 178h33l6 35h-113z" />
<glyph />
<glyph />
<glyph unicode="&#xd;" horiz-adv-x="512" />
<glyph unicode="&#xa;" horiz-adv-x="614" />
<glyph unicode=" "  horiz-adv-x="409" />
<glyph unicode="&#x09;" horiz-adv-x="409" />
<glyph unicode="&#xa0;" horiz-adv-x="409" />
<glyph unicode="!" horiz-adv-x="419" d="M104 127q9 52 53 89.5t97 37.5t84 -36.5t22 -90.5q-9 -52 -53.5 -89.5t-97.5 -37.5q-52 0 -83 37t-22 90zM199 389l161 1045h201l-203 -1045h-159z" />
<glyph unicode="&#x22;" horiz-adv-x="649" d="M246 901l67 533h201l-125 -533h-143zM571 901l68 533h201l-125 -533h-144z" />
<glyph unicode="#" horiz-adv-x="1130" d="M102 350l29 160h236l133 375h-209l28 159h240l137 390h174l-137 -390h174l137 390h175l-138 -390h193l-29 -159h-223l-133 -375h196l-28 -160h-226l-124 -350h-175l125 350h-174l-125 -350h-174l125 350h-207zM541 510h174l133 375h-174z" />
<glyph unicode="$" horiz-adv-x="862" d="M63 68l74 137q105 -41 252 -41q262 0 299 211q7 42 4.5 75.5t-15 61t-30.5 49t-42.5 40.5t-50 34.5t-53.5 31.5q-13 7 -20 11q-30 18 -54.5 34t-51 35.5t-45 38.5t-37.5 43t-29.5 47.5t-19.5 52.5t-7.5 59t5.5 67q31 183 125.5 274t255.5 109l43 241h188l-43 -243 q148 -18 225 -68l-73 -137q-115 41 -252 41q-38 0 -69 -3t-67 -14.5t-62 -30.5t-47.5 -53t-29.5 -81q-5 -29 -4.5 -53.5t6.5 -46t15.5 -39.5t23.5 -34t29.5 -29.5t34 -26.5t37.5 -24.5t40 -23.5q39 -23 58 -35q28 -18 49 -33.5t44.5 -35t40 -38.5t32.5 -42t25.5 -48.5 t15 -55t5 -63.5t-6.5 -73q-56 -310 -322 -377l-45 -258h-188l41 238q-84 2 -168.5 20.5t-135.5 55.5z" />
<glyph unicode="%" horiz-adv-x="1126" d="M233 0l738 1434h174l-737 -1434h-175zM236 1104l4 26q29 162 104.5 237t175.5 75q101 0 151 -75.5t21 -236.5l-4 -26q-29 -161 -105 -236t-177 -75t-150 74.5t-20 236.5zM373 1106q-29 -170 59 -170q92 0 121 170l4 22q28 168 -61 168q-91 0 -119 -168zM686 303l4 27 q29 162 104.5 236.5t176.5 74.5t151 -75t21 -236l-4 -27q-29 -161 -105.5 -236t-177.5 -75t-150 74.5t-20 236.5zM823 305q-29 -170 60 -170q92 0 121 170l4 23q28 168 -62 168q-91 0 -119 -168z" />
<glyph unicode="&#x26;" horiz-adv-x="974" d="M123 384q52 186 205 328q53 49 112 87l-37 94q-28 73 -37.5 148.5t6 147.5t54.5 128t115 90.5t180 34.5q56 0 103 -9.5t74 -23t46 -27t26 -22.5l7 -10l-68 -127q-3 3 -8 7t-23.5 15t-40 19t-56 15t-72.5 7q-65 0 -105 -25t-53.5 -62t-11.5 -87t13 -92t28 -84l176 -465 q90 215 84 434h164q2 -159 -45 -322.5t-134 -295.5l109 -287h-193l-51 131q-158 -139 -354 -139q-143 0 -202 115q-57 113 -11 277zM295 220q27 -68 117 -68q119 0 225 122l-148 392q-98 -84 -160 -218q-66 -144 -34 -228z" />
<glyph unicode="'" horiz-adv-x="323" d="M246 901l67 533h201l-125 -533h-143z" />
<glyph unicode="(" horiz-adv-x="565" d="M242 678q81 455 340 838h188q-138 -209 -217 -392.5t-125 -445.5q-32 -181 -34 -330t18 -261.5t63 -250.5h-188q-125 377 -45 842z" />
<glyph unicode=")" horiz-adv-x="565" d="M33 -164q138 206 216.5 391t125.5 449q32 182 34.5 329.5t-17.5 260.5t-64 250h188q126 -382 45 -840q-77 -452 -340 -840h-188z" />
<glyph unicode="*" horiz-adv-x="700" d="M246 1161l67 129l189 -71l28 215h144l-45 -215l211 71l24 -129l-221 -59l102 -176l-127 -78l-86 180l-153 -180l-98 78l163 176z" />
<glyph unicode="+" horiz-adv-x="901" d="M190 610l27 156h277l51 293h184l-51 -293h276l-26 -156h-277l-53 -293h-184l53 293h-277z" />
<glyph unicode="," horiz-adv-x="339" d="M-59 -225l200 471h211l-258 -471h-153z" />
<glyph unicode="-" horiz-adv-x="901" d="M190 610l27 156h737l-26 -156h-738z" />
<glyph unicode="." horiz-adv-x="337" d="M63 127q9 52 53 89.5t97 37.5t84 -36.5t22 -90.5q-9 -52 -53.5 -89.5t-97.5 -37.5q-52 0 -83 37t-22 90z" />
<glyph unicode="/" horiz-adv-x="587" d="M20 0l615 1434h184l-614 -1434h-185z" />
<glyph unicode="0" horiz-adv-x="993" d="M164.5 400.5q0.5 72.5 8.5 142t22 149.5l8 47q16 95 37 174.5t52 162.5t73.5 146.5t97 114.5t127.5 78t160 27q75 0 132.5 -21t95 -57t61 -89t33.5 -112t10 -132t-7.5 -142.5t-21.5 -149.5l-9 -47q-17 -95 -38 -174.5t-52.5 -162t-74 -145.5t-97 -113.5t-128 -77.5 t-160.5 -27q-75 0 -132.5 21t-94.5 56.5t-60.5 88.5t-33 111.5t-9 131zM357 391q1 -44 10 -90.5t28 -75t51.5 -47t77.5 -18.5q52 0 96 22.5t76.5 67t56.5 93t44 119t31.5 124.5t25.5 129q11 63 17.5 110t12 109t4 106t-11 90.5t-28 75.5t-51.5 47.5t-78 18.5t-84 -18.5 t-68 -47.5t-54 -75.5t-42 -90.5t-32.5 -106t-25 -109t-20.5 -110t-18.5 -110t-13 -108.5t-4.5 -105.5z" />
<glyph unicode="1" horiz-adv-x="712" d="M264 1028l31 174q209 94 356 232h150l-252 -1434h-189l215 1225q-73 -108 -311 -197z" />
<glyph unicode="2" horiz-adv-x="878" d="M72 0l37 205q19 107 64.5 195.5t104 148.5t126 112t134 97.5t122.5 91.5t97 107t54 133q3 30 4 54t-8 42.5t-18.5 32t-26.5 23t-33 15.5t-38 9.5t-41 4.5t-42 1q-136 0 -264 -41l-25 137q67 36 164 55t179 19q203 0 286 -80.5t53 -253.5q-13 -78 -43.5 -144t-70.5 -115.5 t-88.5 -92.5t-100.5 -80t-103.5 -73.5t-100 -77t-88 -85.5t-68.5 -105t-41 -130l-8 -41h532l-28 -164h-721z" />
<glyph unicode="3" horiz-adv-x="890" d="M74 66l71 137q115 -41 246 -41q61 0 108 10.5t90.5 37t73 79t42.5 129.5q5 31 6.5 59t-6 66.5t-26 66t-60 47t-101.5 19.5h-121l29 160h121q60 0 106 19.5t71 44.5t43 64.5t23.5 62t10.5 54.5q5 41 2.5 70.5t-18.5 51t-34 35t-46 21t-53.5 10.5t-55.5 3q-130 0 -258 -41 l-25 137q68 36 161.5 55t174.5 19q204 0 288.5 -88.5t49.5 -280.5q-22 -122 -89.5 -215t-156.5 -102q61 -7 101.5 -57t51 -124t-2.5 -163q-72 -420 -508 -420q-81 0 -167.5 19t-141.5 55z" />
<glyph unicode="4" horiz-adv-x="892" d="M92 287l12 75l674 1072h183l-175 -988h144l-27 -159h-143l-51 -287h-189l51 287h-479zM338 446h260l107 601z" />
<glyph unicode="5" horiz-adv-x="866" d="M84 66l72 137q115 -41 204 -41q273 0 324 276q48 277 -225 277h-236l15 84l133 635h618l-26 -160h-447l-84 -400h23q53 0 97.5 -4t89.5 -13.5t79.5 -25.5t66 -39.5t50.5 -56t33 -75t12 -95.5t-11 -119q-39 -227 -175.5 -340.5t-344.5 -113.5q-155 0 -268 74z" />
<glyph unicode="6" horiz-adv-x="933" d="M149.5 265q-6.5 40 2 129.5t14.5 125.5t24 134l9 51q69 395 193 566t360 171q81 0 171 -19t146 -55l-74 -137q-115 41 -252 41q-67 0 -117 -20.5t-94 -70.5t-76 -138.5t-55 -219.5q3 4 9 11t29 25t50 31.5t73.5 24.5t99.5 11q83 0 143 -27t92 -70t47 -102.5t14.5 -119.5 t-12.5 -126l-8 -47q-11 -66 -32 -125.5t-59 -119t-88.5 -102t-126 -69t-167.5 -26.5q-83 0 -142.5 23.5t-95.5 52.5t-53.5 93t-24 104zM342 457q-55 -310 156 -310q209 0 264 310q55 311 -156 311q-209 0 -264 -311z" />
<glyph unicode="7" horiz-adv-x="839" d="M219 0l578 1270h-533l29 164h758l-11 -66l-622 -1368h-199z" />
<glyph unicode="8" horiz-adv-x="960" d="M143 403q51 289 271 345q-61 16 -95.5 64.5t-39 114.5t7.5 144q30 168 147.5 269.5t298.5 101.5q182 0 265 -101.5t53 -269.5q-22 -123 -83.5 -211.5t-158.5 -111.5q203 -57 152 -345q-34 -194 -159 -302.5t-323 -108.5q-199 0 -284.5 108t-51.5 303zM334 416 q-46 -254 174 -254t266 254q4 22 6 40t1.5 45t-5 48t-17.5 44t-33 38t-53 25t-77 10q-60 0 -106.5 -19t-72.5 -44.5t-45 -64t-25.5 -64t-12.5 -58.5zM466 992q-1 -28 3 -47t14 -43t27 -38.5t46.5 -24.5t68.5 -10q197 0 237 242q17 97 -24.5 149t-135.5 52q-93 0 -151.5 -52 t-75.5 -149q-4 -22 -6 -36.5t-3 -42.5z" />
<glyph unicode="9" horiz-adv-x="933" d="M119 66l71 137q115 -41 252 -41q67 0 117.5 20.5t94.5 70.5t76.5 138t55.5 219q-3 -4 -9 -11t-28.5 -24.5t-49.5 -31t-73.5 -24.5t-99.5 -11q-83 0 -143 26.5t-92.5 69.5t-48 102.5t-15 119.5t12.5 126l8 47q10 55 26.5 105t42 101.5t63 93t85.5 74.5t113.5 51t142.5 18 q64 0 115 -13.5t85.5 -34.5t58.5 -56.5t37 -71t17.5 -85.5t4 -92.5t-8 -101t-14 -101t-17.5 -101.5q-2 -13 -3.5 -19.5t-3.5 -17t-3 -19.5q-69 -394 -193.5 -565.5t-361.5 -171.5q-81 0 -170.5 19t-144.5 55zM424 977q-55 -311 156 -311q209 0 264 311q54 309 -154 309 q-212 0 -266 -309z" />
<glyph unicode=":" horiz-adv-x="419" d="M104 127q9 52 53 89.5t97 37.5t84 -36.5t22 -90.5q-9 -52 -53.5 -89.5t-97.5 -37.5q-52 0 -83 37t-22 90zM248 938q9 52 52.5 89.5t96.5 37.5t84.5 -36.5t22.5 -90.5q-9 -52 -54 -89.5t-98 -37.5q-52 0 -82.5 37t-21.5 90z" />
<glyph unicode=";" horiz-adv-x="419" d="M-51 -225l201 471h221l-258 -471h-164zM248 938q9 52 52.5 89.5t96.5 37.5t84.5 -36.5t22.5 -90.5q-9 -52 -54 -89.5t-98 -37.5q-52 0 -82.5 37t-21.5 90z" />
<glyph unicode="&#x3c;" horiz-adv-x="778" d="M182 573l13 68l708 533l-37 -216l-473 -352l348 -350l-36 -215z" />
<glyph unicode="=" horiz-adv-x="919" d="M190 446l29 156h696l-28 -156h-697zM250 774l26 156h697l-27 -156h-696z" />
<glyph unicode="&#x3e;" horiz-adv-x="778" d="M90 41l37 215l471 350l-346 352l37 216l520 -533l-12 -68z" />
<glyph unicode="?" horiz-adv-x="821" d="M281 127q9 52 52.5 89.5t96.5 37.5t84.5 -36.5t22.5 -90.5q-9 -52 -54 -89.5t-98 -37.5q-52 0 -82.5 37t-21.5 90zM303 1368q68 36 165 55t183 19q174 0 249.5 -81t47.5 -239q-12 -64 -36 -115t-54 -86.5t-64.5 -68t-69.5 -67t-65.5 -75t-56.5 -102t-39 -137.5l-14 -82 h-189l15 82q21 118 64 206t91.5 139t95.5 93t84 92.5t48 112.5q16 89 -29 123.5t-139 34.5q-134 0 -262 -41z" />
<glyph unicode="@" horiz-adv-x="1406" d="M139 313q0 119 23 260q23 130 65.5 242.5t110 212t154.5 170t206 111.5t258 41q113 0 202 -27t148.5 -77t98 -117.5t54 -152.5t13.5 -177.5t-20 -196.5q-10 -56 -26 -112.5t-46 -122t-68 -115t-94.5 -82.5t-121.5 -33q-60 0 -101 28t-51 79q-84 -97 -244 -97 q-69 0 -117 26.5t-72 68t-34 98.5t-7.5 111.5t13.5 113.5q11 62 27 117t46 116t68 104t96.5 71t129.5 28q65 0 105 -22t63 -72l29 86h151l-102 -577q-1 -4 -3.5 -18.5t-4 -24t-3.5 -25t-1 -26t4 -20.5t10 -15.5t18 -5.5q109 0 170 321q15 83 18.5 154t-4 140.5t-33 123 t-68 95t-111 63.5t-158.5 22q-110 0 -201.5 -34.5t-156.5 -92.5t-114.5 -140t-79.5 -170t-48 -190q-20 -114 -20.5 -205t23 -170t74 -131.5t136.5 -82t207 -29.5q109 0 217 18l-29 -161q-132 -11 -217 -11q-153 0 -265 35.5t-179 102t-102.5 161t-35.5 213.5zM643.5 444 q-1.5 -35 5 -60t19.5 -48t38.5 -35t61.5 -12q79 0 147 65l76 441q-44 65 -123 65q-27 0 -50 -7t-40.5 -16t-33 -28t-25.5 -32.5t-20 -41t-15 -41.5t-11.5 -45.5t-8.5 -42t-7 -41.5q-6 -34 -9 -60t-4.5 -61z" />
<glyph unicode="A" horiz-adv-x="880" d="M20 0l578 1434h188l74 -1434h-192l-13 358h-303l-139 -358h-193zM414 518h237l-20 557z" />
<glyph unicode="B" horiz-adv-x="897" d="M82 0l252 1434h307q184 0 272 -92q65 -67 65 -181q0 -41 -9 -88q-46 -258 -264 -325q129 -15 184 -103q37 -60 37 -147q0 -41 -8 -88q-35 -207 -172.5 -308.5t-344.5 -101.5h-319zM299 160h109q156 0 230 62.5t95 189.5q7 39 7 71q0 73 -36 115q-52 60 -208 61h-109z M416 819h94q64 0 115 22t82 59t49.5 76.5t25.5 82.5q6 29 6 55q0 66 -38 106q-52 54 -162 54h-92z" />
<glyph unicode="C" horiz-adv-x="888" d="M162 487q4 105 26 230t55.5 230t85.5 198t119 157.5t158.5 102t200.5 37.5q77 0 145 -18t98 -36l29 -18l-69 -143q-103 43 -209 43q-78 0 -141.5 -32.5t-105.5 -83.5t-75 -127t-51.5 -148t-34.5 -162q-13 -73 -19 -135q-7 -66 -8 -133q0 -63 14 -111q14 -50 40 -90.5 t73.5 -62t112.5 -21.5q47 0 103 11t88 21l32 11l19 -144q-14 -8 -39 -20t-103 -31.5t-155 -19.5q-109 0 -187.5 37.5t-122.5 102.5q-43 64 -63 157q-16 77 -17 163q0 17 1 35z" />
<glyph unicode="D" horiz-adv-x="931" d="M82 0l252 1434h225q92 0 163.5 -11.5t124 -36t89 -56.5t57.5 -80t31 -100q8 -43 8 -100v-22q-2 -70 -10.5 -141t-24.5 -162q-16 -92 -32.5 -163.5t-40 -143.5t-52 -125.5t-66.5 -102.5t-86.5 -82.5t-110 -58.5t-138 -37t-168.5 -12h-221zM299 160h29q77 0 137 13.5 t103.5 34.5t77.5 62.5t55.5 79.5t41 106t30 121t26.5 144q29 176 37 299q1 12 0 23q0 105 -65 165q-72 66 -245 66h-30z" />
<glyph unicode="E" horiz-adv-x="772" d="M82 0l252 1434h629l-27 -160h-440l-80 -455h354l-29 -160h-354l-88 -499h440l-28 -160h-629z" />
<glyph unicode="F" horiz-adv-x="780" d="M82 0l252 1434h637l-27 -160h-448l-84 -477h364l-28 -160h-365l-113 -637h-188z" />
<glyph unicode="G" horiz-adv-x="970" d="M168 486q8 103 31 231q22 128 52.5 230.5t80.5 197.5t115 158.5t158 101t208 37.5q77 0 155.5 -19.5t117.5 -38.5l40 -20l-69 -143q-144 49 -250 49q-62 0 -113 -17.5t-88 -44t-68 -72t-50.5 -87.5t-37.5 -105.5t-28 -110t-23 -116.5q-39 -224 -39 -319q0 -194 122 -227 q27 -7 61 -7q60 0 112.5 21.5t87.5 54.5l74 419h-194l28 160h383l-145 -819h-166l2 106q-26 -43 -96 -78.5t-168 -35.5q-93 0 -155.5 37.5t-94.5 101t-41 158.5q-6 52 -6 105q0 46 4 92z" />
<glyph unicode="H" horiz-adv-x="946" d="M92 0l252 1434h188l-106 -615h385l107 615h188l-252 -1434h-188l116 659h-385l-116 -659h-189z" />
<glyph unicode="I" horiz-adv-x="434" d="M123 0l252 1434h188l-252 -1434h-188z" />
<glyph unicode="J" horiz-adv-x="671" d="M37 35l57 131q22 -10 71 -17.5t81 -7.5q157 0 196 205l164 928h-211l27 160h399l-190 -1088q-33 -180 -130.5 -267t-246.5 -87q-61 0 -128 11t-89 32z" />
<glyph unicode="K" horiz-adv-x="888" d="M82 0l252 1434h188l-252 -1434h-188zM397 717l508 717h205l-518 -717l276 -717h-204z" />
<glyph unicode="L" horiz-adv-x="743" d="M82 0l252 1434h188l-223 -1274h432l-29 -160h-620z" />
<glyph unicode="M" horiz-adv-x="1171" d="M92 0l252 1434h188l109 -1125l502 1125h188l-252 -1434h-188l153 877l-391 -877h-135l-84 877l-153 -877h-189z" />
<glyph unicode="N" horiz-adv-x="976" d="M92 0l252 1434h188l236 -1033l180 1033h189l-252 -1434h-189l-233 1032l-182 -1032h-189z" />
<glyph unicode="O" horiz-adv-x="1005" d="M166 401q2 75 11 141.5t24 149.5l8 47q14 83 29.5 149.5t39.5 142t52.5 132.5t70.5 111.5t91.5 90t117 56.5t146.5 21t139 -21t97.5 -56.5t60.5 -90t32 -111.5q7 -47 7 -105v-27q-2 -75 -10.5 -142t-22.5 -150l-8 -47q-15 -83 -30.5 -149.5t-40 -141.5t-53.5 -132 t-71 -111t-92 -89t-117.5 -56t-146.5 -21t-139 21t-97.5 56t-59.5 89q-24 54 -32 111q-7 44 -6 99q-1 16 0 33zM368 430v-16q0 -32 2 -68q2 -46 13.5 -75t29.5 -55.5t47.5 -39t69.5 -12.5q45 0 84 18.5t67 46t53.5 74.5t41.5 89t32 105.5t25 107.5t21 110q8 45 13 76.5 t11 76.5t8 77t4 72v21q0 28 -3 48q-4 28 -10.5 59t-20 51.5t-31 37.5t-43 25.5t-57.5 8.5q-45 0 -84 -18.5t-67 -46.5t-52.5 -75t-40 -89t-31.5 -106t-24.5 -107.5t-19.5 -110.5q-10 -58 -16.5 -96t-14 -94.5t-7.5 -94.5z" />
<glyph unicode="P" horiz-adv-x="872" d="M82 0l252 1434h348q185 0 276 -100q67 -74 66 -196q0 -44 -8 -94q-33 -191 -161.5 -299t-311.5 -108h-160l-113 -637h-188zM412 797h133q124 0 195 68.5t91 183.5q6 34 6 63q0 66 -33 105q-48 57 -175 57h-133z" />
<glyph unicode="Q" horiz-adv-x="1005" d="M148 360v30q0 61 6 124q8 78 26 178l8 47q20 116 46 209t71.5 188.5t104.5 160t147.5 105t198.5 40.5q92 0 159.5 -27t106.5 -78t60.5 -114.5t23.5 -146.5q1 -23 1 -46q0 -59 -5 -116q-6 -80 -23 -175l-8 -47q-19 -108 -43 -193.5t-63.5 -173.5t-100.5 -153t-141 -100 l274 -72l-28 -164l-539 152q-74 21 -127 54.5t-85.5 81.5t-50 104.5t-19.5 131.5zM350 414q-1 -10 -1 -20q0 -28 3 -48q5 -28 12 -59.5t21.5 -51.5t34 -37.5t47.5 -25.5t63 -8q39 0 73 11.5t61 29t50.5 47.5t41 58.5t34 72.5t27 77.5t22 84.5t18 84.5t15.5 85.5 q9 53 14 85.5t12 84.5t8 85q1 23 1 50q0 13 -1 28q0 44 -7.5 72.5t-20.5 59t-33.5 48t-50.5 29t-69 11.5q-50 0 -92 -18.5t-71.5 -46t-56 -75.5t-42.5 -89t-32 -106t-24 -107.5t-20 -110.5q-8 -47 -13 -76.5t-12 -76t-9 -77t-3 -71.5z" />
<glyph unicode="R" horiz-adv-x="884" d="M82 0l252 1434h348q185 0 276 -100q67 -74 66 -196q0 -44 -8 -94q-26 -148 -111 -248t-211 -137l180 -659h-204l-164 637h-123l-113 -637h-188zM412 797h133q124 0 195 68.5t91 183.5q6 34 6 63q0 66 -33 105q-48 57 -175 57h-133z" />
<glyph unicode="S" horiz-adv-x="862" d="M63 68l74 137q105 -41 252 -41q262 0 299 211q5 31 5 57q-1 8 -1 18q-2 34 -14.5 61.5t-30.5 49t-42.5 40.5t-50 34.5t-53.5 31.5q-13 7 -20 11q-30 18 -54.5 34t-51 35.5t-45 38.5t-37.5 43t-29.5 47.5t-19.5 52.5t-7.5 59t5.5 67q36 209 152.5 298t324.5 89 q81 0 171 -19t146 -55l-73 -137q-115 41 -252 41q-38 0 -69 -3t-67 -14.5t-62 -30.5t-47.5 -53t-29.5 -81q-5 -29 -4.5 -53.5t6.5 -46t15.5 -39.5t23.5 -34t29.5 -29.5t34 -26.5t37.5 -24.5t40 -23.5q39 -23 58 -35q28 -18 49 -33.5t44.5 -35t40 -38.5t32.5 -42t25.5 -48.5 t15 -55t4.5 -63.5t-6 -73q-37 -208 -164 -302.5t-336 -94.5q-84 0 -174 19t-144 57z" />
<glyph unicode="T" horiz-adv-x="839" d="M256 1274l27 160h778l-27 -160h-295l-225 -1274h-188l225 1274h-295z" />
<glyph unicode="U" horiz-adv-x="1013" d="M169 318.5q0 64.5 7 127.5t21 144l147 844h188l-143 -822q-33 -182 -35 -242v-16q0 -136 84 -173q39 -17 97 -17q55 0 98.5 15t73 45.5t50.5 66t35.5 87t24 97.5t20.5 107q3 20 5 30l143 822h189l-148 -844q-20 -114 -43.5 -197.5t-63.5 -163t-94 -129t-135 -79 t-186 -29.5q-75 0 -132.5 15t-95.5 41.5t-62 69t-34.5 89.5t-10.5 111.5z" />
<glyph unicode="V" horiz-adv-x="880" d="M272 1434h193l39 -1076l416 1076h192l-577 -1434h-189z" />
<glyph unicode="W" horiz-adv-x="1349" d="M293 1434h201l-23 -1076l375 1076h162l-2 -1076l354 1076h201l-512 -1434h-168l-23 1030l-389 -1030h-168z" />
<glyph unicode="X" horiz-adv-x="894" d="M20 0l396 717l-144 717h205l111 -641l334 641h204l-393 -717l141 -717h-204l-109 641l-336 -641h-205z" />
<glyph unicode="Y" horiz-adv-x="894" d="M272 1434h205l109 -652l336 652h204l-489 -887l-96 -547h-189l97 547z" />
<glyph unicode="Z" horiz-adv-x="860" d="M61 0l17 98l704 1176h-495l26 160h738l-17 -99l-702 -1175h495l-28 -160h-738z" />
<glyph unicode="[" horiz-adv-x="593" d="M94 -164l295 1680h410l-27 -160h-221l-240 -1360h221l-28 -160h-410z" />
<glyph unicode="\" horiz-adv-x="83" d="M20 1434h185l110 -1434h-184z" />
<glyph unicode="]" horiz-adv-x="593" d="M33 -164l28 160h222l239 1360h-221l27 160h409l-295 -1680h-409z" />
<glyph unicode="^" horiz-adv-x="798" d="M213 860l344 574h188l144 -574h-193l-75 400l-215 -400h-193z" />
<glyph unicode="_" horiz-adv-x="942" d="M14 -156l27 156h860l-27 -156h-860z" />
<glyph unicode="`" horiz-adv-x="399" d="M252 1434h205l88 -492h-164z" />
<glyph unicode="a" horiz-adv-x="815" d="M92 293q50 273 316 319l262 45l14 91q8 41 8 71q0 45 -17 69q-28 38 -130 38q-112 0 -244 -39l-27 123q52 28 145 45.5t171 17.5q177 0 241 -76q43 -51 43 -146q0 -46 -10 -103l-131 -748h-158l3 106q-48 -33 -84 -54.5t-92 -40.5t-109 -19q-117 0 -171 83 q-37 57 -37 140q0 36 7 78zM283 305q-4 -25 -4 -46q1 -43 17 -73q26 -46 91 -45q97 0 205 76l51 295l-188 -39q-76 -18 -117.5 -57t-54.5 -111z" />
<glyph unicode="b" horiz-adv-x="888" d="M82 0l252 1434h180l-70 -402q87 41 177 41q71 0 125.5 -17t99 -56t66.5 -103t27 -158q1 -16 1 -33q0 -83 -20 -188q-47 -261 -159 -393.5t-276 -132.5q-161 0 -211 114l-34 -106h-158zM301 217q22 -33 65 -54.5t97 -21.5q111 0 175 98t97 281q17 113 17 189v8 q-1 78 -27 124t-64 64.5t-94 18.5q-78 0 -147 -27z" />
<glyph unicode="c" horiz-adv-x="784" d="M140 284q-2 24 -2 51q0 86 18 197q49 279 174 410t305 131q77 0 156 -16.5t120 -44.5l-67 -123q-107 35 -205 35q-111 0 -187.5 -94t-109.5 -285q-16 -86 -15 -154q0 -86 24 -145q44 -105 153 -105q98 0 213 35l24 -125q-51 -27 -135.5 -43t-161.5 -16q-87 0 -150.5 29.5 t-104.5 95t-49 167.5z" />
<glyph unicode="d" horiz-adv-x="888" d="M154 518q27 155 75 265t113.5 172t139.5 90t163 28q91 0 164 -41l70 402h180l-252 -1434h-158l2 106q-85 -114 -252 -114q-164 0 -228 132q-37 76 -37 195q0 88 20 199zM321 321q2 -84 40 -132t114 -48q54 0 105.5 21.5t85.5 54.5l118 680q-56 27 -135 27q-57 0 -102 -19 t-86 -63.5t-72 -125t-51 -196.5q-17 -104 -17 -183v-16z" />
<glyph unicode="e" horiz-adv-x="804" d="M133 287q-1 19 -1 40q0 69 15 156l13 70q26 145 69.5 248t102.5 161.5t125.5 84.5t146.5 26q62 0 109 -12.5t84.5 -41t56 -75.5t23.5 -116q1 -15 1 -31q0 -58 -14 -131q-19 -120 -41 -197h-504q-9 -67 -8 -120q0 -90 25 -137q41 -75 147 -75q102 0 230 39l24 -125 q-50 -27 -137 -43t-164 -16q-69 0 -120.5 15t-93.5 49.5t-62.5 91t-26.5 139.5zM344 608h342q7 37 10 58q12 69 12 119q0 55 -14 87q-28 62 -114 62q-165 0 -236 -326z" />
<glyph unicode="f" horiz-adv-x="589" d="M182 922l27 143h164l6 33q33 180 110 268t213 88q119 0 166 -41l-55 -125q-48 23 -98 23q-75 0 -107 -52t-49 -161l-6 -33h203l-27 -143h-203l-161 -922h-181l162 922h-164z" />
<glyph unicode="g" horiz-adv-x="888" d="M74 -371l69 125q103 -35 201 -35q49 0 81 5.5t67.5 24.5t59 54.5t45.5 97t38 150.5l8 45q-87 -104 -244 -104q-152 0 -221 136q-42 83 -42 208q0 84 18 186q44 248 155.5 399.5t280.5 151.5q162 0 213 -115l35 107h157l-182 -1032q-21 -110 -54 -192t-74.5 -133.5 t-96 -82.5t-111 -43t-127.5 -12q-77 0 -156 16t-120 43zM338 522q-15 -84 -15 -151q0 -73 18 -127q35 -103 134 -103q54 0 105.5 21.5t85.5 54.5l110 631q-22 33 -65 54.5t-97 21.5q-204 0 -276 -402z" />
<glyph unicode="h" horiz-adv-x="856" d="M82 0l252 1434h180l-82 -469q135 108 289 108q113 0 167 -62q36 -42 35 -123q0 -40 -8 -89l-141 -799h-180l139 788q6 27 6 48q-1 8 -1 16q-4 26 -9 41.5t-20 23.5t-29 10.5t-35 2.5q-69 0 -135.5 -27.5t-97.5 -54.5l-150 -848h-180z" />
<glyph unicode="i" horiz-adv-x="425" d="M123 0l188 1065h181l-189 -1065h-180zM326 1284q8 47 47 81t86 34t76 -34q23 -27 24 -63q0 -9 -2 -18q-9 -49 -49 -83t-88 -34q-47 0 -75 35q-21 26 -21 60q0 11 2 22z" />
<glyph unicode="j" horiz-adv-x="425" d="M-178 -266l55 125q48 -23 98 -23q32 0 56 10.5t39.5 27t27.5 46.5t18.5 57.5t14.5 71.5l180 1016h181l-181 -1016q-33 -180 -110 -268t-213 -88q-119 0 -166 41zM326 1284q8 47 47 81t86 34t76 -34q23 -27 23 -63q0 -9 -1 -18q-9 -49 -49 -83t-88 -34q-47 0 -75 35 q-21 26 -21 60q0 11 2 22z" />
<glyph unicode="k" horiz-adv-x="825" d="M82 0l252 1434h180l-252 -1434h-180zM356 532l426 533h201l-436 -533l258 -532h-201z" />
<glyph unicode="l" horiz-adv-x="385" d="M102 0l252 1434h181l-252 -1434h-181z" />
<glyph unicode="m" horiz-adv-x="1267" d="M82 0l188 1065h158l-2 -107q67 53 129.5 84t136.5 31q147 0 172 -125q99 69 145 91q73 34 142 34q113 0 155 -75q27 -48 27 -121q0 -41 -8 -91l-139 -786h-180l133 754q6 36 6 65q1 35 -9 59q-18 44 -83 44q-72 0 -185 -76q-1 -9 -2 -29.5t-2 -30.5l-139 -786h-180 l133 754q6 40 6 73v13q-2 38 -24 60t-66 22q-79 0 -182 -78l-150 -844h-180z" />
<glyph unicode="n" horiz-adv-x="856" d="M82 0l188 1065h158l-2 -107q140 115 295 115q113 0 167 -62q36 -42 35 -123q0 -40 -8 -89l-141 -799h-180l139 788q6 27 6 48q-1 8 -1 16q-4 26 -9 41.5t-20 23.5t-29 10.5t-35 2.5q-69 0 -135.5 -27.5t-97.5 -54.5l-150 -848h-180z" />
<glyph unicode="o" horiz-adv-x="870" d="M134 268q-3 29 -3 61q0 79 16 181l9 43q25 140 72.5 243t110.5 162t133.5 87t150.5 28t141 -27t105.5 -88.5t54.5 -161.5q3 -30 3 -64q0 -79 -16 -179l-8 -43q-25 -139 -73 -242t-112 -161.5t-135 -86.5t-151 -28t-140.5 27t-104.5 89t-53 160zM328 510q-17 -95 -17 -166 q0 -209 148 -209q197 0 264 375l8 43q16 92 16 161q0 214 -149 214q-198 0 -262 -375z" />
<glyph unicode="p" horiz-adv-x="888" d="M10 -410l260 1475h158l-2 -107q85 115 250 115q86 0 145.5 -42t86 -116t30.5 -175q1 -17 1 -33q0 -87 -19 -185q-46 -257 -164.5 -393.5t-270.5 -136.5q-153 0 -206 104l-89 -506h-180zM301 217q22 -33 65 -54.5t97 -21.5q99 0 169.5 103t102.5 278q19 104 19 182 q0 220 -152 220q-54 0 -104.5 -21.5t-85.5 -54.5z" />
<glyph unicode="q" horiz-adv-x="888" d="M154 522q44 248 155.5 399.5t280.5 151.5q162 0 213 -115l35 107h157l-260 -1475h-180l88 506q-87 -104 -244 -104q-152 0 -221 136q-42 83 -42 208q0 84 18 186zM338 522q-15 -84 -15 -151q0 -73 18 -127q35 -103 134 -103q54 0 105.5 21.5t85.5 54.5l110 631 q-22 33 -65 54.5t-97 21.5q-204 0 -276 -402z" />
<glyph unicode="r" horiz-adv-x="555" d="M82 0l188 1065h156l-2 -109q161 108 289 115l-31 -174h-13q-65 1 -137 -17q-78 -20 -124 -53l-146 -827h-180z" />
<glyph unicode="s" horiz-adv-x="737" d="M61 61l70 115q34 -16 97.5 -25.5t113.5 -9.5q52 0 94 11.5t75 44t42 82.5q2 12 2 23q0 90 -117 169q-18 12 -57 34q-21 12 -31.5 18.5t-29.5 18.5t-29.5 20.5t-26.5 21.5t-24.5 25t-19.5 27t-16 31t-9 35t-3 40t5 44q28 156 120.5 221.5t239.5 65.5q86 0 173.5 -17 t125.5 -50l-70 -121q-39 17 -101.5 28t-115.5 11q-166 0 -186 -115q-6 -29 1 -55t18.5 -44.5t37.5 -39.5t45.5 -33t55.5 -34t55 -34q15 -10 26.5 -18t28 -21t27.5 -26t25 -31t20 -36.5t13.5 -43t5.5 -50t-5 -58.5q-54 -293 -387 -293q-83 0 -167 17t-122 52z" />
<glyph unicode="t" horiz-adv-x="628" d="M182 922l27 143h164l10 57l66 236h155l-51 -293h203l-27 -143h-203l-100 -574q-12 -64 -14 -112v-9q0 -41 21 -65q23 -27 75 -27q48 0 106 23l11 -125q-61 -41 -181 -41q-136 0 -182 88q-28 54 -28 141q0 57 12 127l100 574h-164z" />
<glyph unicode="u" horiz-adv-x="856" d="M129 266l141 799h181l-140 -789q-6 -27 -7 -48q0 -8 2 -16q4 -26 9 -41.5t20.5 -23t29 -10t34.5 -2.5q69 0 134.5 27t99.5 55l149 848h181l-189 -1065h-158l2 106q-138 -114 -296 -114q-113 0 -166 62q-36 42 -36 123q0 40 9 89z" />
<glyph unicode="v" horiz-adv-x="843" d="M209 1065h188l72 -795l354 795h189l-506 -1065h-168z" />
<glyph unicode="w" horiz-adv-x="1261" d="M229 1065h189l16 -784l314 784h143l35 -784l295 784h188l-428 -1065h-176l-41 754l-307 -754h-176z" />
<glyph unicode="x" horiz-adv-x="843" d="M20 0l355 532l-166 533h201l118 -465l283 465h201l-355 -533l166 -532h-200l-119 467l-283 -467h-201z" />
<glyph unicode="y" horiz-adv-x="843" d="M127 -410l207 439l-125 1036h188l74 -784l352 784h189l-701 -1475h-184z" />
<glyph unicode="z" horiz-adv-x="798" d="M61 0l15 82l602 840h-455l27 143h676l-15 -82l-604 -840h455l-25 -143h-676z" />
<glyph unicode="{" horiz-adv-x="671" d="M190 610l23 129q51 4 88.5 26.5t61 61t36.5 79t23 95.5l35 199q28 159 101.5 237.5t225.5 78.5h93l-27 -160h-64q-42 0 -67 -9t-39 -33.5t-21.5 -53t-16.5 -81.5q-1 -5 -1 -8l-35 -190q-46 -274 -198 -307q140 -35 92 -307l-35 -197q-5 -25 -6.5 -35.5t-4.5 -30.5 t-3 -27.5v-21.5t3 -19t7.5 -14t12.5 -12t18 -7.5t24 -5.5t31 -1h63l-28 -160h-93q-152 0 -198.5 77.5t-18.5 236.5l35 200q10 66 10.5 121.5t-31 94.5t-96.5 44z" />
<glyph unicode="|" horiz-adv-x="516" d="M135 -164l295 1680h188l-294 -1680h-189z" />
<glyph unicode="}" horiz-adv-x="671" d="M33 -164l28 160h64q33 0 55.5 6.5t36 16.5t22.5 32t14.5 44.5t12.5 62.5q1 8 2 12l35 197q48 272 199 307q-138 32 -92 307l34 190q1 4 2 11q18 101 11 129q-11 41 -74 44q-8 1 -18 1h-64l27 160h92q152 0 198.5 -78.5t18.5 -237.5l-35 -199q-10 -68 -10 -123.5t32 -94 t97 -44.5l-23 -129q-51 -4 -89 -26.5t-61.5 -61t-37 -79t-23.5 -93.5l-34 -200q-28 -159 -102 -236.5t-226 -77.5h-92z" />
<glyph unicode="~" horiz-adv-x="892" d="M168 602q1 5 3 12.5t12 30.5t22.5 43.5t35.5 46t50.5 43.5t68.5 30.5t89 12.5q41 0 75.5 -11.5t57.5 -27.5t43 -32t42 -27.5t44 -11.5q37 0 63.5 24.5t34.5 48.5l8 25l152 -35q-2 -9 -6.5 -23.5t-25.5 -52.5t-49.5 -67t-82 -52.5t-119.5 -23.5q-50 0 -91.5 17.5t-64 38 t-51 38t-55.5 17.5q-37 0 -64 -25t-35 -49l-8 -25z" />
<glyph unicode="&#xa1;" horiz-adv-x="421" d="M102 -360l205 1044h160l-164 -1044h-201zM305 946q9 52 53 89.5t97 37.5t84 -37.5t22 -89.5q-9 -54 -52.5 -90.5t-96.5 -36.5t-84.5 37.5t-22.5 89.5z" />
<glyph unicode="&#xa2;" horiz-adv-x="784" d="M144.5 249q-20.5 114 11.5 283q43 247 147 378t254 157l43 244h188l-43 -246q113 -17 166 -53l-67 -123q-107 35 -205 35q-111 0 -187.5 -94t-109.5 -285q-35 -194 9 -299t153 -105q98 0 213 35l24 -125q-60 -33 -184 -51l-43 -246h-188l43 244q-92 17 -148 77t-76.5 174 z" />
<glyph unicode="&#xa3;" horiz-adv-x="878" d="M41 0l29 160h123l112 639q14 78 23.5 128.5t25 113.5t30 103.5t36.5 87t47 75t59.5 57t75 44t92 25t113.5 9.5q77 0 145 -18t98 -36l29 -18l-69 -143q-103 43 -222 43q-45 0 -81.5 -10t-62.5 -28t-45.5 -45.5t-33 -60t-24 -74t-18.5 -85t-17 -95.5q-8 -48 -12 -73l-5 -21 h355l-29 -160h-354l-80 -458h461l-29 -160h-772z" />
<glyph unicode="&#xa4;" horiz-adv-x="1052" d="M143 332l129 106q-59 101 -34.5 224.5t114.5 226.5l-94 110l125 107l92 -113q111 76 235.5 75.5t211.5 -75.5l129 113l96 -107l-133 -110q53 -99 31.5 -225.5t-111.5 -225.5l94 -112l-129 -107l-96 111q-105 -70 -235 -69.5t-212 69.5l-131 -111zM387 664 q-19 -104 41.5 -180t167.5 -76q105 0 192.5 76t106.5 180q19 105 -42.5 180.5t-166.5 75.5q-107 0 -193.5 -75t-105.5 -181z" />
<glyph unicode="&#xa5;" horiz-adv-x="894" d="M143 240l27 155h252l27 152h-252l26 155h195l-146 732h205l109 -652l336 652h204l-403 -732h197l-27 -155h-256l-27 -152h256l-26 -155h-256l-43 -240h-189l43 240h-252z" />
<glyph unicode="&#xa6;" horiz-adv-x="516" d="M135 -164l115 653h188l-114 -653h-189zM336 981l117 657h188l-117 -657h-188z" />
<glyph unicode="&#xa7;" horiz-adv-x="737" d="M70 59l69 121q39 -17 101.5 -28t115.5 -11q167 0 187 115q6 35 -3 61.5t-34 47.5t-49 35.5t-65 36.5t-66 38q-20 12 -24.5 15t-24 17t-26 20.5l-22.5 22.5t-22 28.5t-15.5 32t-11.5 38.5t-2.5 44t4.5 52q16 88 59.5 134t116.5 73q-17 13 -27.5 21.5t-24 21.5t-21 25 t-15 28.5t-10 35t-2 42.5t5.5 52q46 264 359 264q85 0 172 -17.5t125 -50.5l-68 -121q-39 17 -102 28t-117 11q-167 0 -187 -114q-6 -35 3.5 -62t34.5 -48t50 -35.5t66 -36.5t66 -38q71 -45 98 -76q64 -75 43 -192q-14 -87 -58 -134t-118 -75q20 -15 32 -24.5t27 -25.5 t22.5 -31.5t13.5 -36.5t5.5 -48t-6.5 -59q-46 -264 -358 -264q-85 0 -172 17t-125 50zM367 752q-8 -44 12 -81.5t40 -53t65 -44.5l18 -12q108 28 123 123q5 14 2 29.5t-3.5 26t-8 23t-12 20.5t-16 18t-18.5 16t-20 15t-21 14t-21 13t-20 13q-50 -13 -81 -40.5t-39 -79.5z " />
<glyph unicode="&#xa8;" horiz-adv-x="780" d="M313 1311q8 48 51 85.5t95 37.5q49 0 78.5 -37.5t21.5 -85.5q-9 -54 -51 -91.5t-92 -37.5q-52 0 -82 37.5t-21 91.5zM684 1311q8 48 50.5 85.5t94.5 37.5q50 0 79.5 -37.5t21.5 -85.5q-9 -54 -51 -91.5t-93 -37.5q-52 0 -81.5 37.5t-20.5 91.5z" />
<glyph unicode="&#xa9;" horiz-adv-x="1273" d="M165 488q1 105 23 229t58 229t94.5 198t134.5 158t182.5 102.5t233.5 37.5t220 -37.5t146.5 -102.5t79 -158t25 -198t-22.5 -229q-19 -103 -47.5 -192.5t-70 -172.5t-98.5 -147.5t-127.5 -113t-162 -74t-198.5 -25.5q-127 0 -220 37.5t-146.5 102.5t-79 158t-24.5 198z M335.5 532.5q-2.5 -83.5 13.5 -158t52.5 -125t102.5 -79.5t158 -29q115 0 204 43.5t148 124t96.5 180.5t60.5 228q18 101 20.5 184.5t-13.5 157.5t-53 124.5t-103 79.5t-158 29t-168 -29t-130.5 -79.5t-96.5 -124.5t-68.5 -157t-44.5 -185q-18 -101 -20.5 -184.5zM463 532.5 q-3 50.5 0 94.5t12 90q10 57 25.5 109t46.5 112t72 103.5t106 72.5t143 29q110 0 189 -53l-68 -129q-66 34 -131 34q-159 0 -207 -278q-49 -281 109 -281q52 0 143 35l21 -129q-100 -53 -205 -53q-66 0 -115 19.5t-77 55t-44.5 77t-19.5 92z" />
<glyph unicode="&#xaa;" horiz-adv-x="573" d="M210.5 874q-8.5 42 0.5 91q29 160 172 192l172 37l6 39q9 51 -3.5 67.5t-63.5 16.5q-46 0 -156 -29l-23 105q95 49 213 49q114 0 157 -51.5t24 -157.5l-80 -457h-127v60q-79 -66 -156 -66q-58 0 -92.5 31t-43 73zM365 973q-14 -76 43 -76q47 0 100 35l24 139l-86 -18 q-38 -9 -56.5 -26.5t-24.5 -53.5z" />
<glyph unicode="&#xab;" horiz-adv-x="1290" d="M182 573l13 68l708 533l-37 -216l-473 -352l348 -350l-36 -215zM694 573l13 68l708 533l-37 -216l-473 -352l348 -350l-36 -215z" />
<glyph unicode="&#xac;" horiz-adv-x="901" d="M190 575l27 156h737l-73 -420h-185l47 264h-553z" />
<glyph unicode="&#xad;" horiz-adv-x="901" d="M190 610l27 156h737l-26 -156h-738z" />
<glyph unicode="&#xae;" horiz-adv-x="1273" d="M165 488q1 105 23 229t58 229t94.5 198t134.5 158t182.5 102.5t233.5 37.5t220 -37.5t146.5 -102.5t79 -158t25 -198t-22.5 -229q-19 -103 -47.5 -192.5t-70 -172.5t-98.5 -147.5t-127.5 -113t-162 -74t-198.5 -25.5q-127 0 -220 37.5t-146.5 102.5t-79 158t-24.5 198z M335.5 532.5q-2.5 -83.5 13.5 -158t52.5 -125t102.5 -79.5t158 -29q115 0 204 43.5t148 124t96.5 180.5t60.5 228q18 101 20.5 184.5t-13.5 157.5t-53 124.5t-103 79.5t-158 29t-168 -29t-130.5 -79.5t-96.5 -124.5t-68.5 -157t-44.5 -185q-18 -101 -20.5 -184.5zM463 295 l151 850h228q123 0 178.5 -67t36.5 -177q-13 -73 -57.5 -133.5t-118.5 -91.5l100 -381h-176l-80 354h-31l-63 -354h-168zM719 793h43q112 0 131 112q9 51 -13 73.5t-81 22.5h-43z" />
<glyph unicode="&#xaf;" horiz-adv-x="942" d="M311 1536l29 156h860l-29 -156h-860z" />
<glyph unicode="&#xb0;" horiz-adv-x="595" d="M245 1025.5q-10 53.5 1 131.5q13 75 45.5 132t75.5 89.5t89.5 48t94.5 15.5q49 0 90 -15t74.5 -49t44.5 -88.5t0 -132.5q-26 -144 -114.5 -212t-194.5 -68q-49 0 -89 14.5t-73.5 47.5t-43.5 86.5zM383 1159q-16 -85 11.5 -117t80.5 -32q56 0 95 31.5t55 117.5 q16 85 -13 116.5t-86 31.5q-53 0 -90 -31.5t-53 -116.5z" />
<glyph unicode="&#xb1;" horiz-adv-x="1009" d="M190 0l27 156h737l-26 -156h-738zM299 610l27 156h276l51 293h185l-52 -293h277l-27 -156h-276l-53 -293h-185l53 293h-276z" />
<glyph unicode="&#xb2;" horiz-adv-x="567" d="M197 692l22 127q12 73 50 130.5t83.5 92.5t90 64.5t78 64t40.5 74.5q6 34 -11 47t-63 13q-66 0 -149 -27l-21 113q99 51 205 51q108 0 160.5 -45t34.5 -144q-12 -66 -49 -118.5t-83 -86t-91 -64.5t-80 -70t-43 -87h262l-23 -135h-413z" />
<glyph unicode="&#xb3;" horiz-adv-x="571" d="M193 739l61 115q74 -27 137 -27q56 0 82 20.5t35 74.5q9 44 -15.5 70t-68.5 26h-70l23 131h69q43 0 72.5 24t36.5 68q6 35 -12.5 49.5t-63.5 14.5q-62 0 -145 -27l-21 113q62 29 103 40t100 11q227 0 193 -205q-9 -49 -43 -89.5t-84 -62.5q104 -36 80 -165 q-19 -109 -91.5 -170.5t-193.5 -61.5q-110 0 -184 51z" />
<glyph unicode="&#xb4;" horiz-adv-x="460" d="M270 1188l207 409h205l-248 -409h-164z" />
<glyph unicode="&#xb6;" horiz-adv-x="1163" d="M238 1004q22 122 66 207.5t109.5 133.5t142.5 68.5t175 20.5h602l-252 -1434h-178l225 1280h-141l-225 -1280h-178l106 606q-67 -18 -135 -18q-186 0 -271 96.5t-46 319.5z" />
<glyph unicode="&#xb7;" horiz-adv-x="632" d="M268 649q10 66 68 113t127 47q66 0 104 -47t27 -113q-12 -69 -67 -116.5t-121 -47.5q-69 0 -109.5 47.5t-28.5 116.5z" />
<glyph unicode="&#xb8;" horiz-adv-x="643" d="M-41 -469l64 107q79 -29 139 -29q46 0 80 2.5t70.5 11t58.5 26.5t26 46q7 48 -21 62t-112 14h-186l18 69l172 232h168l-137 -183q32 0 55.5 -1t49.5 -4t44 -7t36.5 -11.5t30.5 -18t21.5 -24.5t13.5 -32.5t4 -42.5t-5 -53q-13 -68 -50.5 -113t-97.5 -66t-119 -28.5 t-139 -7.5q-107 0 -184 51z" />
<glyph unicode="&#xb9;" horiz-adv-x="514" d="M248 1169l24 144q6 3 40.5 16.5t54.5 22.5t50 23.5t51.5 29.5t35.5 29h119l-131 -746h-154l100 567q-36 -24 -91.5 -49t-98.5 -37z" />
<glyph unicode="&#xba;" horiz-adv-x="641" d="M262 1077q10 54 23.5 101t39 97t58 85.5t81.5 58.5t109 23q251 0 183 -389q-10 -53 -24 -100.5t-40 -97.5t-59.5 -85.5t-83 -58.5t-109.5 -23q-251 0 -178 389zM416 1065q-42 -240 49 -240q31 0 56.5 27.5t41.5 71.5t25 77t14 64q4 23 7 47.5t4 61t-4 64t-20 47.5t-40 20 q-31 0 -56.5 -28.5t-40.5 -72.5t-23.5 -77t-12.5 -62z" />
<glyph unicode="&#xbb;" horiz-adv-x="1290" d="M90 41l37 215l471 350l-346 352l37 216l520 -533l-12 -68zM602 41l37 215l471 350l-346 352l37 216l520 -533l-12 -68z" />
<glyph unicode="&#xbc;" horiz-adv-x="1138" d="M248 1169l24 144q6 3 40.5 16.5t54.5 22.5t50 23.5t51.5 29.5t35.5 29h119l-123 -705h-154l92 526q-36 -24 -91.5 -49t-98.5 -37zM317 0l615 1434h164l-615 -1434h-164zM664 137l10 60l352 546h131l-84 -475h72l-23 -131h-71l-25 -137h-152l25 137h-235zM840 268h92 l37 207z" />
<glyph unicode="&#xbd;" horiz-adv-x="1241" d="M248 1169l24 144q6 3 40.5 16.5t54.5 22.5t50 23.5t51.5 29.5t35.5 29h119l-123 -705h-154l92 526q-36 -24 -91.5 -49t-98.5 -37zM317 0l615 1434h164l-615 -1434h-164zM748 0l22 127q13 73 51 130.5t83.5 92.5t90 64.5t78.5 64t41 74.5q6 34 -11 46.5t-63 12.5 q-68 0 -151 -26l-21 112q101 52 207 52q108 0 159.5 -44.5t33.5 -144.5q-8 -48 -30 -89t-51 -69.5t-62 -53.5t-65.5 -48t-60.5 -46t-48.5 -53.5t-26.5 -66.5h262l-25 -135h-413z" />
<glyph unicode="&#xbe;" horiz-adv-x="1189" d="M193 739l61 115q74 -27 137 -27q56 0 82 20.5t35 74.5q9 44 -15.5 70t-68.5 26h-70l23 131h69q43 0 72.5 24t36.5 68q6 35 -12.5 49.5t-63.5 14.5q-62 0 -145 -27l-21 113q62 29 103 40t100 11q227 0 193 -205q-9 -49 -43 -89.5t-84 -62.5q104 -36 80 -165 q-19 -109 -91.5 -170.5t-193.5 -61.5q-110 0 -184 51zM369 0l614 1434h164l-615 -1434h-163zM715 137l10 60l352 546h131l-84 -475h72l-22 -131h-72l-25 -137h-151l24 137h-235zM891 268h92l37 207z" />
<glyph unicode="&#xbf;" horiz-adv-x="821" d="M63 -49q11 64 35 115t54 86.5t64.5 67.5t69.5 67t66 75.5t57 102t40 137.5l14 82h188l-14 -82q-15 -86 -42.5 -156.5t-60 -117t-68 -85t-70 -69.5t-63.5 -61t-51 -69t-30 -85q-14 -89 30 -123.5t138 -34.5q134 0 262 41l27 -137q-69 -36 -167 -55t-184 -19 q-173 0 -248 81t-47 239zM473 946q9 52 54 89.5t98 37.5q52 0 82.5 -37t21.5 -90t-52 -90t-95 -37q-53 0 -85.5 37t-23.5 90z" />
<glyph unicode="&#xc0;" horiz-adv-x="880" d="M20 0l578 1434h188l74 -1434h-192l-13 358h-303l-139 -358h-193zM414 518h237l-20 557zM547 1966h205l61 -410h-164z" />
<glyph unicode="&#xc1;" horiz-adv-x="880" d="M20 0l578 1434h188l74 -1434h-192l-13 358h-303l-139 -358h-193zM414 518h237l-20 557zM639 1556l205 410h205l-246 -410h-164z" />
<glyph unicode="&#xc2;" horiz-adv-x="880" d="M20 0l578 1434h188l74 -1434h-192l-13 358h-303l-139 -358h-193zM414 518h237l-20 557zM418 1556l315 410h107l172 -410h-185l-73 216l-152 -216h-184z" />
<glyph unicode="&#xc3;" horiz-adv-x="880" d="M20 0l578 1434h188l74 -1434h-192l-13 358h-303l-139 -358h-193zM379 1604l2.5 12.5t8.5 30.5t17.5 43.5t31.5 46t46.5 43.5t65.5 30.5t88 12.5q43 0 76.5 -17.5t51 -38t42 -38t51.5 -17.5q37 0 58.5 24.5t24.5 49.5l3 24l152 -34q-1 -9 -4 -24t-20.5 -52.5t-43 -66.5 t-77 -53t-117.5 -24q-43 0 -76.5 17.5t-50.5 38t-41.5 38t-51.5 17.5q-37 0 -59 -24.5t-25 -48.5l-4 -25zM414 518h237l-20 557z" />
<glyph unicode="&#xc4;" horiz-adv-x="880" d="M20 0l578 1434h188l74 -1434h-192l-13 358h-303l-139 -358h-193zM414 518h237l-20 557zM430 1700q9 51 53.5 87t96.5 36q51 0 80 -36t20 -87q-7 -51 -49.5 -87t-93.5 -36t-82.5 36t-24.5 87zM801 1700q9 51 53.5 87t97.5 36q50 0 79 -36t20 -87q-7 -51 -49.5 -87 t-92.5 -36q-52 0 -84 36t-24 87z" />
<glyph unicode="&#xc5;" horiz-adv-x="880" d="M20 0l549 1358q-47 27 -69.5 74.5t-12.5 107.5q17 93 92.5 153t168.5 60t150 -60t40 -153q-10 -58 -50 -105.5t-97 -74.5l69 -1360h-192l-13 358h-303l-139 -358h-193zM414 518h237l-20 557zM631 1540q-6 -31 12 -53.5t53 -22.5t64 22.5t35 53.5q6 37 -14.5 58.5 t-57.5 21.5q-36 0 -61 -21t-31 -59z" />
<glyph unicode="&#xc6;" horiz-adv-x="1402" d="M20 0l920 1434h653l-26 -160h-441l-79 -455h354l-29 -160h-354l-88 -499h440l-29 -160h-628l63 358h-323l-232 -358h-201zM555 518h250l94 537z" />
<glyph unicode="&#xc7;" horiz-adv-x="892" d="M162 -469l63 107q79 -29 140 -29q46 0 80 2.5t70.5 11t58.5 26.5t26 46q7 48 -21 62t-112 14h-186l18 69l125 168q-339 93 -231 709q22 125 55 230t85.5 198t119 157.5t158 102t200.5 37.5q77 0 145 -18t98 -36l29 -18l-69 -143q-103 43 -209 43q-78 0 -141.5 -32.5 t-105.5 -83.5t-75 -127t-51.5 -148t-34.5 -162q-13 -74 -19.5 -135.5t-7 -127.5t13.5 -115.5t40 -90.5t73.5 -62.5t112.5 -21.5q47 0 103 11t89 21l32 11l18 -144q-12 -7 -35 -18t-94 -30.5t-143 -22.5l-78 -103q32 0 55.5 -1t49.5 -4t44 -7t36.5 -11.5t30.5 -18t21.5 -24.5 t13.5 -32.5t4 -42.5t-5 -53q-13 -68 -50.5 -113t-97.5 -66t-119 -28.5t-139 -7.5q-107 0 -184 51z" />
<glyph unicode="&#xc8;" horiz-adv-x="772" d="M82 0l252 1434h629l-27 -160h-440l-80 -455h354l-29 -160h-354l-88 -499h440l-28 -160h-629zM547 1966h205l61 -410h-164z" />
<glyph unicode="&#xc9;" horiz-adv-x="796" d="M82 0l252 1434h629l-27 -160h-440l-80 -455h354l-29 -160h-354l-88 -499h440l-28 -160h-629zM578 1556l204 410h205l-246 -410h-163z" />
<glyph unicode="&#xca;" horiz-adv-x="780" d="M82 0l252 1434h629l-27 -160h-440l-80 -455h354l-29 -160h-354l-88 -499h440l-28 -160h-629zM377 1556l315 410h107l172 -410h-185l-73 216l-152 -216h-184z" />
<glyph unicode="&#xcb;" horiz-adv-x="825" d="M82 0l252 1434h629l-27 -160h-440l-80 -455h354l-29 -160h-354l-88 -499h440l-28 -160h-629zM393 1700q9 51 53.5 87t96.5 36q51 0 80 -36t20 -87q-7 -51 -49.5 -87t-93.5 -36t-82.5 36t-24.5 87zM764 1700q9 51 53.5 87t97.5 36q50 0 79 -36t20 -87q-7 -51 -49.5 -87 t-92.5 -36q-52 0 -84 36t-24 87z" />
<glyph unicode="&#xcc;" horiz-adv-x="434" d="M123 0l252 1434h188l-252 -1434h-188zM309 1966h205l61 -410h-163z" />
<glyph unicode="&#xcd;" horiz-adv-x="434" d="M123 0l252 1434h188l-252 -1434h-188zM403 1556l205 410h205l-246 -410h-164z" />
<glyph unicode="&#xce;" horiz-adv-x="434" d="M123 0l252 1434h188l-252 -1434h-188zM195 1556l315 410h106l172 -410h-184l-74 216l-151 -216h-184z" />
<glyph unicode="&#xcf;" horiz-adv-x="434" d="M123 0l252 1434h188l-252 -1434h-188zM205 1700q9 51 53.5 87t95.5 36t80.5 -36t20.5 -87q-7 -51 -50 -87t-94 -36t-82 36t-24 87zM575 1700q9 51 54 87t98 36q50 0 78.5 -36t19.5 -87q-7 -51 -49 -87t-92 -36q-53 0 -84.5 36t-24.5 87z" />
<glyph unicode="&#xd0;" horiz-adv-x="1013" d="M137 659l29 160h143l107 615h225q92 0 163.5 -11.5t124 -36t89 -56.5t57.5 -80t31 -100t8 -122.5t-10.5 -141t-24.5 -161.5q-16 -92 -32.5 -163.5t-40 -143.5t-52 -125.5t-66.5 -102.5t-86.5 -82.5t-110 -58.5t-138 -37t-168.5 -12h-221l117 659h-144zM381 160h29 q77 0 137 13.5t103.5 34.5t77.5 62.5t55.5 79.5t41 106t30 121t26.5 144q29 176 36.5 299t-64.5 188.5t-245 65.5h-30l-80 -455h211l-29 -160h-211z" />
<glyph unicode="&#xd1;" horiz-adv-x="987" d="M92 0l252 1434h188l236 -1033l180 1033h189l-252 -1434h-189l-233 1032l-182 -1032h-189zM428 1604l2.5 12.5t8.5 30.5t17.5 43.5t31.5 46t46.5 43.5t65.5 30.5t88 12.5q43 0 76.5 -17.5t51 -38t42 -38t51.5 -17.5q37 0 58.5 24.5t24.5 49.5l3 24l152 -34q-1 -9 -4 -24 t-20.5 -52.5t-43 -66.5t-77 -53t-117.5 -24q-43 0 -76 17.5t-50.5 38t-41.5 38t-51 17.5q-37 0 -59 -24.5t-25 -48.5l-4 -25z" />
<glyph unicode="&#xd2;" horiz-adv-x="1005" d="M166.5 401q2.5 75 11 141.5t23.5 149.5l8 47q14 83 29.5 149.5t39.5 142t52.5 132.5t70.5 111.5t91.5 90t117 56.5t146.5 21t139 -21t97.5 -56.5t60.5 -90t32 -111.5t7 -132t-10.5 -142t-22.5 -150l-8 -47q-15 -83 -30.5 -149.5t-40 -141.5t-53.5 -132t-71 -111t-92 -89 t-117.5 -56t-146.5 -21t-139 21t-97.5 56t-60 89t-31 111t-6 132zM368.5 430q-0.5 -38 1.5 -83.5t13.5 -75t29.5 -56t47.5 -39t69.5 -12.5q45 0 84 18.5t67 46t53.5 74.5t41.5 89t32 105.5t25 107.5t21 110q8 45 13 76.5t11 76.5t8 77t3.5 72t-2.5 68.5t-10.5 59.5t-20 51.5 t-31 37.5t-43 25.5t-57.5 8.5q-45 0 -84 -18.5t-67 -46.5t-52.5 -75t-40 -89t-31.5 -106t-24.5 -107.5t-19.5 -110.5q-10 -58 -16.5 -96t-13.5 -94.5t-7.5 -94.5zM639 1966h205l61 -410h-164z" />
<glyph unicode="&#xd3;" horiz-adv-x="1005" d="M166.5 401q2.5 75 11 141.5t23.5 149.5l8 47q14 83 29.5 149.5t39.5 142t52.5 132.5t70.5 111.5t91.5 90t117 56.5t146.5 21t139 -21t97.5 -56.5t60.5 -90t32 -111.5t7 -132t-10.5 -142t-22.5 -150l-8 -47q-15 -83 -30.5 -149.5t-40 -141.5t-53.5 -132t-71 -111t-92 -89 t-117.5 -56t-146.5 -21t-139 21t-97.5 56t-60 89t-31 111t-6 132zM368.5 430q-0.5 -38 1.5 -83.5t13.5 -75t29.5 -56t47.5 -39t69.5 -12.5q45 0 84 18.5t67 46t53.5 74.5t41.5 89t32 105.5t25 107.5t21 110q8 45 13 76.5t11 76.5t8 77t3.5 72t-2.5 68.5t-10.5 59.5t-20 51.5 t-31 37.5t-43 25.5t-57.5 8.5q-45 0 -84 -18.5t-67 -46.5t-52.5 -75t-40 -89t-31.5 -106t-24.5 -107.5t-19.5 -110.5q-10 -58 -16.5 -96t-13.5 -94.5t-7.5 -94.5zM690 1556l205 410h205l-246 -410h-164z" />
<glyph unicode="&#xd4;" horiz-adv-x="1005" d="M166.5 401q2.5 75 11 141.5t23.5 149.5l8 47q14 83 29.5 149.5t39.5 142t52.5 132.5t70.5 111.5t91.5 90t117 56.5t146.5 21t139 -21t97.5 -56.5t60.5 -90t32 -111.5t7 -132t-10.5 -142t-22.5 -150l-8 -47q-15 -83 -30.5 -149.5t-40 -141.5t-53.5 -132t-71 -111t-92 -89 t-117.5 -56t-146.5 -21t-139 21t-97.5 56t-60 89t-31 111t-6 132zM368.5 430q-0.5 -38 1.5 -83.5t13.5 -75t29.5 -56t47.5 -39t69.5 -12.5q45 0 84 18.5t67 46t53.5 74.5t41.5 89t32 105.5t25 107.5t21 110q8 45 13 76.5t11 76.5t8 77t3.5 72t-2.5 68.5t-10.5 59.5t-20 51.5 t-31 37.5t-43 25.5t-57.5 8.5q-45 0 -84 -18.5t-67 -46.5t-52.5 -75t-40 -89t-31.5 -106t-24.5 -107.5t-19.5 -110.5q-10 -58 -16.5 -96t-13.5 -94.5t-7.5 -94.5zM481 1556l316 410h106l172 -410h-184l-74 216l-151 -216h-185z" />
<glyph unicode="&#xd5;" horiz-adv-x="1005" d="M166.5 401q2.5 75 11 141.5t23.5 149.5l8 47q14 83 29.5 149.5t39.5 142t52.5 132.5t70.5 111.5t91.5 90t117 56.5t146.5 21t139 -21t97.5 -56.5t60.5 -90t32 -111.5t7 -132t-10.5 -142t-22.5 -150l-8 -47q-15 -83 -30.5 -149.5t-40 -141.5t-53.5 -132t-71 -111t-92 -89 t-117.5 -56t-146.5 -21t-139 21t-97.5 56t-60 89t-31 111t-6 132zM368.5 430q-0.5 -38 1.5 -83.5t13.5 -75t29.5 -56t47.5 -39t69.5 -12.5q45 0 84 18.5t67 46t53.5 74.5t41.5 89t32 105.5t25 107.5t21 110q8 45 13 76.5t11 76.5t8 77t3.5 72t-2.5 68.5t-10.5 59.5t-20 51.5 t-31 37.5t-43 25.5t-57.5 8.5q-45 0 -84 -18.5t-67 -46.5t-52.5 -75t-40 -89t-31.5 -106t-24.5 -107.5t-19.5 -110.5q-10 -58 -16.5 -96t-13.5 -94.5t-7.5 -94.5zM442 1604l2.5 12.5t8.5 30.5t17.5 43.5t31.5 46t46.5 43.5t65.5 30.5t88 12.5q43 0 76.5 -17.5t51.5 -38 t42.5 -38t51.5 -17.5q37 0 58.5 24.5t24.5 49.5l3 24l151 -34q-1 -9 -4 -24t-20.5 -52.5t-43 -66.5t-77 -53t-117.5 -24q-43 0 -76 17.5t-50.5 38t-41.5 38t-51 17.5q-37 0 -59 -24.5t-25 -48.5l-4 -25z" />
<glyph unicode="&#xd6;" horiz-adv-x="1005" d="M166.5 401q2.5 75 11 141.5t23.5 149.5l8 47q14 83 29.5 149.5t39.5 142t52.5 132.5t70.5 111.5t91.5 90t117 56.5t146.5 21t139 -21t97.5 -56.5t60.5 -90t32 -111.5t7 -132t-10.5 -142t-22.5 -150l-8 -47q-15 -83 -30.5 -149.5t-40 -141.5t-53.5 -132t-71 -111t-92 -89 t-117.5 -56t-146.5 -21t-139 21t-97.5 56t-60 89t-31 111t-6 132zM368.5 430q-0.5 -38 1.5 -83.5t13.5 -75t29.5 -56t47.5 -39t69.5 -12.5q45 0 84 18.5t67 46t53.5 74.5t41.5 89t32 105.5t25 107.5t21 110q8 45 13 76.5t11 76.5t8 77t3.5 72t-2.5 68.5t-10.5 59.5t-20 51.5 t-31 37.5t-43 25.5t-57.5 8.5q-45 0 -84 -18.5t-67 -46.5t-52.5 -75t-40 -89t-31.5 -106t-24.5 -107.5t-19.5 -110.5q-10 -58 -16.5 -96t-13.5 -94.5t-7.5 -94.5zM496 1700q9 51 53.5 87t95.5 36t80 -36t20 -87q-7 -51 -49.5 -87t-93.5 -36t-82 36t-24 87zM866 1700 q9 51 54 87t98 36q50 0 78.5 -36t19.5 -87q-7 -51 -49 -87t-92 -36q-53 0 -84.5 36t-24.5 87z" />
<glyph unicode="&#xd7;" horiz-adv-x="823" d="M164 469l258 219l-180 219l131 111l180 -219l258 219l90 -111l-258 -219l180 -219l-129 -111l-180 220l-258 -220z" />
<glyph unicode="&#xd8;" horiz-adv-x="1005" d="M166.5 401q2.5 75 11 141.5t23.5 149.5l8 47q14 83 29.5 149.5t39.5 142t52.5 132.5t70.5 111.5t91.5 90t117 56.5t146.5 21t139 -21t97.5 -56.5t60.5 -90t32 -111.5t7 -132t-10.5 -142t-22.5 -150l-8 -47q-15 -83 -30.5 -149.5t-40 -141.5t-53.5 -132t-71 -111t-92 -89 t-117.5 -56t-146.5 -21t-139 21t-97.5 56t-60 89t-31 111t-6 132zM377 295l411 962q-22 11 -63 11q-45 0 -84 -18.5t-67 -46.5t-52.5 -75t-40 -89t-31.5 -106t-24.5 -107.5t-19.5 -110.5q-56 -300 -29 -420zM469 174q27 -10 61 -10q45 0 84 18.5t67 46t53.5 74.5t41.5 89 t32 105.5t25 107.5t21 110q52 297 27 418z" />
<glyph unicode="&#xd9;" horiz-adv-x="1013" d="M169 318.5q0 64.5 7 127.5t21 144l147 844h188l-143 -822q-33 -182 -35 -242q-5 -149 84 -189q39 -17 97 -17q55 0 98.5 15t73 45.5t50.5 66t35.5 87t24 97.5t20.5 107q3 20 5 30l143 822h189l-148 -844q-20 -114 -43.5 -197.5t-63.5 -163t-94 -129t-135 -79t-186 -29.5 q-75 0 -132.5 15t-95.5 41.5t-62 69t-34.5 89.5t-10.5 111.5zM639 1966h205l61 -410h-164z" />
<glyph unicode="&#xda;" horiz-adv-x="1013" d="M169 318.5q0 64.5 7 127.5t21 144l147 844h188l-143 -822q-33 -182 -35 -242q-5 -149 84 -189q39 -17 97 -17q55 0 98.5 15t73 45.5t50.5 66t35.5 87t24 97.5t20.5 107q3 20 5 30l143 822h189l-148 -844q-20 -114 -43.5 -197.5t-63.5 -163t-94 -129t-135 -79t-186 -29.5 q-75 0 -132.5 15t-95.5 41.5t-62 69t-34.5 89.5t-10.5 111.5zM690 1556l205 410h205l-246 -410h-164z" />
<glyph unicode="&#xdb;" horiz-adv-x="1013" d="M169 318.5q0 64.5 7 127.5t21 144l147 844h188l-143 -822q-33 -182 -35 -242q-5 -149 84 -189q39 -17 97 -17q55 0 98.5 15t73 45.5t50.5 66t35.5 87t24 97.5t20.5 107q3 20 5 30l143 822h189l-148 -844q-20 -114 -43.5 -197.5t-63.5 -163t-94 -129t-135 -79t-186 -29.5 q-75 0 -132.5 15t-95.5 41.5t-62 69t-34.5 89.5t-10.5 111.5zM485 1556l316 410h106l172 -410h-184l-74 216l-151 -216h-185z" />
<glyph unicode="&#xdc;" horiz-adv-x="1013" d="M169 318.5q0 64.5 7 127.5t21 144l147 844h188l-143 -822q-33 -182 -35 -242q-5 -149 84 -189q39 -17 97 -17q55 0 98.5 15t73 45.5t50.5 66t35.5 87t24 97.5t20.5 107q3 20 5 30l143 822h189l-148 -844q-20 -114 -43.5 -197.5t-63.5 -163t-94 -129t-135 -79t-186 -29.5 q-75 0 -132.5 15t-95.5 41.5t-62 69t-34.5 89.5t-10.5 111.5zM496 1700q9 51 53.5 87t95.5 36t80 -36t20 -87q-7 -51 -49.5 -87t-93.5 -36t-82 36t-24 87zM866 1700q9 51 54 87t98 36q50 0 78.5 -36t19.5 -87q-7 -51 -49 -87t-92 -36q-53 0 -84.5 36t-24.5 87z" />
<glyph unicode="&#xdd;" horiz-adv-x="894" d="M272 1434h205l109 -652l336 652h204l-489 -887l-96 -547h-189l97 547zM649 1556l205 410h205l-246 -410h-164z" />
<glyph unicode="&#xde;" horiz-adv-x="813" d="M82 0l252 1434h188l-57 -332h160q185 0 275 -100t56 -289q-33 -191 -161.5 -299.5t-311.5 -108.5h-159l-54 -305h-188zM352 465h133q124 0 195.5 68.5t93.5 183.5q19 111 -29.5 168t-175.5 57h-133z" />
<glyph unicode="&#xdf;" horiz-adv-x="976" d="M92 0l189 1063q17 98 46 166t79 117.5t125 72.5t180 23q80 0 142.5 -17.5t100 -48.5t61.5 -72t27 -87.5t-4 -96.5q0 -2 -4 -27.5t-4 -27.5q-41 -228 -239 -281q43 -13 76.5 -30t66 -47t48.5 -69.5t23.5 -97t-8.5 -130.5q-39 -223 -191.5 -330.5t-367.5 -79.5l27 152 q138 -21 228.5 46t117.5 218q15 86 -0.5 147.5t-56 92.5t-87 44t-104.5 13l25 135q109 0 170.5 47.5t81.5 159.5q0 2 4 25.5t4 25.5q14 80 -21.5 132t-142.5 52q-59 0 -97 -13.5t-62 -48t-36 -75t-24 -111.5l-184 -1042h-189z" />
<glyph unicode="&#xe0;" horiz-adv-x="815" d="M92 293q50 273 316 319l262 45l14 91q19 101 -9 139.5t-130 38.5q-112 0 -244 -39l-27 123q52 28 145 45.5t171 17.5q177 0 241 -76t33 -249l-131 -748h-158l3 106q-48 -33 -84 -54.5t-92 -40.5t-109 -19q-117 0 -171 83t-30 218zM283 305q-13 -73 12.5 -118.5 t91.5 -45.5q97 0 205 76l51 295l-188 -39q-76 -18 -117.5 -57t-54.5 -111zM524 1597h205l59 -409h-163z" />
<glyph unicode="&#xe1;" horiz-adv-x="815" d="M92 293q50 273 316 319l262 45l14 91q19 101 -9 139.5t-130 38.5q-112 0 -244 -39l-27 123q52 28 145 45.5t171 17.5q177 0 241 -76t33 -249l-131 -748h-158l3 106q-48 -33 -84 -54.5t-92 -40.5t-109 -19q-117 0 -171 83t-30 218zM283 305q-13 -73 12.5 -118.5 t91.5 -45.5q97 0 205 76l51 295l-188 -39q-76 -18 -117.5 -57t-54.5 -111zM526 1188l207 409h205l-248 -409h-164z" />
<glyph unicode="&#xe2;" horiz-adv-x="815" d="M92 293q50 273 316 319l262 45l14 91q19 101 -9 139.5t-130 38.5q-112 0 -244 -39l-27 123q52 28 145 45.5t171 17.5q177 0 241 -76t33 -249l-131 -748h-158l3 106q-48 -33 -84 -54.5t-92 -40.5t-109 -19q-117 0 -171 83t-30 218zM283 305q-13 -73 12.5 -118.5 t91.5 -45.5q97 0 205 76l51 295l-188 -39q-76 -18 -117.5 -57t-54.5 -111zM336 1188l317 409h107l170 -409h-185l-73 215l-152 -215h-184z" />
<glyph unicode="&#xe3;" horiz-adv-x="815" d="M92 293q50 273 316 319l262 45l14 91q19 101 -9 139.5t-130 38.5q-112 0 -244 -39l-27 123q52 28 145 45.5t171 17.5q177 0 241 -76t33 -249l-131 -748h-158l3 106q-48 -33 -84 -54.5t-92 -40.5t-109 -19q-117 0 -171 83t-30 218zM283 305q-13 -73 12.5 -118.5 t91.5 -45.5q97 0 205 76l51 295l-188 -39q-76 -18 -117.5 -57t-54.5 -111zM313 1235l2.5 12.5t8.5 30.5t17.5 43.5t31.5 46t46.5 43.5t65.5 30.5t88 12.5q43 0 77 -17.5t52 -38t43 -38t52 -17.5q37 0 58 24.5t23 49.5l3 25l151 -35q-1 -5 -2 -12.5t-8.5 -30.5t-18 -43.5 t-31.5 -46t-47 -43.5t-66.5 -30.5t-88.5 -12.5q-43 0 -76 17t-50.5 38t-41.5 38t-51 17q-37 0 -59 -24.5t-26 -49.5l-3 -24z" />
<glyph unicode="&#xe4;" horiz-adv-x="815" d="M92 293q50 273 316 319l262 45l14 91q19 101 -9 139.5t-130 38.5q-112 0 -244 -39l-27 123q52 28 145 45.5t171 17.5q177 0 241 -76t33 -249l-131 -748h-158l3 106q-48 -33 -84 -54.5t-92 -40.5t-109 -19q-117 0 -171 83t-30 218zM283 305q-13 -73 12.5 -118.5 t91.5 -45.5q97 0 205 76l51 295l-188 -39q-76 -18 -117.5 -57t-54.5 -111zM356 1331q7 50 51.5 86.5t96.5 36.5q51 0 80.5 -36t21.5 -87q-9 -51 -51.5 -87t-93.5 -36t-82.5 36t-22.5 87zM727 1331q7 51 52 87t98 36q49 0 78.5 -36t21.5 -87q-9 -51 -51 -87t-92 -36 q-53 0 -84.5 36t-22.5 87z" />
<glyph unicode="&#xe5;" horiz-adv-x="815" d="M92 293q50 273 316 319l262 45l14 91q19 101 -9 139.5t-130 38.5q-112 0 -244 -39l-27 123q52 28 145 45.5t171 17.5q177 0 241 -76t33 -249l-131 -748h-158l3 106q-48 -33 -84 -54.5t-92 -40.5t-109 -19q-117 0 -171 83t-30 218zM283 305q-13 -73 12.5 -118.5 t91.5 -45.5q97 0 205 76l51 295l-188 -39q-76 -18 -117.5 -57t-54.5 -111zM461 1395q17 93 92 153t168 60t150 -60t40 -153q-15 -89 -93 -148t-171 -59q-92 0 -146.5 59t-39.5 148zM604 1395q-5 -31 14 -53.5t54 -22.5t63 22.5t33 53.5q6 37 -14 58.5t-56 21.5t-62 -21.5 t-32 -58.5z" />
<glyph unicode="&#xe6;" horiz-adv-x="1300" d="M92 293q50 273 316 319l262 45l14 91q19 101 -9 139.5t-130 38.5q-112 0 -244 -39l-27 123q52 28 145 45.5t171 17.5q97 0 161.5 -34.5t82.5 -92.5q32 55 112 91t154 36q62 0 109 -12.5t84.5 -41t56 -75.5t23.5 -116t-13 -162q-19 -120 -41 -197h-504q-24 -182 17 -257 t147 -75q101 0 229 39l25 -125q-50 -27 -137 -43t-164 -16q-197 0 -264 129q-76 -64 -167 -96.5t-161 -32.5q-153 0 -212.5 80.5t-35.5 220.5zM283 305q-13 -74 12.5 -121t91.5 -47q88 0 246 113q-14 118 10 262l-188 -39q-76 -18 -117.5 -57t-54.5 -111zM840 608h342 q7 37 10 58q26 143 -3 205.5t-114 62.5q-83 0 -141 -79.5t-94 -246.5z" />
<glyph unicode="&#xe7;" horiz-adv-x="843" d="M135 -469l64 107q79 -29 139 -29q46 0 80 2.5t70.5 11t58.5 26.5t26 46q7 48 -21 62t-112 14h-186l18 69l125 166q-262 74 -182 526q49 279 174 410t305 131q78 0 157 -16.5t120 -44.5l-68 -123q-107 35 -205 35q-111 0 -187.5 -94t-109.5 -285q-35 -194 9 -299t153 -105 q98 0 213 35l25 -125q-85 -46 -248 -57l-78 -105q32 0 55.5 -1t49.5 -4t44 -7t36.5 -11.5t30.5 -18t21.5 -24.5t13.5 -32.5t4 -42.5t-5 -53q-13 -68 -50.5 -113t-97.5 -66t-119 -28.5t-139 -7.5q-107 0 -184 51z" />
<glyph unicode="&#xe8;" horiz-adv-x="804" d="M133 287q-6 83 14 196l13 70q26 145 69.5 248t102.5 161.5t125.5 84.5t146.5 26q62 0 109 -12.5t84.5 -41t56 -75.5t23.5 -116t-13 -162q-19 -120 -41 -197h-504q-24 -182 17 -257t147 -75q102 0 230 39l24 -125q-50 -27 -137 -43t-164 -16q-69 0 -120.5 15t-93.5 49.5 t-62.5 91t-26.5 139.5zM344 608h342q7 37 10 58q26 144 -2.5 206t-113.5 62q-165 0 -236 -326zM524 1597h205l59 -409h-163z" />
<glyph unicode="&#xe9;" horiz-adv-x="804" d="M133 287q-6 83 14 196l13 70q26 145 69.5 248t102.5 161.5t125.5 84.5t146.5 26q62 0 109 -12.5t84.5 -41t56 -75.5t23.5 -116t-13 -162q-19 -120 -41 -197h-504q-24 -182 17 -257t147 -75q102 0 230 39l24 -125q-50 -27 -137 -43t-164 -16q-69 0 -120.5 15t-93.5 49.5 t-62.5 91t-26.5 139.5zM344 608h342q7 37 10 58q26 144 -2.5 206t-113.5 62q-165 0 -236 -326zM543 1188l207 409h204l-247 -409h-164z" />
<glyph unicode="&#xea;" horiz-adv-x="804" d="M133 287q-6 83 14 196l13 70q26 145 69.5 248t102.5 161.5t125.5 84.5t146.5 26q62 0 109 -12.5t84.5 -41t56 -75.5t23.5 -116t-13 -162q-19 -120 -41 -197h-504q-24 -182 17 -257t147 -75q102 0 230 39l24 -125q-50 -27 -137 -43t-164 -16q-69 0 -120.5 15t-93.5 49.5 t-62.5 91t-26.5 139.5zM328 1188l317 409h107l170 -409h-185l-73 215l-152 -215h-184zM344 608h342q7 37 10 58q26 144 -2.5 206t-113.5 62q-165 0 -236 -326z" />
<glyph unicode="&#xeb;" horiz-adv-x="804" d="M133 287q-6 83 14 196l13 70q26 145 69.5 248t102.5 161.5t125.5 84.5t146.5 26q62 0 109 -12.5t84.5 -41t56 -75.5t23.5 -116t-13 -162q-19 -120 -41 -197h-504q-24 -182 17 -257t147 -75q102 0 230 39l24 -125q-50 -27 -137 -43t-164 -16q-69 0 -120.5 15t-93.5 49.5 t-62.5 91t-26.5 139.5zM344 608h342q7 37 10 58q26 144 -2.5 206t-113.5 62q-165 0 -236 -326zM346 1331q7 50 51.5 86.5t96.5 36.5q51 0 80.5 -36t21.5 -87q-9 -51 -51.5 -87t-93.5 -36t-82.5 36t-22.5 87zM717 1331q7 51 51.5 87t97.5 36q49 0 79 -36t22 -87 q-9 -51 -51.5 -87t-92.5 -36q-53 0 -84 36t-22 87z" />
<glyph unicode="&#xec;" horiz-adv-x="425" d="M123 0l188 1065h181l-189 -1065h-180zM238 1597h204l60 -409h-164z" />
<glyph unicode="&#xed;" horiz-adv-x="425" d="M123 0l188 1065h181l-189 -1065h-180zM340 1188l207 409h205l-248 -409h-164z" />
<glyph unicode="&#xee;" horiz-adv-x="425" d="M123 0l188 1065h181l-189 -1065h-180zM125 1188l317 409h107l170 -409h-184l-74 215l-152 -215h-184z" />
<glyph unicode="&#xef;" horiz-adv-x="425" d="M123 0l188 1065h181l-189 -1065h-180zM139 1331q7 50 51.5 86.5t96.5 36.5q51 0 80.5 -36t21.5 -87q-9 -51 -51.5 -87t-93.5 -36t-82.5 36t-22.5 87zM510 1331q7 51 51.5 87t97.5 36q49 0 79 -36t22 -87q-9 -51 -51.5 -87t-92.5 -36q-53 0 -84 36t-22 87z" />
<glyph unicode="&#xf0;" horiz-adv-x="931" d="M134 310.5q1 48.5 11 103.5l9 47q14 81 46.5 154t83 135t126 98.5t165.5 36.5t119 -29l-63 209h-289l20 123h230l-74 246h201l74 -246h239l-20 -123h-181q9 -29 33 -104t33.5 -108.5t25 -99t19.5 -111t3 -107t-11 -121.5q-12 -67 -32.5 -124t-57.5 -113.5t-87 -96 t-125 -64t-167 -24.5q-77 0 -136 16.5t-96 47t-60.5 69.5t-31.5 88t-7 97.5zM328 436q-28 -153 12.5 -226t151.5 -73q110 0 175 72.5t93 226.5q26 154 -14 227.5t-150 73.5t-176 -73.5t-92 -227.5z" />
<glyph unicode="&#xf1;" horiz-adv-x="856" d="M82 0l188 1065h158l-2 -107q140 115 295 115q113 0 166.5 -62t27.5 -212l-141 -799h-180l139 788q9 38 5.5 64t-9 41.5t-20.5 23.5t-29 10.5t-35 2.5q-69 0 -135.5 -27.5t-97.5 -54.5l-150 -848h-180zM301 1235l2.5 12.5t8.5 30.5t17.5 43.5t31.5 46t46.5 43.5t65.5 30.5 t88 12.5q43 0 77 -17.5t51.5 -38t42.5 -38t52 -17.5q37 0 58 24.5t24 49.5l2 25l152 -35q-1 -5 -2 -12.5t-8.5 -30.5t-18 -43.5t-31.5 -46t-47 -43.5t-66.5 -30.5t-88.5 -12.5q-43 0 -76 17t-50.5 38t-41.5 38t-51 17q-37 0 -59 -24.5t-26 -49.5l-3 -24z" />
<glyph unicode="&#xf2;" horiz-adv-x="870" d="M134 267.5q-9 98.5 13 242.5l9 43q25 140 72.5 243t110.5 162t133.5 87t150.5 28t141 -27t105.5 -88.5t54 -161t-12.5 -243.5l-8 -43q-25 -139 -73 -242t-112 -161.5t-135 -86.5t-151 -28t-140.5 27t-104.5 88.5t-53 160zM328 510q-67 -375 131 -375q197 0 264 375l8 43 q64 375 -133 375q-198 0 -262 -375zM524 1597h205l59 -409h-163z" />
<glyph unicode="&#xf3;" horiz-adv-x="870" d="M134 267.5q-9 98.5 13 242.5l9 43q25 140 72.5 243t110.5 162t133.5 87t150.5 28t141 -27t105.5 -88.5t54 -161t-12.5 -243.5l-8 -43q-25 -139 -73 -242t-112 -161.5t-135 -86.5t-151 -28t-140.5 27t-104.5 88.5t-53 160zM328 510q-67 -375 131 -375q197 0 264 375l8 43 q64 375 -133 375q-198 0 -262 -375zM565 1188l207 409h205l-248 -409h-164z" />
<glyph unicode="&#xf4;" horiz-adv-x="870" d="M134 267.5q-9 98.5 13 242.5l9 43q25 140 72.5 243t110.5 162t133.5 87t150.5 28t141 -27t105.5 -88.5t54 -161t-12.5 -243.5l-8 -43q-25 -139 -73 -242t-112 -161.5t-135 -86.5t-151 -28t-140.5 27t-104.5 88.5t-53 160zM328 510q-67 -375 131 -375q197 0 264 375l8 43 q64 375 -133 375q-198 0 -262 -375zM348 1188l318 409h106l170 -409h-184l-74 215l-152 -215h-184z" />
<glyph unicode="&#xf5;" horiz-adv-x="870" d="M134 267.5q-9 98.5 13 242.5l9 43q25 140 72.5 243t110.5 162t133.5 87t150.5 28t141 -27t105.5 -88.5t54 -161t-12.5 -243.5l-8 -43q-25 -139 -73 -242t-112 -161.5t-135 -86.5t-151 -28t-140.5 27t-104.5 88.5t-53 160zM309 1235l2.5 12.5t8.5 30.5t17.5 43.5t31.5 46 t46.5 43.5t65.5 30.5t88 12.5q43 0 77 -17.5t52 -38t43 -38t52 -17.5q37 0 58 24.5t23 49.5l3 25l151 -35q-1 -5 -2 -12.5t-8.5 -30.5t-18 -43.5t-31.5 -46t-47 -43.5t-66.5 -30.5t-88.5 -12.5q-43 0 -76 17t-50.5 38t-41.5 38t-51 17q-37 0 -59 -24.5t-26 -49.5l-3 -24z M328 510q-67 -375 131 -375q197 0 264 375l8 43q64 375 -133 375q-198 0 -262 -375z" />
<glyph unicode="&#xf6;" horiz-adv-x="870" d="M134 267.5q-9 98.5 13 242.5l9 43q25 140 72.5 243t110.5 162t133.5 87t150.5 28t141 -27t105.5 -88.5t54 -161t-12.5 -243.5l-8 -43q-25 -139 -73 -242t-112 -161.5t-135 -86.5t-151 -28t-140.5 27t-104.5 88.5t-53 160zM328 510q-67 -375 131 -375q197 0 264 375l8 43 q64 375 -133 375q-198 0 -262 -375zM365 1331q7 50 51 86.5t96 36.5q51 0 80.5 -36t21.5 -87q-9 -51 -51.5 -87t-93.5 -36t-82 36t-22 87zM735 1331q7 51 52 87t98 36q49 0 78.5 -36t21.5 -87q-9 -51 -51 -87t-92 -36q-53 0 -84.5 36t-22.5 87z" />
<glyph unicode="&#xf7;" horiz-adv-x="901" d="M190 610l27 156h737l-26 -156h-738zM395 401q-9 -53 22 -90t83 -37q53 0 97.5 37.5t53.5 89.5q9 53 -23 90t-85 37q-52 0 -95.5 -37t-52.5 -90zM496 975q9 52 52.5 89.5t96.5 37.5t84.5 -36.5t22.5 -90.5q-9 -52 -54 -89.5t-98 -37.5q-52 0 -82.5 37t-21.5 90z" />
<glyph unicode="&#xf8;" horiz-adv-x="868" d="M134 267.5q-9 98.5 13 242.5l9 43q25 140 72.5 243t110.5 162t133.5 87t150.5 28t141 -27t105.5 -88.5t54 -161t-12.5 -243.5l-8 -43q-25 -139 -73 -242t-112 -161.5t-135 -86.5t-151 -28t-140.5 27t-104.5 88.5t-53 160zM328 227l299 699q-10 2 -29 2q-198 0 -262 -375 l-8 -43q-34 -192 0 -283zM432 137q8 -2 27 -2q197 0 264 375l8 43q34 192 0 283z" />
<glyph unicode="&#xf9;" horiz-adv-x="856" d="M129 266l141 799h181l-140 -789q-9 -38 -5.5 -64t9 -41.5t21 -23t29 -10t34.5 -2.5q69 0 134.5 27t99.5 55l149 848h181l-189 -1065h-158l2 106q-138 -114 -296 -114q-113 0 -166 62t-27 212zM524 1597h205l59 -409h-163z" />
<glyph unicode="&#xfa;" horiz-adv-x="856" d="M129 266l141 799h181l-140 -789q-9 -38 -5.5 -64t9 -41.5t21 -23t29 -10t34.5 -2.5q69 0 134.5 27t99.5 55l149 848h181l-189 -1065h-158l2 106q-138 -114 -296 -114q-113 0 -166 62t-27 212zM532 1188l207 409h205l-248 -409h-164z" />
<glyph unicode="&#xfb;" horiz-adv-x="856" d="M129 266l141 799h181l-140 -789q-9 -38 -5.5 -64t9 -41.5t21 -23t29 -10t34.5 -2.5q69 0 134.5 27t99.5 55l149 848h181l-189 -1065h-158l2 106q-138 -114 -296 -114q-113 0 -166 62t-27 212zM340 1188l317 409h107l170 -409h-184l-74 215l-152 -215h-184z" />
<glyph unicode="&#xfc;" horiz-adv-x="856" d="M129 266l141 799h181l-140 -789q-9 -38 -5.5 -64t9 -41.5t21 -23t29 -10t34.5 -2.5q69 0 134.5 27t99.5 55l149 848h181l-189 -1065h-158l2 106q-138 -114 -296 -114q-113 0 -166 62t-27 212zM356 1331q7 50 51.5 86.5t96.5 36.5q51 0 80.5 -36t21.5 -87 q-9 -51 -51.5 -87t-93.5 -36t-82.5 36t-22.5 87zM727 1331q7 51 52 87t98 36q49 0 78.5 -36t21.5 -87q-9 -51 -51 -87t-92 -36q-53 0 -84.5 36t-22.5 87z" />
<glyph unicode="&#xfd;" horiz-adv-x="843" d="M127 -410l207 439l-125 1036h188l74 -784l352 784h189l-701 -1475h-184zM532 1188l207 409h205l-248 -409h-164z" />
<glyph unicode="&#xfe;" horiz-adv-x="888" d="M10 -410l324 1844h180l-82 -465q90 104 244 104q86 0 145.5 -42t86 -116t31 -175t-18.5 -218q-46 -257 -164.5 -393.5t-270.5 -136.5q-153 0 -206 104l-89 -506h-180zM301 217q22 -33 65 -54.5t97 -21.5q99 0 169.5 103t102.5 278q72 402 -133 402q-54 0 -104.5 -21.5 t-85.5 -54.5z" />
<glyph unicode="&#xff;" horiz-adv-x="843" d="M127 -410l207 439l-125 1036h188l74 -784l352 784h189l-701 -1475h-184zM360 1331q7 50 51.5 86.5t96.5 36.5q51 0 80.5 -36t21.5 -87q-9 -51 -51.5 -87t-93.5 -36t-82.5 36t-22.5 87zM731 1331q7 51 52 87t98 36q49 0 78.5 -36t21.5 -87q-9 -51 -51 -87t-92 -36 q-53 0 -84.5 36t-22.5 87z" />
<glyph unicode="&#x110;" horiz-adv-x="1013" d="M137 659l29 160h143l107 615h225q92 0 163.5 -11.5t124 -36t89 -56.5t57.5 -80t31 -100t8 -122.5t-10.5 -141t-24.5 -161.5q-16 -92 -32.5 -163.5t-40 -143.5t-52 -125.5t-66.5 -102.5t-86.5 -82.5t-110 -58.5t-138 -37t-168.5 -12h-221l117 659h-144zM381 160h29 q77 0 137 13.5t103.5 34.5t77.5 62.5t55.5 79.5t41 106t30 121t26.5 144q29 176 36.5 299t-64.5 188.5t-245 65.5h-30l-80 -455h211l-29 -160h-211z" />
<glyph unicode="&#x111;" horiz-adv-x="946" d="M154 518q27 155 75 265t113.5 172t139.5 90t163 28q91 0 164 -41l25 135h-371l20 123h371l25 144h180l-25 -144h119l-20 -123h-119l-207 -1167h-158l2 106q-85 -114 -252 -114q-164 0 -228 132t-17 394zM321 321q2 -84 40 -132t114 -48q54 0 105.5 21.5t85.5 54.5 l118 680q-56 27 -135 27q-57 0 -102 -19t-86 -63.5t-72 -125t-51 -196.5q-19 -115 -17 -199z" />
<glyph unicode="&#x131;" horiz-adv-x="425" d="M123 0l188 1065h181l-189 -1065h-180z" />
<glyph unicode="&#x141;" horiz-adv-x="825" d="M137 659l29 160h143l107 615h188l-106 -615h276l-29 -160h-276l-88 -499h432l-29 -160h-620l117 659h-144z" />
<glyph unicode="&#x142;" horiz-adv-x="720" d="M137 659l29 160h246l106 615h189l-107 -615h246l-29 -160h-246l-116 -659h-189l117 659h-246z" />
<glyph unicode="&#x152;" horiz-adv-x="1388" d="M166.5 401q2.5 75 11 141.5t23.5 149.5l8 47q14 83 29.5 149.5t39.5 142t52.5 132.5t70.5 111.5t91.5 90t117 56.5t146.5 21q56 0 92 -8h731l-27 -160h-497q63 -145 18 -455h313l-28 -160h-314q-64 -344 -186 -499h498l-29 -160h-731q-41 -8 -96 -8q-79 0 -139 21 t-97.5 56t-60 89t-31 111t-6 132zM368.5 430q-0.5 -38 1.5 -83.5t13.5 -75t29.5 -56t47.5 -39t69.5 -12.5q45 0 84 18.5t67 46t53.5 74.5t41.5 89t32 105.5t25 107.5t21 110q8 45 13 76.5t11 76.5t8 77t3.5 72t-2.5 68.5t-10.5 59.5t-20 51.5t-31 37.5t-43 25.5t-57.5 8.5 q-45 0 -84 -18.5t-67 -46.5t-52.5 -75t-40 -89t-31.5 -106t-24.5 -107.5t-19.5 -110.5q-10 -58 -16.5 -96t-13.5 -94.5t-7.5 -94.5z" />
<glyph unicode="&#x153;" horiz-adv-x="1378" d="M134 267.5q-9 98.5 13 242.5l9 43q25 140 72.5 243t110.5 162t133.5 87t150.5 28q88 0 159 -46.5t92 -131.5q45 86 129 132t175 46q62 0 109 -12.5t84.5 -41t56 -75.5t23.5 -116t-13 -162q-19 -120 -41 -197h-504q-24 -182 17 -257t147 -75q101 0 229 39l25 -125 q-50 -27 -137 -43t-164 -16q-101 0 -173 46t-89 134q-50 -85 -138 -132.5t-178 -47.5q-80 0 -140.5 27t-104.5 88.5t-53 160zM328 510q-67 -375 131 -375q197 0 264 375l8 43q64 375 -133 375q-198 0 -262 -375zM918 608h342q7 37 10 58q26 143 -3 205.5t-114 62.5 q-83 0 -141 -79.5t-94 -246.5z" />
<glyph unicode="&#x160;" horiz-adv-x="901" d="M63 68l74 137q105 -41 252 -41q262 0 299 211q7 42 4.5 75.5t-15 61t-30.5 49t-42.5 40.5t-50 34.5t-53.5 31.5q-13 7 -20 11q-30 18 -54.5 34t-51 35.5t-45 38.5t-37.5 43t-29.5 47.5t-19.5 52.5t-7.5 59t5.5 67q36 209 152.5 298t324.5 89q81 0 171 -19t146 -55 l-73 -137q-115 41 -252 41q-38 0 -69 -3t-67 -14.5t-62 -30.5t-47.5 -53t-29.5 -81q-5 -29 -4.5 -53.5t6.5 -46t15.5 -39.5t23.5 -34t29.5 -29.5t34 -26.5t37.5 -24.5t40 -23.5q39 -23 58 -35q28 -18 49 -33.5t44.5 -35t40 -38.5t32.5 -42t25.5 -48.5t15 -55t5 -63.5 t-6.5 -73q-37 -208 -164 -302.5t-336 -94.5q-84 0 -174 19t-144 57zM481 1966h185l75 -215l150 215h184l-315 -410h-107z" />
<glyph unicode="&#x161;" horiz-adv-x="737" d="M61 61l70 115q34 -16 97.5 -25.5t113.5 -9.5q52 0 94 11.5t75 44t42 82.5q17 103 -115 192q-18 12 -57 34q-21 12 -31.5 18.5t-29.5 18.5t-29.5 20.5t-26.5 21.5t-24.5 25t-19.5 27t-16 31t-9 35t-3 40t5 44q28 156 120.5 221.5t239.5 65.5q86 0 173.5 -17t125.5 -50 l-70 -121q-39 17 -101.5 28t-115.5 11q-166 0 -186 -115q-6 -29 1 -55t18.5 -44.5t37.5 -39.5t45.5 -33t55.5 -34t55 -34q15 -10 26.5 -18t28 -21t27.5 -26t25 -31t20 -36.5t13.5 -43t5.5 -50t-5 -58.5q-54 -293 -387 -293q-83 0 -167 17t-122 52zM354 1597h185l73 -215 l152 215h184l-317 -409h-107z" />
<glyph unicode="&#x178;" horiz-adv-x="894" d="M272 1434h205l109 -652l336 652h204l-489 -887l-96 -547h-189l97 547zM432 1700q9 51 53.5 87t96.5 36q51 0 80 -36t20 -87q-7 -51 -49.5 -87t-93.5 -36t-82.5 36t-24.5 87zM803 1700q9 51 53.5 87t97.5 36q50 0 79 -36t20 -87q-7 -51 -49.5 -87t-92.5 -36q-52 0 -84 36 t-24 87z" />
<glyph unicode="&#x17d;" horiz-adv-x="882" d="M61 0l17 98l704 1176h-495l26 160h738l-17 -99l-702 -1175h495l-28 -160h-738zM479 1966h185l75 -215l150 215h184l-315 -410h-107z" />
<glyph unicode="&#x17e;" horiz-adv-x="851" d="M61 0l15 82l602 840h-455l27 143h676l-15 -82l-604 -840h455l-25 -143h-676zM385 1597h184l74 -215l152 215h184l-317 -409h-107z" />
<glyph unicode="&#x192;" horiz-adv-x="729" d="M27 33l55 125q44 -23 98 -23q32 0 56 10.5t39.5 27t27.5 46.5t18.5 57.5t14.5 71.5l100 574h-164l27 143h164l6 33q33 179 110.5 267.5t213.5 88.5q118 0 165 -41l-55 -125q-48 23 -98 23q-75 0 -107 -52t-49 -161l-6 -33h203l-27 -143h-203l-100 -574 q-33 -179 -111 -267.5t-215 -88.5q-119 0 -163 41z" />
<glyph unicode="&#x2c6;" horiz-adv-x="716" d="M270 1188l318 409h106l170 -409h-184l-74 215l-151 -215h-185z" />
<glyph unicode="&#x2c7;" horiz-adv-x="716" d="M344 1597h184l74 -215l152 215h184l-317 -409h-107z" />
<glyph unicode="&#x2d8;" horiz-adv-x="651" d="M317 1448h150q-11 -55 12 -89t76 -34q56 0 91 33.5t46 89.5h154q-21 -110 -110 -185t-206 -75q-113 0 -173 75t-40 185z" />
<glyph unicode="&#x2d9;" horiz-adv-x="372" d="M297 1331q7 50 51 86.5t96 36.5q51 0 81 -36t22 -87q-9 -51 -52 -87t-94 -36t-82 36t-22 87z" />
<glyph unicode="&#x2da;" horiz-adv-x="573" d="M307 1395q17 93 92 153t168 60q94 0 151 -60t40 -153q-15 -89 -93 -148t-171 -59q-92 0 -147 59t-40 148zM451 1395q-5 -32 14 -54t53 -22q35 0 63 22.5t33 53.5q6 37 -13.5 58.5t-55.5 21.5t-62 -21.5t-32 -58.5z" />
<glyph unicode="&#x2db;" horiz-adv-x="573" />
<glyph unicode="&#x2dc;" horiz-adv-x="815" d="M281 1235l2.5 12.5t8.5 30.5t17.5 43.5t31.5 46t46.5 43.5t65.5 30.5t88 12.5q43 0 77 -17.5t51.5 -38t42.5 -38t52 -17.5q37 0 58 24.5t24 49.5l2 25l151 -35q-1 -5 -2 -12.5t-8.5 -30.5t-18 -43.5t-31.5 -46t-47 -43.5t-66.5 -30.5t-88.5 -12.5q-43 0 -76 17t-50.5 38 t-41.5 38t-51 17q-37 0 -59 -24.5t-25 -49.5l-4 -24z" />
<glyph unicode="&#x2dd;" horiz-adv-x="778" d="M207 942l260 492h205l-301 -492h-164zM524 942l260 492h205l-301 -492h-164z" />
<glyph unicode="&#x3bc;" horiz-adv-x="856" d="M10 -410l260 1475h181l-140 -789q-9 -38 -5.5 -64t9 -41.5t21 -23t29 -10t34.5 -2.5q69 0 134.5 27t99.5 55l149 848h181l-189 -1065h-158l2 106q-68 -56 -123 -85t-120 -29q-37 0 -69.5 10t-39.5 23l-76 -435h-180z" />
<glyph unicode="&#xe01;" horiz-adv-x="958" d="M117 0l71 401q20 115 82 192t168 99l-235 53l14 76q28 164 153.5 269.5t301.5 105.5q211 0 293 -113t36 -376l-124 -707h-189l127 717q14 95 13 157.5t-24.5 99.5t-61 52.5t-97.5 15.5q-207 0 -254 -217l225 -51l-16 -86q-183 -60 -221 -266l-74 -422h-188z" />
<glyph unicode="&#xe02;" horiz-adv-x="897" d="M136.5 269q1.5 56 13.5 126q1 6 10 58.5t10 58.5q12 69 41.5 131t64.5 106t68.5 83t59.5 78.5t32 74.5q9 51 -34 68t-132 -2l-20 104q54 19 107.5 29.5t105.5 8t89 -19.5t55 -57t7 -100q-9 -49 -35 -100t-58 -95.5t-65 -90t-59.5 -101t-36.5 -111.5l-22 -123 q-27 -151 0.5 -201.5t128.5 -50.5q102 0 152 51.5t77 200.5l140 793h188l-139 -793q-17 -97 -47 -168t-68.5 -115.5t-91.5 -71.5t-109.5 -37.5t-128.5 -10.5q-51 0 -91 5t-75.5 17.5t-61 33t-44 51.5t-26 72.5t-6 97.5z" />
<glyph unicode="&#xe03;" horiz-adv-x="929" d="M168.5 269q1.5 56 13.5 126q1 6 10.5 58.5t10.5 58.5q12 69 43 134t68 114t73.5 92.5t66.5 86t40 77.5q-57 -76 -148 -76q-52 0 -80.5 25.5t-32 65t4 80t24.5 77.5h154q-54 -127 4 -127q34 0 75.5 35t51.5 92h149l-16 -96q-11 -64 -41.5 -126.5t-67 -114l-73 -103 t-66 -111t-39.5 -119.5l-22 -123q-27 -151 0.5 -201.5t128.5 -50.5q102 0 152 51.5t77 200.5l139 793h189l-139 -793q-17 -97 -47 -168t-68.5 -115.5t-91.5 -71.5t-109.5 -37.5t-128.5 -10.5q-51 0 -91 5t-76 17.5t-61 33t-43.5 51.5t-26.5 72.5t-6.5 97.5z" />
<glyph unicode="&#xe04;" horiz-adv-x="980" d="M82 0l123 696q25 142 70 240.5t109.5 154.5t141.5 80.5t176 24.5q79 0 137.5 -15t104.5 -50t68 -92.5t27.5 -142.5t-17.5 -200l-123 -696h-188l123 696q16 105 18 172t-20 105.5t-58.5 53.5t-97.5 15q-82 0 -133 -28t-88.5 -104t-61.5 -214l-39 -217q86 144 242 144h82 l-27 -152h-82q-85 0 -160 -55.5t-87 -126.5l-52 -289h-188z" />
<glyph unicode="&#xe05;" horiz-adv-x="983" d="M82 0l149 850q15 83 32 138t47.5 105t79.5 74.5t118 24.5q153 0 172 -125q66 125 217 125q47 0 80 -11t52 -34t29 -51.5t10.5 -70t-3.5 -81.5t-14 -94l-150 -850h-188l151 864q6 31 7.5 54t-1 50t-17.5 41.5t-42 14.5q-19 0 -34 -6.5t-25.5 -21t-18 -27.5t-13.5 -36 t-8.5 -36t-6.5 -37h-123q3 20 5 31.5t4 31.5t1 31.5t-4 26.5t-9.5 23t-18.5 14t-28 6q-27 0 -47 -14.5t-32.5 -41.5t-18.5 -50t-12 -54l-68 -385q86 144 242 144h82l-27 -152h-82q-85 0 -160 -55.5t-87 -126.5l-52 -289h-188z" />
<glyph unicode="&#xe06;" horiz-adv-x="948" d="M113 0l90 512q12 69 43 134t68 114t73.5 92.5t66.5 86t40 77.5q-57 -76 -148 -76q-52 0 -80.5 25.5t-32 65t4 80t24.5 77.5h154q-54 -127 4 -127q34 0 75 35t52 92h149l-16 -96q-11 -64 -41.5 -126.5t-67 -114l-73 -103t-66 -111t-39.5 -119.5l-41 -229q56 -137 209 -137 q143 0 168 133l158 903h188l-160 -914q-26 -139 -109 -210.5t-206 -71.5q-96 0 -168.5 42t-116.5 118l-47 -152h-155z" />
<glyph unicode="&#xe07;" horiz-adv-x="905" d="M229 1188h191l96 -1038q231 343 287 661q22 123 -2 178t-101 55q-23 0 -51 -4t-45 -8l-16 -4l-13 131q86 37 195 37q142 0 197.5 -89t21.5 -286q-67 -375 -393 -821h-238z" />
<glyph unicode="&#xe08;" horiz-adv-x="856" d="M150 524l26 152h170q37 0 62 -21.5t28 -56.5l51 -448q217 323 269 616q9 50 9.5 90t-5.5 69t-19.5 50t-30.5 34.5t-41.5 21t-50 10.5t-57.5 3q-136 0 -282 -43l-29 129q57 30 158 48t196 18q204 0 291 -94.5t49 -313.5q-64 -360 -377 -788h-235l-62 504q-3 20 -22 20h-98 z" />
<glyph unicode="&#xe09;" horiz-adv-x="917" d="M131 274l70 402h188l-67 -391q-25 -133 118 -133q152 0 258 137l80 452q11 65 12 113.5t-8.5 81.5t-25.5 54.5t-43.5 33t-57 16t-71.5 4.5q-125 0 -271 -43l-28 129q56 30 157 48t191 18q64 0 114.5 -9t95.5 -29.5t73 -54.5t47 -84.5t18 -119.5t-14 -158l-131 -741h-156 l6 152q-69 -75 -157.5 -117.5t-184.5 -42.5q-123 0 -181 71.5t-32 210.5z" />
<glyph unicode="&#xe0a;" horiz-adv-x="897" d="M136.5 269q1.5 56 13.5 126l20 117q12 69 41.5 131t64.5 106t68.5 83t59.5 78.5t32 74.5q9 51 -34 68t-132 -2l-20 104q54 19 107.5 29.5t105.5 8t89 -19.5t55 -57t7 -100q-9 -49 -35 -100t-58 -95.5t-65 -90t-59.5 -101t-36.5 -111.5l-22 -123q-27 -151 0.5 -201.5 t128.5 -50.5q102 0 152 51.5t77 200.5l23 123q6 36 7.5 66.5t0.5 52t-9 41.5t-13 30.5t-19 24t-19.5 17.5t-22 15l-19.5 13l22 123q31 16 41.5 22t40.5 25t44 32.5t37 40t34 53t21 64.5t12 81h178q5 -125 -65.5 -225t-205.5 -152q40 -27 65 -53.5t44.5 -67t20.5 -89.5 t-9 -120l-20 -117q-17 -97 -47 -168t-68.5 -115.5t-91.5 -71.5t-109.5 -37.5t-128.5 -10.5q-51 0 -91 5t-75.5 17.5t-61 33t-44 51.5t-26 72.5t-6 97.5z" />
<glyph unicode="&#xe0b;" horiz-adv-x="929" d="M168.5 269q1.5 56 13.5 126q1 6 10.5 58.5t10.5 58.5q12 69 43 134t68 114t73.5 92.5t66.5 86t40 77.5q-57 -76 -148 -76q-52 0 -80.5 25.5t-32 65t4 80t24.5 77.5h154q-54 -127 4 -127q34 0 75 35t52 92h149l-16 -96q-11 -64 -41.5 -126.5t-67 -114l-73 -103t-66 -111 t-39.5 -119.5l-22 -123q-27 -151 0.5 -201.5t128.5 -50.5q102 0 152 51.5t77 200.5l23 123q6 36 7.5 66.5t0 52t-9.5 41.5t-13 30.5t-19 24t-19.5 17.5t-22 15l-19.5 13l23 123q30 16 41 22t41 24.5t44 32.5t36.5 40.5t33.5 53t21 64.5t12 81h178q5 -125 -65.5 -225 t-204.5 -152q40 -27 65 -53.5t44.5 -67t20.5 -89.5t-9 -120l-20 -117q-17 -97 -47 -168t-68.5 -115.5t-91.5 -71.5t-109.5 -37.5t-128.5 -10.5q-51 0 -91 5t-76 17.5t-61 33t-43.5 51.5t-26.5 72.5t-6.5 97.5z" />
<glyph unicode="&#xe0c;" horiz-adv-x="1413" d="M119.5 201q-1.5 52 7.5 112l16 88q19 111 91 189.5t180 101.5l-236 53l15 76q29 166 146.5 270.5t291.5 104.5q104 0 172.5 -26t109.5 -83.5t47 -151t-16 -228.5l-74 -418q27 -65 68 -101t113 -36q62 0 96 31t47 102l158 903h188l-160 -914q-52 -282 -288 -282 q-89 0 -151 41t-107 119l-48 -152h-155l127 717q24 124 13.5 196t-49.5 100.5t-118 28.5q-99 0 -156.5 -51.5t-80.5 -165.5l225 -51l-17 -86q-96 -32 -159.5 -99.5t-81.5 -166.5l-10 -66q-9 -46 -11.5 -74t2.5 -59t22.5 -46.5t53 -23t90.5 -1.5l-26 -152q-86 -9 -150 1.5 t-102 38t-60 68.5t-23.5 93z" />
<glyph unicode="&#xe0d;" horiz-adv-x="1413" d="M119.5 201q-1.5 52 7.5 112l16 88q19 111 91 189.5t180 101.5l-236 53l15 76q29 166 146.5 270.5t291.5 104.5q104 0 172.5 -26t109.5 -83.5t47 -151t-16 -228.5l-43 -238q-27 -156 -27 -203q2 -90 69 -113q29 -10 71 -10q30 0 53.5 4t42 15t31.5 21.5t23.5 31.5t17.5 37 t13.5 46.5t10 51t10.5 60t11 63.5l125 715h188l-129 -735q-15 -85 -29.5 -143.5t-37 -114.5t-52.5 -90.5t-72.5 -62t-100 -39t-132.5 -11.5q-148 0 -218.5 50t-78 152.5t20.5 258.5l47 264q24 124 13.5 196t-49.5 100.5t-118 28.5q-99 0 -156.5 -51.5t-80.5 -165.5l225 -51 l-17 -86q-96 -32 -159.5 -99.5t-81.5 -166.5l-10 -66q-9 -46 -11.5 -74t2.5 -59t22.5 -46.5t53 -23t90.5 -1.5l-26 -152q-86 -9 -150 1.5t-102 38t-60 68.5t-23.5 93zM605.5 -165.5q3.5 39.5 17.5 85.5h174q-29 -79 7.5 -114t147.5 -35h338l-24 -140h-394q-78 0 -133 16.5 t-84 43.5t-41 65.5t-8.5 78z" />
<glyph unicode="&#xe0e;" horiz-adv-x="985" d="M31 0l26 152q53 -7 85 0t49.5 32t25 53t16.5 79q2 13 3 20l12 65q10 60 24 103.5t38 84t63 66.5t92 37l-236 53l15 76q28 164 153 269.5t301 105.5q211 0 293.5 -113t36.5 -376l-197 -1117h-210q-47 89 -104.5 129.5t-135.5 40.5q-76 0 -112.5 -47t-39.5 -123h-188 q2 133 94.5 225.5t235.5 92.5q112 0 182 -48t111 -145l178 1002q14 95 13 157.5t-24.5 99.5t-61 52.5t-97.5 15.5q-207 0 -254 -217l225 -51l-16 -86q-88 -29 -128 -92t-61 -174l-22 -129q-6 -35 -13 -63.5t-17 -57.5t-22.5 -50.5t-30 -43t-38 -34.5t-47.5 -26t-59 -16.5 t-72 -6t-86 4.5z" />
<glyph unicode="&#xe0f;" horiz-adv-x="995" d="M31 -410l28 162q88 -14 157 31.5t114 124.5h155q2 -83 22.5 -124.5t76.5 -41.5q96 0 118 133l150 842q14 95 13 157.5t-24.5 99.5t-61 52.5t-97.5 15.5q-207 0 -254 -217l225 -51l-16 -86q-88 -29 -127.5 -91.5t-60.5 -174.5l-23 -129q-6 -35 -13 -63.5t-17 -57.5 t-22.5 -50.5t-30 -43t-38 -34.5t-47.5 -26t-59 -16.5t-72 -6t-86 4.5l27 152q52 -7 84 -1.5t50 33.5t24 50.5t16 79.5q3 14 4 22l12 65q10 60 24 103.5t38 84t63 66.5t92 37l-235 53l14 76q28 164 153.5 269.5t301.5 105.5q211 0 293 -113t36 -376l-149 -842 q-24 -138 -104 -210.5t-191 -72.5q-103 0 -165 56.5t-52 148.5q-52 -106 -132 -158t-214 -39z" />
<glyph unicode="&#xe10;" horiz-adv-x="899" d="M-27 -414l29 154q84 -14 149 26.5t107 114.5h148q0 -77 20 -114t74 -37q100 0 121 120l6 31h159l-8 -41q-22 -129 -104.5 -195.5t-192.5 -66.5q-95 0 -142 49.5t-38 139.5q-50 -101 -125 -147.5t-203 -33.5zM150 524l26 152h170q37 0 62 -21.5t28 -56.5l51 -448 q244 363 289 616q9 50 9 90.5t-7 69t-21.5 50t-32.5 34.5t-43.5 20.5t-51.5 10.5t-58 3q-101 0 -295 -57l-28 129q119 52 368 88l535 78l-23 -135l-290 -41q84 -36 117.5 -110.5t9.5 -207.5q-57 -322 -398 -788h-229l-62 504q-3 20 -22 20h-104z" />
<glyph unicode="&#xe11;" horiz-adv-x="1058" d="M223 0l107 602q46 257 182 414q-71 -76 -176 -76q-52 0 -80.5 25.5t-32 65t4 80t24.5 77.5h154q-54 -127 4 -127q34 0 75 35t52 92h149l-18 -105q140 113 270 113q113 0 169 -72.5t32 -210.5l-162 -913h-189l160 903q11 69 -19 101t-91 32q-100 0 -185 -76t-110 -217 l-131 -743h-189z" />
<glyph unicode="&#xe12;" horiz-adv-x="1492" d="M143.5 321.5q2.5 92.5 24.5 217.5q4 21 14.5 83t16 90t18 86t22 88.5t26.5 79t34 75.5t42 60t52 50t62 29t75 12q63 0 105 -33.5t51 -91.5q66 125 213 125q47 0 80 -11t51.5 -34.5t28 -51t9.5 -69.5t-4.5 -81.5t-14.5 -94.5l-99 -561q27 -65 67.5 -101t112.5 -36 q62 0 96.5 31t47.5 102l158 903h188l-160 -914q-52 -282 -289 -282q-89 0 -151 41t-107 119l-47 -152h-155l151 864q16 86 11 114q-9 45 -54 46q-22 0 -40 -11t-28.5 -25.5t-19 -40t-12 -43t-8.5 -44.5h-123q5 37 5 73.5t-15 63.5t-43 27q-66 0 -110 -150q-24 -82 -69 -335 q-13 -76 -19 -131t-5 -100.5t11 -72.5t27.5 -48t45.5 -27.5t66 -10.5t87 3l-26 -152q-78 -8 -142.5 -5t-113.5 19.5t-82 54.5t-48.5 99t-13 153.5z" />
<glyph unicode="&#xe13;" horiz-adv-x="1413" d="M119.5 201q-1.5 52 7.5 112l16 88q19 111 91 189.5t180 101.5l-236 53l15 76q29 166 146.5 270.5t291.5 104.5q104 0 172.5 -26t109.5 -83.5t47 -151t-16 -228.5l-74 -422q-13 -71 10 -102t85 -31q72 0 125 35.5t104 101.5l158 899h188l-209 -1188h-155l6 152 q-147 -160 -316 -160q-238 0 -186 282l78 443q24 124 13.5 196t-49.5 100.5t-118 28.5q-99 0 -155.5 -51t-81.5 -166l225 -51l-17 -86q-96 -32 -159.5 -99.5t-81.5 -166.5l-10 -66q-9 -46 -11.5 -74t2.5 -59t22.5 -46.5t53 -23t90.5 -1.5l-26 -152q-86 -9 -150 1.5t-102 38 t-60 68.5t-23.5 93z" />
<glyph unicode="&#xe14;" horiz-adv-x="970" d="M148 324.5q1 112.5 30 275.5q13 74 27 133.5t36 123t49 111.5t66 92.5t86.5 73t111 45.5t138.5 17q79 0 137.5 -15t104.5 -50t68 -92.5t27.5 -142.5t-17.5 -200l-123 -696h-189l123 696q15 84 17.5 143t-6.5 99t-31.5 62.5t-55 32t-81.5 9.5q-47 0 -85.5 -14t-66 -36.5 t-49 -56t-36 -68.5t-25.5 -77.5t-18 -80t-14 -78.5q-3 -21 -5 -31q-12 -70 -19.5 -123.5t-11 -100t-1.5 -78.5t8.5 -59.5t19.5 -42.5t31.5 -27.5t43.5 -15t56 -5t69 3.5l-26 -152q-94 -9 -167 -1.5t-122.5 42.5t-75 103t-24.5 180.5z" />
<glyph unicode="&#xe15;" horiz-adv-x="1009" d="M143.5 321.5q2.5 92.5 24.5 217.5q4 21 14.5 83t16 90t18 86t22 88.5t26.5 79t34 75.5t42 60t52 50t62 29t75 12q63 0 105 -33.5t51 -91.5q66 125 213 125q47 0 80 -11t51.5 -34.5t28 -51t9.5 -69.5t-4.5 -81.5t-14.5 -94.5l-150 -850h-188l151 864q16 86 11 114 q-9 45 -54 46q-22 0 -40 -11t-28.5 -25.5t-19 -40t-12 -43t-8.5 -44.5h-123q5 37 5 73.5t-15 63.5t-43 27q-66 0 -110 -150q-24 -82 -69 -335q-13 -76 -19 -131t-5 -100.5t11 -72.5t27.5 -48t45.5 -27.5t66 -10.5t87 3l-26 -152q-78 -8 -142.5 -5t-113.5 19.5t-82 54.5 t-48.5 99t-13 153.5z" />
<glyph unicode="&#xe16;" horiz-adv-x="933" d="M119.5 201q-1.5 52 7.5 112l16 88q19 111 91 189.5t180 101.5l-236 53l15 76q28 164 153 269.5t301 105.5q211 0 293.5 -113t36.5 -376l-125 -707h-188l127 717q14 95 13 157.5t-24.5 99.5t-61 52.5t-97.5 15.5q-207 0 -254 -217l225 -51l-17 -86q-96 -32 -159.5 -99.5 t-81.5 -166.5l-10 -66q-9 -46 -11.5 -74t2.5 -59t22.5 -46.5t53 -23t90.5 -1.5l-26 -152q-86 -9 -150 1.5t-102 38t-60 68.5t-23.5 93z" />
<glyph unicode="&#xe17;" horiz-adv-x="917" d="M82 0l209 1188h155l-6 -152q150 160 342 160q123 0 181 -72t34 -211l-161 -913h-189l160 903q22 133 -121 133q-152 0 -258 -137l-158 -899h-188z" />
<glyph unicode="&#xe18;" horiz-adv-x="911" d="M145 182.5q-14 93.5 9 229.5l26 141h189l-23 -121q-16 -95 -18.5 -159.5t34 -97t123.5 -32.5q53 0 91 13t62 33t41.5 60.5t27 78.5t20.5 104l4 21q7 30 3.5 61t-15.5 57t-44 47.5t-81 32.5l-383 84l8 47q22 123 65.5 206.5t109.5 128t140 62t173 17.5q91 0 185 -18 t138 -48l-74 -129q-127 43 -254 43q-50 0 -79 -2t-65 -12.5t-58 -31.5t-43 -59t-35 -95l248 -56q92 -20 148.5 -53.5t80 -77.5t27.5 -101t-11 -124l-4 -20q-19 -107 -48.5 -181t-81 -130t-131 -82.5t-191.5 -26.5q-148 0 -224 48.5t-90 142z" />
<glyph unicode="&#xe19;" horiz-adv-x="917" d="M131 274l160 914h188l-157 -903q-25 -133 118 -133q152 0 258 137l158 899h188l-208 -1188h-156l6 152q-69 -75 -157.5 -117.5t-184.5 -42.5q-123 0 -181 71.5t-32 210.5z" />
<glyph unicode="&#xe1a;" horiz-adv-x="933" d="M149 194.5q-15 102.5 13 258.5l129 735h188l-125 -715q-18 -102 -21 -175t35 -114t124 -41q53 0 92.5 16t64.5 41t44.5 71t30.5 89.5t24 112.5l124 715h189l-129 -735q-21 -122 -53.5 -205t-86.5 -142.5t-134 -86.5t-193 -27q-149 0 -225 50t-91 152.5z" />
<glyph unicode="&#xe1b;" horiz-adv-x="1013" d="M160 453l129 735h188l-125 -715q-17 -102 -18 -175t39 -114t127 -41q53 0 93.5 15.5t67.5 42t47.5 70.5t33 90t24.5 112l186 1063h189l-191 -1083q-21 -121 -55 -204.5t-90 -142.5t-137.5 -86.5t-194.5 -27.5q-221 0 -288.5 109t-24.5 352z" />
<glyph unicode="&#xe1c;" horiz-adv-x="968" d="M82 0l154 874q14 78 44.5 138t81.5 105t130.5 63.5t181.5 7.5l-27 -152q-53 6 -91 -2t-60.5 -23t-38.5 -46.5t-23.5 -59t-15.5 -74.5l-96 -542l249 428h80l99 -428l157 899h189l-209 -1188h-185l-127 508l-309 -508h-184z" />
<glyph unicode="&#xe1d;" horiz-adv-x="1030" d="M82 0l154 874q14 78 44.5 138t81.5 105t130.5 63.5t181.5 7.5l-27 -152q-53 6 -91 -2t-60.5 -23t-38.5 -46.5t-23.5 -59t-15.5 -74.5l-96 -542l249 428h80l99 -428l219 1247h188l-270 -1536h-185l-127 508l-309 -508h-184z" />
<glyph unicode="&#xe1e;" horiz-adv-x="1126" d="M188 0l62 1188h184l-63 -881l315 737h123l53 -737l248 881h184l-356 -1188h-184l-60 743l-321 -743h-185z" />
<glyph unicode="&#xe1f;" horiz-adv-x="1126" d="M188 0l62 1188h184l-63 -881l315 737h123l53 -737l352 1229h185l-461 -1536h-184l-60 743l-321 -743h-185z" />
<glyph unicode="&#xe20;" horiz-adv-x="985" d="M31 0l26 152q53 -7 85 0t49.5 32t25 53t16.5 79q2 13 3 20l12 65q10 60 24 103.5t38 84t63 66.5t92 37l-236 53l15 76q28 164 153 269.5t301 105.5q211 0 293.5 -113t36.5 -376l-125 -707h-188l127 717q14 95 13 157.5t-24.5 99.5t-61 52.5t-97.5 15.5q-207 0 -254 -217 l225 -51l-16 -86q-88 -29 -128 -92t-61 -174l-22 -129q-6 -35 -13 -63.5t-17 -57.5t-22.5 -50.5t-30 -43t-38 -34.5t-47.5 -26t-59 -16.5t-72 -6t-86 4.5z" />
<glyph unicode="&#xe21;" horiz-adv-x="917" d="M82 0l209 1188h188l-157 -899q56 -137 208 -137q143 0 168 133l158 903h188l-159 -914q-26 -139 -109.5 -210.5t-206.5 -71.5q-191 0 -284 160l-47 -152h-156z" />
<glyph unicode="&#xe22;" horiz-adv-x="923" d="M123.5 216.5q-3.5 46.5 3.5 96.5q0 3 4.5 28t5.5 28q19 105 82 181t172 99q-97 24 -135 100.5t-20 176.5q25 141 141 215t317 47l-26 -152q-67 7 -112 0.5t-74 -29.5t-42.5 -46t-17.5 -48q-17 -90 34 -141t156 -51l-24 -135q-225 0 -260 -207q-1 -2 -5.5 -25.5 t-5.5 -25.5q-14 -80 21.5 -132.5t142.5 -52.5q115 0 166.5 57t75.5 191l139 797h189l-144 -817q-35 -194 -140 -286.5t-312 -92.5q-80 0 -142 17.5t-100 48t-62 71.5t-27.5 87.5z" />
<glyph unicode="&#xe23;" horiz-adv-x="774" d="M51 63l74 119q31 -14 97.5 -25.5t131.5 -11.5q214 0 240 158q4 23 4 40t-7.5 44.5t-25 51.5t-54.5 54.5t-91 59.5q-252 138 -217 332q29 164 130 237.5t292 73.5q95 0 177.5 -21t115.5 -49l-70 -120q-35 15 -101.5 26.5t-130.5 11.5q-197 0 -221 -135q-1 -18 -3 -36 t8 -42t27.5 -49t56 -56.5t94.5 -63.5q120 -68 173.5 -150t32.5 -201q-29 -163 -138.5 -241t-301.5 -78q-96 0 -178.5 21t-114.5 50z" />
<glyph unicode="&#xe24;" horiz-adv-x="933" d="M119.5 201q-1.5 52 7.5 112l16 88q19 111 91 189.5t180 101.5l-236 53l15 76q28 164 153 269.5t301 105.5q211 0 293.5 -113t36.5 -376l-197 -1117h-188l199 1127q14 95 13 157.5t-24.5 99.5t-61 52.5t-97.5 15.5q-207 0 -254 -217l225 -51l-17 -86q-96 -32 -159.5 -99.5 t-81.5 -166.5l-10 -66q-9 -46 -11.5 -74t2.5 -59t22.5 -46.5t53 -23t90.5 -1.5l-26 -152q-86 -9 -150 1.5t-102 38t-60 68.5t-23.5 93z" />
<glyph unicode="&#xe25;" horiz-adv-x="909" d="M109 324q28 157 130 241.5t314 124.5l213 39l6 41q14 65 11.5 112.5t-12 78t-35 48.5t-57.5 25.5t-79 7.5q-132 0 -278 -43l-31 129q58 30 162 49t198 19q74 0 130 -13.5t100 -44.5t66 -80.5t28.5 -121t-12.5 -166.5l-136 -770h-190l100 573l-157 -28 q-147 -28 -204.5 -72t-76.5 -145q-5 -33 -5.5 -58.5t5 -51.5t20.5 -41t41 -28t65.5 -12.5t94.5 6.5l-22 -137q-69 -14 -133 -14q-314 0 -256 332z" />
<glyph unicode="&#xe26;" horiz-adv-x="985" d="M31 0l26 152q53 -7 85 0t49.5 32t25 53t16.5 79q2 13 3 20l12 65q10 60 24 103.5t38 84t63 66.5t92 37l-236 53l15 76q28 164 153 269.5t301 105.5q211 0 293.5 -113t36.5 -376l-197 -1117h-188l199 1127q14 95 13 157.5t-24.5 99.5t-61 52.5t-97.5 15.5 q-207 0 -254 -217l225 -51l-16 -86q-88 -29 -128 -92t-61 -174l-22 -129q-6 -35 -13 -63.5t-17 -57.5t-22.5 -50.5t-30 -43t-38 -34.5t-47.5 -26t-59 -16.5t-72 -6t-86 4.5z" />
<glyph unicode="&#xe27;" horiz-adv-x="784" d="M51 63l74 119q32 -15 85 -26t103 -11q127 0 207.5 91t118.5 309l16 98q38 218 -9.5 308.5t-174.5 90.5q-51 0 -108.5 -11t-94.5 -27l-28 120q42 29 120 50.5t156 21.5q98 0 169 -29.5t118.5 -95.5t57 -171.5t-14.5 -256.5l-17 -98q-99 -553 -526 -553q-79 0 -149.5 21 t-102.5 50z" />
<glyph unicode="&#xe28;" horiz-adv-x="991" d="M82 0l123 696q17 96 40 168.5t55 125.5t68 89.5t85.5 60.5t100.5 38t120 24l545 80l-23 -135l-295 -45q91 -41 121.5 -133.5t-0.5 -272.5l-123 -696h-188l123 696q16 105 18 172t-20 105.5t-58.5 53.5t-97.5 15q-82 0 -133 -28t-88.5 -104t-61.5 -214l-39 -217 q86 144 242 144h82l-27 -152h-82q-85 0 -160 -55.5t-87 -126.5l-52 -289h-188z" />
<glyph unicode="&#xe29;" horiz-adv-x="954" d="M149 194.5q-15 102.5 13 258.5l129 735h188l-125 -715q-18 -102 -21 -175t35 -114t124 -41q53 0 92.5 16t64.5 41t44.5 71t30.5 89.5t24 112.5l6 35h-6q-91 0 -146 21t-74 60.5t-18 83.5t18 103h164q-22 -80 -6.5 -104.5t88.5 -24.5h4l94 541h189l-94 -541h104l-24 -139 h-105l-10 -55q-21 -122 -53.5 -205t-86.5 -142.5t-134 -86.5t-193 -27q-149 0 -225 50t-91 152.5z" />
<glyph unicode="&#xe2a;" horiz-adv-x="919" d="M109 324q28 157 130 241.5t314 124.5l213 39v6q15 72 11.5 124.5t-16 87.5t-39.5 55.5t-60 29t-78 8.5q-68 0 -142 -15t-123 -38l-30 129q125 59 327 88l535 78l-23 -135l-290 -41q167 -99 108 -428l-119 -678h-190l100 573l-157 -28q-147 -28 -204.5 -72t-76.5 -145 q-5 -33 -5.5 -58.5t5 -51.5t20.5 -41t41 -28t65.5 -12.5t94.5 6.5l-22 -137q-69 -14 -133 -14q-314 0 -256 332z" />
<glyph unicode="&#xe2b;" horiz-adv-x="929" d="M82 0l209 1188h188l-84 -479l103 10q59 6 102.5 16t76.5 28t54.5 38t40.5 54t31 67t28 86l52 174h190l-51 -174q-47 -157 -107 -236t-178 -106q104 -15 139.5 -82.5t26.5 -214.5l-24 -369h-191l27 381q7 118 -34.5 161.5t-129.5 32.5l-182 -18l-99 -557h-188z" />
<glyph unicode="&#xe2c;" horiz-adv-x="1116" d="M188 0l62 1188h184l-63 -881l315 737h123l53 -737l131 461q25 86 29 131t-8.5 64t-46.5 30l20 123q38 10 63.5 19.5t57 29.5t51 48t34 74t17.5 106h164q5 -126 -59.5 -216t-188.5 -120q70 -36 78.5 -93t-30.5 -180l-236 -784h-184l-60 743l-321 -743h-185z" />
<glyph unicode="&#xe2d;" horiz-adv-x="907" d="M136.5 222.5q-8.5 84.5 10.5 209.5q22 133 74 270h322l-27 -151h-166q-3 -12 -22 -109q-28 -160 8 -230.5t143 -70.5q48 0 83 14t67.5 50t57 102.5t42.5 167.5l37 205q16 89 16 154t-13 105t-41 64t-62.5 32.5t-83.5 8.5q-125 0 -271 -43l-28 129q56 30 157 48t191 18 q64 0 114.5 -10t94.5 -33t72.5 -62.5t45 -96t16 -135.5t-17.5 -179l-36 -205q-21 -118 -56 -205t-77 -139.5t-97.5 -84t-110 -43t-122.5 -11.5q-94 0 -159 22t-109 73t-52.5 135.5z" />
<glyph unicode="&#xe2e;" horiz-adv-x="917" d="M136.5 222.5q-8.5 84.5 10.5 209.5q22 133 74 270h322l-27 -151h-166q-3 -12 -22 -109q-28 -160 8 -230.5t143 -70.5q48 0 83 14t67.5 50t57 102.5t42.5 167.5l37 205q16 89 16 154t-13 105t-41 64t-62.5 32.5t-83.5 8.5q-109 0 -271 -49l-28 129q127 55 303 78l581 80 l-22 -135l-305 -43q85 -48 116.5 -145.5t-0.5 -278.5l-36 -205q-21 -118 -56 -205t-77 -139.5t-97.5 -84t-110 -43t-122.5 -11.5q-94 0 -159 22t-109 73t-52.5 135.5z" />
<glyph unicode="&#xe2f;" horiz-adv-x="851" d="M204 723.5q-6 63.5 9 132.5q35 196 134.5 275.5t305.5 56.5l-26 -152q-27 3 -49.5 3.5t-41 -2.5t-33.5 -7t-27 -12.5t-21 -16.5t-16.5 -22t-13 -25.5t-10.5 -30t-8.5 -33.5t-7.5 -38q-8 -37 -6 -71t11.5 -60t37.5 -41.5t72 -15.5q68 0 127.5 44t85.5 93l68 387h184 l-209 -1188h-184l114 647q-95 -143 -266 -143q-76 0 -128 29t-74 78t-28 112.5z" />
<glyph unicode="&#xe30;" horiz-adv-x="606" d="M116 283q1 48 19 114h180q-24 -88 -7 -114.5t98 -26.5h194l-27 -154h-196q-100 0 -160 23t-81 66.5t-20 91.5zM228.5 940q4.5 40 19.5 92h180q-24 -88 -7.5 -114.5t97.5 -26.5h195l-29 -154h-197q-80 0 -134.5 16t-82 42t-37 65.5t-5 79.5z" />
<glyph unicode="&#xe31;" d="M-373 1659h176q-15 -51 -18 -81t8 -47t32.5 -22.5t61.5 -5.5h377l-26 -151h-373q-181 0 -231.5 76t-6.5 231z" />
<glyph unicode="&#xe32;" horiz-adv-x="753" d="M219 1128q133 68 320 68q85 0 142.5 -20.5t95.5 -67.5t44.5 -125t-10.5 -192l-139 -791h-189l140 791q10 54 11.5 94.5t-5.5 68t-18.5 45t-32.5 27t-42.5 13t-52.5 3.5q-88 0 -219 -39q-3 -1 -5 -1.5t-4.5 -1t-4.5 -1.5z" />
<glyph unicode="&#xe33;" horiz-adv-x="753" d="M-293 1540q17 93 93 153t169 60q92 0 150 -60.5t41 -152.5q-17 -89 -95 -148t-169 -59q-92 0 -148 59t-41 148zM-147 1540q-6 -31 12 -53.5t53 -22.5t63 22.5t33 53.5q6 37 -13 58.5t-54 21.5q-37 0 -62.5 -21t-31.5 -59zM219 1128q133 68 320 68q85 0 142.5 -20.5 t95.5 -67.5t44.5 -125t-10.5 -192l-139 -791h-189l140 791q10 54 11.5 94.5t-5.5 68t-18.5 45t-32.5 27t-42.5 13t-52.5 3.5q-88 0 -219 -39q-3 -1 -5 -1.5t-4.5 -1t-4.5 -1.5z" />
<glyph unicode="&#xe34;" d="M-602 1352l27 151h757l-26 -151h-758z" />
<glyph unicode="&#xe35;" d="M-602 1352l27 151h577l29 156h180l-55 -307h-758z" />
<glyph unicode="&#xe36;" d="M-602 1352l27 151h428q15 83 69.5 129.5t132.5 46.5q77 0 115 -45t25 -118q-12 -73 -67 -118.5t-132 -45.5h-598zM-33 1516q-4 -26 9.5 -42t39.5 -16t43.5 16t22.5 42t-8 41.5t-39 15.5t-45 -15.5t-23 -41.5z" />
<glyph unicode="&#xe37;" d="M-602 1352l27 151h372l29 156h151l-28 -156h82l28 156h152l-55 -307h-758z" />
<glyph unicode="&#xe38;" d="M-492 -287l27 144h359l-70 -389h-172l43 245h-187z" />
<glyph unicode="&#xe39;" d="M-702 -287l26 144h273l-33 -183q-7 -45 5 -64.5t46 -19.5q35 0 55 19.5t27 64.5l33 183h164l-35 -189q-10 -58 -36 -100.5t-63.5 -66.5t-79 -35t-88.5 -11q-97 0 -150.5 46.5t-37.5 142.5l12 69h-118z" />
<glyph unicode="&#xe3a;" d="M-391 -274q11 56 55.5 93.5t99.5 37.5t85.5 -37.5t19.5 -93.5q-9 -56 -53 -94t-99 -38t-86 38t-22 94z" />
<glyph unicode="&#xe3f;" horiz-adv-x="897" d="M82 0l252 1434h241l46 245h188l-47 -258q124 -28 178.5 -116t28.5 -232q-46 -258 -264 -325q129 -15 184 -103t29 -235q-31 -177 -137 -277.5t-267 -124.5l-45 -254h-188l43 246h-242zM299 160h109q156 0 230 62.5t95 189.5q23 126 -29 186.5t-208 60.5h-109zM416 819h94 q64 0 115 22t82 59t49.5 76.5t25.5 82.5q20 106 -32.5 160.5t-161.5 54.5h-92z" />
<glyph unicode="&#xe40;" horiz-adv-x="495" d="M150.5 201q-1.5 52 7.5 112l153 875h189l-148 -840q-8 -46 -10.5 -74.5t3 -59.5t23 -46t53 -23t89.5 -2l-25 -143q-86 -9 -150 1.5t-102 38t-59.5 68.5t-23 93z" />
<glyph unicode="&#xe41;" horiz-adv-x="925" d="M150.5 201q-1.5 52 7.5 112l153 875h189l-148 -840q-8 -46 -10.5 -74.5t3 -59.5t23 -46t53 -23t89.5 -2l-25 -143q-86 -9 -150 1.5t-102 38t-59.5 68.5t-23 93zM580.5 201q-1.5 52 7.5 112l153 875h189l-148 -840q-8 -46 -10.5 -74.5t3 -59.5t23 -46t53 -23t89.5 -2 l-25 -143q-86 -9 -150 1.5t-102 38t-59.5 68.5t-23 93z" />
<glyph unicode="&#xe42;" horiz-adv-x="598" d="M213 1362l6 27q14 80 38 135t67 96t110 60.5t162 19.5h301l-27 -152h-295q-80 0 -117.5 -25t-45.5 -73l-2 -12q125 -27 166 -97.5t14 -222.5l-135 -770q-8 -46 -10.5 -74t2.5 -59.5t22.5 -46.5t53 -23t89.5 -2l-24 -143q-86 -9 -150 1.5t-102 38t-60 68.5t-23.5 93 t7.5 112l146 826q14 67 2.5 111.5t-56.5 70.5t-139 41z" />
<glyph unicode="&#xe43;" horiz-adv-x="598" d="M252.5 201q-1.5 52 7.5 112l129 736q7 41 34 81.5t61 75t68.5 69.5t61.5 79t35 90q9 47 -12.5 76.5t-95.5 29.5q-62 0 -122.5 -22t-90.5 -44l-29 -22l-39 123q5 5 14.5 12.5t41 27.5t66.5 35t89.5 27.5t110.5 12.5q140 0 204 -65.5t41 -192.5q-10 -58 -37.5 -108.5 t-60 -86.5t-65 -70t-59 -76t-34.5 -89l-116 -664q-8 -46 -10.5 -74t2.5 -59.5t22.5 -46.5t53 -23t89.5 -2l-24 -143q-86 -9 -150 1.5t-102 38t-60 68.5t-23.5 93z" />
<glyph unicode="&#xe44;" horiz-adv-x="598" d="M252.5 201q-1.5 52 7.5 112l156 885q22 126 91 218t161 132h-375l26 152h584l-20 -115q-98 -65 -129 -93q-109 -97 -145 -268q-3 -13 -5 -26l-149 -850q-8 -46 -10.5 -74t2.5 -59.5t22.5 -46.5t53 -23t89.5 -2l-24 -143q-86 -9 -150 1.5t-102 38t-60 68.5t-23.5 93z" />
<glyph unicode="&#xe45;" horiz-adv-x="753" d="M219 1128q133 68 320 68q85 0 142.5 -20.5t95.5 -67.5t44.5 -125t-10.5 -192l-211 -1201h-188l211 1201q10 54 11.5 94.5t-5.5 68t-18.5 45t-32.5 27t-42.5 13t-52.5 3.5q-88 0 -219 -39q-3 -1 -5 -1.5t-4.5 -1t-4.5 -1.5z" />
<glyph unicode="&#xe46;" horiz-adv-x="927" d="M177.5 557.5q-10.5 58.5 6.5 140.5q7 38 12 61.5t17 66t25.5 71t37.5 63.5t51.5 55.5t68.5 35t89 14.5q66 0 109 -34.5t37 -90.5q33 63 79 94t124 31q40 0 69 -9t47.5 -23.5t28.5 -40.5t14 -51t1 -64.5t-7.5 -72t-13.5 -81.5l-164 -928h-184l166 942l6 36t4.5 35t1 35.5 t-5.5 27.5t-14 21.5t-25 6.5q-71 0 -99 -166h-122q13 53 4 110.5t-49 57.5q-26 0 -45 -10.5t-30.5 -25t-20.5 -41t-13 -47.5t-10 -55q-1 -5 -1.5 -8t-1 -7.5t-1.5 -8.5q-19 -109 20 -148t168 -24l-25 -141q-77 -8 -136 -4t-107.5 23.5t-74.5 57t-36.5 96z" />
<glyph unicode="&#xe47;" d="M-512 1571q43 225 309 225h398l-25 -135h-391q-114 0 -131 -88q-6 -41 8.5 -63.5t48.5 -22.5q39 0 62.5 23t33.5 77h138q-11 -59 14 -86t64 -22.5t73 7.5q6 1 8 1l-24 -135q-39 -6 -77 -4.5t-68.5 10t-52.5 34t-28 66.5q-63 -106 -178 -106q-96 0 -149 52t-33 167z" />
<glyph unicode="&#xe48;" d="M-29 1352l74 409h180l-73 -409h-181z" />
<glyph unicode="&#xe49;" d="M-406 1352l15 75q53 19 90.5 50t51.5 57t18 49q9 44 -31.5 55t-97.5 -12l-9 107q78 28 166 28q78 0 123 -31t33 -106q-19 -107 -154 -160q134 39 240 39h184l-26 -151h-603z" />
<glyph unicode="&#xe4a;" d="M-580 1526q36 209 191 209q49 0 84 -21.5t47 -64.5q48 86 149 86q81 0 104 -53.5t5 -161.5l-8 -39q-1 -12 -1.5 -21.5t4 -15.5t15.5 -6q19 0 26 28q1 3 5 25l65 254h144l-66 -254q-23 -89 -68 -124.5t-126 -35.5q-82 0 -115.5 35.5t-19.5 124.5l6 27q4 27 4.5 45.5 t-7.5 28.5t-28 10q-8 0 -14 -1t-11 -5t-9 -6.5t-7 -10t-5 -11.5t-4.5 -14.5t-3.5 -15.5t-3.5 -19t-3.5 -20h-115q12 47 8.5 75t-31.5 28q-29 0 -41.5 -19t-19.5 -59q-3 -16 -3 -29t2.5 -21.5t6 -14.5t10 -9t13 -4.5t17 -1.5t19 0.5t21 1t22.5 0.5l-18 -111q-60 -6 -109 0 t-82.5 23t-47 59t-1.5 109z" />
<glyph unicode="&#xe4b;" d="M-371 1503l23 127h192l27 152h168l-27 -152h193l-23 -127h-192l-27 -151h-168l27 151h-193z" />
<glyph unicode="&#xe4c;" d="M-305 1352q11 155 89 231t259 76h209l-27 -152h-213q-77 0 -105.5 -29t-35.5 -126h-176z" />
<glyph unicode="&#xe4d;" d="M-293 1540q17 93 93 153t169 60q92 0 150 -60.5t41 -152.5q-17 -89 -95 -148t-169 -59q-92 0 -148 59t-41 148zM-147 1540q-6 -31 12 -53.5t53 -22.5t63 22.5t33 53.5q6 37 -13 58.5t-54 21.5q-37 0 -62.5 -21t-31.5 -59z" />
<glyph unicode="&#xe4e;" />
<glyph unicode="&#xe4f;" horiz-adv-x="978" d="M176 649q31 177 178.5 303.5t325.5 126.5q116 0 204.5 -58t128 -157t19.5 -215q-32 -178 -179.5 -303t-324.5 -125q-179 0 -281.5 125t-70.5 303zM256 649q-26 -142 59 -245t228 -103q140 0 257.5 102.5t143.5 245.5q25 141 -57 240.5t-223 99.5q-143 0 -263 -99.5 t-145 -240.5zM346 649q19 108 107.5 182t195.5 74q105 0 166.5 -74t42.5 -182q-19 -106 -107 -182t-192 -76q-106 0 -169 76t-44 182zM422 649q-14 -75 30 -128.5t119 -53.5q77 0 136 53t73 129q14 77 -26.5 126.5t-118.5 49.5q-76 0 -138 -50t-75 -126z" />
<glyph unicode="&#xe50;" horiz-adv-x="870" d="M134 267.5q-9 98.5 13 242.5l9 43q25 140 72.5 243t110.5 162t133.5 87t150.5 28t141 -27t105.5 -88.5t54 -161t-12.5 -243.5l-8 -43q-25 -139 -73 -242t-112 -161.5t-135 -86.5t-151 -28t-140.5 27t-104.5 88.5t-53 160zM328 510q-67 -375 131 -375q197 0 264 375l8 43 q64 375 -133 375q-198 0 -262 -375z" />
<glyph unicode="&#xe51;" horiz-adv-x="870" d="M161 501q-7 60 9 142q19 107 64 191t106 135.5t133 77.5t150 26q80 0 141 -27t105.5 -88.5t54 -161t-12.5 -243.5l-22 -125q-21 -119 -65 -213.5t-116.5 -168.5t-183.5 -109t-252 -23l41 145q324 -31 396 369l22 125q64 375 -133 375q-94 0 -159 -76t-87 -207 q-7 -41 -7.5 -74t3.5 -56.5t14.5 -40.5t21 -27t27 -16t29.5 -8t31.5 -1.5t29 2t25.5 4.5l-26 -145q-26 -8 -57 -10.5t-69 0.5t-72 17t-65.5 40t-50 68.5t-25.5 102.5z" />
<glyph unicode="&#xe52;" horiz-adv-x="1007" d="M162 453l172 981h180l-172 -981q-27 -157 14.5 -233.5t171.5 -76.5q132 0 203 77t98 233l54 305q27 149 -13 149q-15 0 -27 -14t-20.5 -44.5t-13 -50.5t-10.5 -57h-107q13 53 13 110.5t-31 57.5q-27 0 -40.5 -36.5t-29.5 -124.5q-7 -42 -9.5 -68t0.5 -47t11.5 -30.5 t27 -14t42 -2.5t61.5 8l-22 -125q-171 -34 -241 32.5t-38 246.5q6 32 8.5 45t10 46.5t13 50t17 45.5t23 45t29 36.5t37 31t45 18t55.5 7.5q45 0 76 -22t38 -60q25 41 59 61.5t89 20.5q40 0 68 -11t43.5 -34.5t23 -51t6 -70t-6.5 -81t-15 -94.5l-49 -278 q-41 -231 -169.5 -346t-334.5 -115q-204 0 -292.5 115t-47.5 346z" />
<glyph unicode="&#xe53;" horiz-adv-x="952" d="M131.5 211q-12.5 74 5.5 164l64 356q14 79 34 137.5t51 106.5t78 73t109 25q134 0 166 -125q37 63 83.5 94t123.5 31q82 0 123 -45t43.5 -121t-13.5 -176l-129 -731h-184l131 745q4 23 6 35.5t4.5 34.5t0.5 35t-7 27.5t-16 21t-27 6.5q-26 0 -44.5 -12t-30 -41.5t-15 -45 t-10.5 -55.5q-1 -3 -1.5 -5.5t-0.5 -4.5l-33 -188h-147l32 188q6 33 7.5 56.5t0 51t-15 42t-37.5 14.5q-16 0 -29.5 -6.5t-23 -21t-16 -27t-12.5 -35.5t-8.5 -34.5t-6.5 -35.5l-57 -327q-16 -95 -11.5 -158t48 -90.5t135.5 -17.5l-27 -152q-107 -11 -182 12t-112 74 t-49.5 125z" />
<glyph unicode="&#xe54;" horiz-adv-x="849" d="M121 274l57 330q22 125 51 205.5t79 141t127 87.5t190 27h59q95 0 137 48t47 157h164q-5 -89 -27.5 -153.5t-55 -102.5t-81.5 -60t-97.5 -29t-113.5 -7h-59q-52 0 -90 -17.5t-60.5 -39t-40.5 -73.5t-26 -86.5t-22 -112.5q-1 -3 -1 -5l-53 -301q-22 -133 121 -133 q83 0 135 40q0 65 14 142l50 284h282l-24 -143h-119l-25 -141q-21 -111 1 -148t116 -37l-27 -147q-106 0 -163.5 17.5t-83.5 74.5q-117 -100 -252 -100q-123 0 -179 71.5t-30 210.5z" />
<glyph unicode="&#xe55;" horiz-adv-x="849" d="M121 274l57 330q31 179 83 280t151 144q-29 47 -21 102q13 76 74.5 125.5t136.5 49.5q76 0 121.5 -49.5t32.5 -125.5q-6 -36 -23 -61q67 10 99.5 58.5t35.5 142.5h164q-5 -89 -27.5 -153.5t-55 -102.5t-81.5 -60t-97.5 -29t-113.5 -7h-59q-52 0 -90 -17.5t-60.5 -39 t-40.5 -73.5t-26 -86.5t-22 -112.5q-1 -3 -1 -5l-53 -301q-22 -133 121 -133q83 0 135 40q0 65 14 142l50 284h282l-24 -143h-119l-25 -141q-21 -111 1 -148t116 -37l-27 -147q-106 0 -163.5 17.5t-83.5 74.5q-117 -100 -252 -100q-123 0 -179 71.5t-30 210.5zM508 1130 q-3 -26 11 -43.5t42 -17.5q29 0 52 18t26 43q6 31 -9.5 48.5t-45.5 17.5t-50 -17t-26 -49z" />
<glyph unicode="&#xe56;" horiz-adv-x="899" d="M131 340q15 82 43 145t64.5 99.5t76 60t82.5 31t78 7t68 -6.5l-25 -146q-169 27 -207 -192q-17 -98 24.5 -149.5t137.5 -51.5q51 0 87 12t69 45.5t57 96.5t41 160l25 141q6 32 8.5 47t7 46t5 47t1 43.5t-4 42.5t-10 35t-17.5 31.5t-27 22.5t-37 16t-49 5q-73 0 -130 -36 t-89 -95h-136l2 534h185l-17 -354q88 96 250 96q82 0 137 -24.5t82.5 -65t36.5 -105t3.5 -130.5t-21.5 -156l-25 -141q-20 -112 -55 -195t-77 -133t-98 -80t-110 -40.5t-121 -10.5q-80 0 -142.5 19t-108.5 59t-63 109t-1 161z" />
<glyph unicode="&#xe57;" horiz-adv-x="1284" d="M131.5 211q-12.5 74 5.5 164l64 356q14 79 34 137.5t51 106.5t78 73t109 25q134 0 166 -125q37 63 83.5 94t123.5 31q82 0 123 -45t43.5 -121t-13.5 -176l-86 -491q-10 -56 4.5 -78.5t51.5 -22.5q39 0 60.5 22t31.5 79l209 1194h184l-205 -1172q-28 -155 -105.5 -216.5 t-201.5 -61.5q-122 0 -179 62t-30 216l84 483q4 23 6 35.5t4.5 34.5t0.5 35t-7 27.5t-16 21t-27 6.5q-26 0 -44.5 -12t-30 -41.5t-15 -45t-10.5 -55.5q-1 -3 -1.5 -5.5t-0.5 -4.5l-33 -188h-147l32 188q6 33 7.5 56.5t0 51t-15 42t-37.5 14.5q-16 0 -29.5 -6.5t-23 -21 t-16 -27t-12.5 -35.5t-8.5 -34.5t-6.5 -35.5l-57 -327q-16 -95 -11.5 -158t48 -90.5t135.5 -17.5l-27 -152q-107 -11 -182 12t-112 74t-49.5 125z" />
<glyph unicode="&#xe58;" horiz-adv-x="892" d="M117 158q-2 76 14 176l47 270q22 125 51 205.5t79 141t127 87.5t190 27h80q95 0 137 48t47 157h164q-5 -89 -27.5 -153.5t-55 -102.5t-81.5 -60t-97.5 -29t-113.5 -7h-80q-52 0 -90 -17.5t-60.5 -39t-40.5 -73.5t-26 -86.5t-22 -112.5q-1 -3 -1 -5l-45 -265 q-4 -23 -6 -35.5t-4.5 -34.5t0 -35t7 -27t15.5 -20.5t27 -6.5q33 0 54.5 26.5t27.5 49.5t14 72q1 5 1.5 8.5t1.5 7.5l18 106h135l-18 -106q-4 -23 -6 -37t-4 -36t0.5 -35.5t7 -28t16 -21t27.5 -6.5q19 0 35 11t25 24.5t17 40t11 40.5t8 43l12 74q12 69 11 106.5t-17.5 58 t-50.5 21t-88 -3.5l24 142q189 23 261.5 -44.5t42.5 -246.5l-17 -92q-14 -80 -33 -137.5t-49 -106.5t-76 -73.5t-108 -24.5q-70 0 -105 31t-49 94q-40 -66 -81 -95.5t-117 -29.5q-82 0 -123 45t-43 121z" />
<glyph unicode="&#xe59;" horiz-adv-x="911" d="M126 241q0 62 11 134l64 356q12 67 23.5 112.5t32.5 92.5t48.5 74.5t69.5 45t98 17.5q72 0 118 -34.5t60 -94.5q9 61 47.5 95t102.5 34q107 0 117 -106l94 303h164l-185 -529h-135q9 164 -80 164q-27 0 -45.5 -16.5t-26 -41t-10.5 -53t2 -53.5l80 -741h-168l-86 780 q-8 70 -19 97.5t-38 27.5q-31 0 -46 -30.5t-24 -88.5l-65 -368q-16 -95 -17 -158t38 -90.5t130 -17.5l-26 -152q-86 -9 -149.5 4t-101 45.5t-58 81t-20.5 110.5z" />
<glyph unicode="&#xe5a;" horiz-adv-x="1153" d="M204 723.5q-6 63.5 9 132.5q35 196 134.5 275.5t305.5 56.5l-26 -152q-27 3 -49.5 3.5t-41 -2.5t-33.5 -7t-27 -12.5t-21 -16.5t-16.5 -22t-13 -25.5t-10.5 -30t-8.5 -33.5t-7.5 -38q-8 -37 -6 -71t11.5 -60t37.5 -41.5t72 -15.5q68 0 127.5 44t85.5 93l68 387h184 l-209 -1188h-184l114 647q-95 -143 -266 -143q-76 0 -128 29t-74 78t-28 112.5zM887 0l209 1188h184l-209 -1188h-184z" />
<glyph unicode="&#xe5b;" horiz-adv-x="1435" d="M153.5 478q2.5 62 14.5 128q10 55 24.5 104.5t42.5 107t65 98.5t94.5 68.5t127.5 27.5q49 0 84.5 -15.5t56.5 -38.5t32 -61t14 -70t-1 -79t-8 -75t-12 -71h-135q46 258 -55 258q-126 0 -172 -268q-61 -332 112 -332q61 0 116.5 40t97 107t75.5 142.5t58.5 160t39 144.5 t23.5 111h160l-7 -406l113 326h156q-1 -7 -6.5 -36.5t-7.5 -46t-4.5 -45.5t1 -46t11 -35.5t23.5 -27.5t40 -9h180l-26 -150h-181q-72 0 -114.5 48t-32.5 157l-172 -481h-92l8 449q-77 -265 -193 -406t-286 -141q-79 0 -135 32.5t-83 82.5t-38 118t-8.5 130z" />
<glyph unicode="&#x2000;" horiz-adv-x="1109" />
<glyph unicode="&#x2001;" horiz-adv-x="2218" />
<glyph unicode="&#x2002;" horiz-adv-x="1109" />
<glyph unicode="&#x2003;" horiz-adv-x="2218" />
<glyph unicode="&#x2004;" horiz-adv-x="739" />
<glyph unicode="&#x2005;" horiz-adv-x="554" />
<glyph unicode="&#x2006;" horiz-adv-x="369" />
<glyph unicode="&#x2007;" horiz-adv-x="369" />
<glyph unicode="&#x2008;" horiz-adv-x="277" />
<glyph unicode="&#x2009;" horiz-adv-x="443" />
<glyph unicode="&#x200a;" horiz-adv-x="123" />
<glyph unicode="&#x2010;" horiz-adv-x="901" d="M190 610l27 156h737l-26 -156h-738z" />
<glyph unicode="&#x2011;" horiz-adv-x="901" d="M190 610l27 156h737l-26 -156h-738z" />
<glyph unicode="&#x2012;" horiz-adv-x="901" d="M190 610l27 156h737l-26 -156h-738z" />
<glyph unicode="&#x2013;" horiz-adv-x="901" d="M190 610l27 156h737l-26 -156h-738z" />
<glyph unicode="&#x2014;" horiz-adv-x="1024" d="M190 610l27 156h860l-26 -156h-861z" />
<glyph unicode="&#x2018;" horiz-adv-x="460" d="M207 942l301 492h164l-260 -492h-205z" />
<glyph unicode="&#x2019;" horiz-adv-x="460" d="M207 942l260 492h205l-301 -492h-164z" />
<glyph unicode="&#x201a;" horiz-adv-x="339" d="M-59 -225l200 471h211l-258 -471h-153z" />
<glyph unicode="&#x201c;" horiz-adv-x="778" d="M207 942l301 492h164l-260 -492h-205zM524 942l301 492h164l-260 -492h-205z" />
<glyph unicode="&#x201d;" horiz-adv-x="778" d="M207 942l260 492h205l-301 -492h-164zM524 942l260 492h205l-301 -492h-164z" />
<glyph unicode="&#x201e;" horiz-adv-x="657" d="M-59 -225l200 471h211l-258 -471h-153zM258 -225l201 471h211l-258 -471h-154z" />
<glyph unicode="&#x2020;" horiz-adv-x="843" d="M217 883l29 159h266l68 392h188l-68 -392h267l-29 -159h-266l-156 -883h-188l155 883h-266z" />
<glyph unicode="&#x2021;" horiz-adv-x="843" d="M131 391l29 164h266l57 328h-266l29 159h266l68 392h188l-68 -392h267l-29 -159h-266l-58 -328h267l-29 -164h-266l-70 -391h-188l69 391h-266z" />
<glyph unicode="&#x2022;" horiz-adv-x="628" d="M176 649q19 105 108 178.5t193 73.5q103 0 163.5 -73.5t41.5 -178.5q-19 -101 -106 -176.5t-189 -75.5q-104 0 -167 74t-44 178z" />
<glyph unicode="&#x2026;" horiz-adv-x="1054" d="M63 127q9 52 53 89.5t97 37.5t84 -36.5t22 -90.5q-9 -52 -53.5 -89.5t-97.5 -37.5q-52 0 -83 37t-22 90zM422 127q9 52 52.5 89.5t96.5 37.5t84.5 -36.5t22.5 -90.5q-9 -52 -54 -89.5t-98 -37.5q-52 0 -82.5 37t-21.5 90zM780 127q9 52 53 89.5t97 37.5t84 -36.5 t22 -90.5q-9 -52 -53.5 -89.5t-97.5 -37.5q-52 0 -83 37t-22 90z" />
<glyph unicode="&#x202f;" horiz-adv-x="443" />
<glyph unicode="&#x2030;" horiz-adv-x="1638" d="M233 0l738 1434h174l-737 -1434h-175zM236 1104l4 26q29 162 104.5 237t175.5 75q101 0 151 -75.5t21 -236.5l-4 -26q-29 -161 -105 -236t-177 -75t-150 74.5t-20 236.5zM373 1106q-29 -170 59 -170q92 0 121 170l4 22q28 168 -61 168q-91 0 -119 -168zM686 303l4 27 q29 162 104.5 236.5t176.5 74.5t151 -75t21 -236l-4 -27q-29 -161 -105.5 -236t-177.5 -75t-150 74.5t-20 236.5zM823 305q-29 -170 60 -170q92 0 121 170l4 23q28 168 -62 168q-91 0 -119 -168zM1198 303l4 27q29 162 104.5 236.5t176.5 74.5t151 -75t21 -236l-4 -27 q-29 -161 -105.5 -236t-177.5 -75t-150 74.5t-20 236.5zM1335 305q-29 -170 60 -170q92 0 121 170l4 23q28 168 -62 168q-91 0 -119 -168z" />
<glyph unicode="&#x2039;" horiz-adv-x="778" d="M182 573l13 68l708 533l-37 -216l-473 -352l348 -350l-36 -215z" />
<glyph unicode="&#x203a;" horiz-adv-x="778" d="M90 41l37 215l471 350l-346 352l37 216l520 -533l-12 -68z" />
<glyph unicode="&#x2044;" horiz-adv-x="587" d="M20 0l615 1434h184l-614 -1434h-185z" />
<glyph unicode="&#x205f;" horiz-adv-x="554" />
<glyph unicode="&#x20ac;" horiz-adv-x="966" d="M104 479l29 156h121q3 37 12 82q3 21 17 90h-121l28 156h138q160 479 557 479q77 0 145 -18t98 -36l29 -18l-70 -143q-102 43 -208 43q-240 0 -349 -307h357l-29 -156h-371q-13 -68 -16 -90q-9 -40 -12 -82h370l-28 -156h-357q-4 -315 240 -315q47 0 103 11t88 21l32 11 l19 -144q-14 -8 -39 -20t-103 -31.5t-155 -19.5q-399 0 -389 487h-136z" />
<glyph unicode="&#x2122;" horiz-adv-x="1273" d="M250 1307l22 127h541l-22 -127h-195l-84 -488h-152l84 488h-194zM791 819l106 615h164l53 -443l207 443h164l-107 -615h-143l61 355l-161 -355h-101l-39 355l-61 -355h-143z" />
<glyph unicode="&#x2212;" horiz-adv-x="901" d="M190 610l27 156h737l-26 -156h-738z" />
<glyph unicode="&#x25cc;" horiz-adv-x="1132" d="M279 642q1 21 14 34q15 14 36 16t33 -10q13 -10 11 -31.5t-19 -34.5q-14 -14 -33.5 -16t-31.5 8q-11 13 -10 34zM343 396q2 19 15 32q14 15 33.5 17t30.5 -11q15 -9 14 -29.5t-18 -33.5q-11 -14 -32.5 -16.5t-33.5 7.5q-11 15 -9 34zM431 893q2 18 15 33q13 17 33.5 19 t30.5 -13q15 -12 13 -32.5t-19 -35.5q-10 -17 -32 -17t-32 15q-11 13 -9 31zM574 284q2 19 16 33t33.5 17.5t31.5 -6.5q23 -32 -2 -68q-17 -15 -37 -16.5t-30 10.5q-14 11 -12 30zM700 997.5q2 18.5 17 32.5q12 14 32.5 17t32.5 -7q10 -14 9.5 -33.5t-11.5 -33.5 q-44 -31 -69 -6q-13 12 -11 30.5zM842 396q3 19 18 32q14 15 32 17t32 -11q14 -9 14.5 -29t-16.5 -34q-14 -14 -35.5 -16.5t-36.5 7.5q-11 15 -8 34zM930 893q3 18 18 33q14 17 32 19t32 -13q14 -12 13.5 -32.5t-17.5 -35.5q-13 -17 -35 -17t-35 15q-11 13 -8 31zM989 642 q2 19 12 34q19 14 38.5 16t31.5 -10q12 -10 11 -31.5t-17 -34.5q-13 -14 -34.5 -16t-33.5 8q-10 15 -8 34z" />
<glyph unicode="&#x25fc;" horiz-adv-x="1064" d="M0 0v1065h1065v-1065h-1065z" />
<glyph horiz-adv-x="899" d="M150 524l26 152h170q37 0 62 -21.5t28 -56.5l51 -448q244 363 289 616q9 50 9 90.5t-7 69t-21.5 50t-32.5 34.5t-43.5 20.5t-51.5 10.5t-58 3q-101 0 -295 -57l-28 129q119 52 368 88l535 78l-23 -135l-290 -41q84 -36 117.5 -110.5t9.5 -207.5q-57 -322 -398 -788h-229 l-62 504q-3 20 -22 20h-104z" />
<glyph horiz-adv-x="1413" d="M119.5 201q-1.5 52 7.5 112l16 88q19 111 91 189.5t180 101.5l-236 53l15 76q29 166 146.5 270.5t291.5 104.5q104 0 172.5 -26t109.5 -83.5t47 -151t-16 -228.5l-43 -238q-27 -156 -27 -203q2 -90 69 -113q29 -10 71 -10q30 0 53.5 4t42 15t31.5 21.5t23.5 31.5t17.5 37 t13.5 46.5t10 51t10.5 60t11 63.5l125 715h188l-129 -735q-15 -85 -29.5 -143.5t-37 -114.5t-52.5 -90.5t-72.5 -62t-100 -39t-132.5 -11.5q-148 0 -218.5 50t-78 152.5t20.5 258.5l47 264q24 124 13.5 196t-49.5 100.5t-118 28.5q-99 0 -156.5 -51.5t-80.5 -165.5l225 -51 l-17 -86q-96 -32 -159.5 -99.5t-81.5 -166.5l-10 -66q-9 -46 -11.5 -74t2.5 -59t22.5 -46.5t53 -23t90.5 -1.5l-26 -152q-86 -9 -150 1.5t-102 38t-60 68.5t-23.5 93z" />
<glyph d="M-291 1540q17 93 92 153t168 60q94 0 151 -60t40 -153q-17 -89 -94 -148t-170 -59t-148.5 59t-38.5 148zM-147 1540q-6 -31 12 -53.5t53 -22.5t63.5 22.5t34.5 53.5q6 37 -14.5 58.5t-56.5 21.5t-61 -21t-31 -59zM-20 1831l63 369h180l-63 -369h-180z" />
<glyph d="M-291 1540q17 93 92 153t168 60q94 0 151 -60t40 -153q-17 -89 -94 -148t-170 -59t-148.5 59t-38.5 148zM-240 1833l13 68q69 25 104 65.5t41 75.5q7 40 -29.5 49.5t-87.5 -10.5l-8 94q70 27 150 27q70 0 110 -28.5t29 -94.5q-15 -97 -137 -144q121 35 217 35h166 l-25 -137h-543zM-147 1540q-6 -31 12 -53.5t53 -22.5t63.5 22.5t34.5 53.5q6 37 -14.5 58.5t-56.5 21.5t-61 -21t-31 -59z" />
<glyph d="M-313 1999q33 186 170 186q95 0 118 -76q42 76 134 76q73 0 93.5 -47.5t4.5 -144.5l-6 -35q-8 -39 14 -39q13 0 18 10t10 32q1 3 1 5l59 229h129l-59 -229q-20 -80 -61 -111.5t-115 -31.5t-104 31.5t-17 111.5l4 25q8 35 3.5 55t-30.5 20q-27 0 -36.5 -19t-17.5 -65 q-1 -5 -1 -8h-102q10 43 7 67.5t-28 24.5q-26 0 -38 -17.5t-17 -51.5q-3 -15 -3 -26.5t2 -19t5.5 -13t10 -8.5t12 -4.5t15.5 -2t17 0t19 1t20 0.5l-18 -98q-53 -6 -96.5 -1t-73.5 21t-42 54t-1 98zM-291 1540q17 93 92 153t168 60q94 0 151 -60t40 -153q-17 -89 -94 -148 t-170 -59t-148.5 59t-38.5 148zM-147 1540q-6 -31 12 -53.5t53 -22.5t63.5 22.5t34.5 53.5q6 37 -14.5 58.5t-56.5 21.5t-61 -21t-31 -59z" />
<glyph d="M-291 1540q17 93 92 153t168 60q94 0 151 -60t40 -153q-17 -89 -94 -148t-170 -59t-148.5 59t-38.5 148zM-174 1968l20 113h174l25 137h152l-25 -137h174l-20 -113h-174l-23 -137h-152l23 137h-174zM-147 1540q-6 -31 12 -53.5t53 -22.5t63.5 22.5t34.5 53.5 q6 37 -14.5 58.5t-56.5 21.5t-61 -21t-31 -59z" />
<glyph d="M-309 1659h168q-15 -51 -18 -81t8 -47t32.5 -22.5t61.5 -5.5h239l-26 -151h-228q-180 0 -230.5 76t-6.5 231z" />
<glyph d="M-500 1352l27 151h655l-26 -151h-656z" />
<glyph d="M-500 1352l27 151h475l29 156h180l-55 -307h-656z" />
<glyph d="M-500 1352l27 151h326q15 84 69.5 130t132.5 46q77 0 115 -45t25 -118q-12 -73 -67 -118.5t-132 -45.5h-496zM-33 1516q-4 -26 9.5 -42t39.5 -16t43.5 16t22.5 42t-8 41.5t-39 15.5t-45 -15.5t-23 -41.5z" />
<glyph d="M-500 1352l27 151h270l29 156h151l-28 -156h82l28 156h152l-55 -307h-656z" />
<glyph d="M-29 1352l74 409h180l-73 -409h-181z" />
<glyph d="M-365 1352l15 75q53 19 90.5 50t51.5 57t18 49q9 44 -31.5 55t-97.5 -12l-9 107q78 28 166 28q78 0 123 -31t33 -106q-19 -107 -154 -160q134 39 240 39h102l-26 -151h-521z" />
<glyph d="M-375 1526q36 209 180 209q42 0 76 -22t45 -64q48 86 140 86q73 0 94.5 -54t3.5 -161l-8 -39q-3 -17 0 -30t16 -13q16 0 21.5 12t11.5 41l65 254h144l-66 -254q-23 -89 -68 -124.5t-126 -35.5q-82 0 -116 35.5t-20 124.5l7 27q8 40 4 62t-25 22q-6 0 -11 -1.5t-9 -4.5 t-7 -6.5t-5.5 -10t-4.5 -11.5t-4 -14.5t-3 -16t-3.5 -18.5t-3.5 -20h-115q11 47 10 75t-22 28q-38 0 -51 -78q-5 -19 -2.5 -32t3 -22t8 -14.5t12.5 -8t16 -3t18.5 -0.5t20.5 1t22 1l-18 -111q-56 -6 -103 0t-79.5 23t-46 59.5t-1.5 108.5z" />
<glyph d="M-309 1503l22 127h172l27 152h168l-27 -152h172l-22 -127h-172l-27 -151h-168l27 151h-172z" />
<glyph d="M-399 1573q10 51 29.5 89.5t53.5 70t88.5 47.5t127.5 16h376l-24 -135h-371q-57 0 -85 -23.5t-36 -70.5q-13 -80 47 -80q38 0 57 22t30 78h137q-9 -39 -1 -61t21 -33t35.5 -13t42.5 0t41 5q7 2 10 2l-24 -135q-54 -5 -98 -3.5t-76.5 28.5t-40.5 81q-34 -57 -73.5 -81.5 t-100.5 -24.5q-91 0 -138.5 52.5t-27.5 168.5z" />
<glyph d="M-25 1352l66 368h180l-65 -368h-181z" />
<glyph d="M-264 1352l12 67q69 25 104.5 66t41.5 76q4 27 -9.5 39t-42.5 12q-26 0 -63 -13l-8 95q67 26 147 26q71 0 111.5 -28.5t29.5 -94.5q-19 -97 -139 -143q121 35 217 35h166l-24 -137h-543z" />
<glyph d="M-461 1507q33 187 170 187q97 0 117 -76q44 76 135 76q73 0 93.5 -48.5t2.5 -144.5l-6 -35q-8 -39 17 -39q3 0 6 0.5t5 2.5l3.5 3.5t3 5t2.5 5.5t2.5 6.5t2 7.5t1.5 8.5t2 8.5l60 229h129l-60 -229q-21 -81 -62 -112.5t-114 -31.5q-74 0 -104.5 32t-16.5 112l4 24 q5 28 5.5 41.5t-6.5 24t-25 10.5q-20 0 -31 -13t-15 -27.5t-10 -51.5h-102q10 43 7.5 67.5t-27.5 24.5q-46 0 -56 -70q-3 -15 -3 -26.5t2 -19t5.5 -13t9.5 -8.5t12 -4t15.5 -1.5t17 0t19 1t19.5 0.5l-17 -99q-53 -6 -97 -0.5t-74 20.5t-41.5 53.5t-0.5 98.5z" />
<glyph d="M-158 1489l21 113h174l24 137h152l-25 -137h174l-20 -113h-174l-25 -137h-151l24 137h-174z" />
<glyph d="M-51 1475q11 155 85 227t255 72h209l-27 -144h-213q-77 0 -105 -29t-34 -126h-170z" />
<glyph d="M-215 1352q11 140 80.5 208t232.5 68h189l-25 -137h-192q-69 0 -93.5 -25t-31.5 -114h-160z" />
</font>
</defs>
</svg>
