<?xml version="1.0" standalone="no"?>
<!DOCTYPE svg PUBLIC "-//W3C//DTD SVG 1.1//EN" "http://www.w3.org/Graphics/SVG/1.1/DTD/svg11.dtd" >
<svg xmlns="http://www.w3.org/2000/svg" xmlns:xlink="http://www.w3.org/1999/xlink" version="1.1">
<metadata></metadata>
<defs>
<font id="fc_flexicalight" horiz-adv-x="0" >
<font-face units-per-em="2048" ascent="1638" descent="-410" />
<missing-glyph horiz-adv-x="409" />
<glyph unicode="fi" horiz-adv-x="1015" d="M20 922v143h164v33q2 179 64 267.5t198 88.5q120 0 172 -41l-32 -125q-51 23 -103 23q-32 0 -54 -10.5t-34.5 -27t-19 -46.5t-8.5 -57.5t-2 -71.5v-33h202v-143h-202v-922h-181v922h-164zM688 1284q0 47 34 81t81 34t82 -34t35 -81q0 -49 -34.5 -83t-82.5 -34 q-47 0 -81 35t-34 82zM713 0v1065h180v-1065h-180z" />
<glyph unicode="fl" horiz-adv-x="974" d="M20 922v143h164v33q2 179 64 267.5t198 88.5q120 0 172 -41l-32 -125q-51 23 -103 23q-32 0 -54 -10.5t-34.5 -27t-19 -46.5t-8.5 -57.5t-2 -71.5v-33h202v-143h-202v-922h-181v922h-164zM692 0v1434h180v-1434h-180z" />
<glyph unicode="&#xe24;&#xe32;" horiz-adv-x="1460" d="M72 745v76q0 164 106.5 269.5t282.5 105.5q186 0 287 -88q43 40 119.5 64t166.5 24q172 0 258 -92.5t86 -312.5v-1201h-188v1201q0 64 -8.5 110t-23 73t-39 42.5t-50.5 20.5t-63 5q-106 0 -179 -45q50 -112 50 -290v-1117h-189v1127q0 183 -53.5 254t-173.5 71 q-207 0 -215 -217l233 -51v-86q-92 -32 -143 -99.5t-51 -166.5v-66q0 -47 2.5 -74.5t13 -58.5t30.5 -46t57 -23t91 -2v-152q-104 -11 -180 7.5t-119.5 63t-63.5 104.5t-20 138v88q0 111 57.5 189.5t161.5 101.5z" />
<glyph unicode="&#xe26;&#xe32;" horiz-adv-x="1486" d="M31 0v152q27 -3 48 -3t36.5 4t26 11t17 17.5t10.5 24t5.5 30t1.5 35.5v41v24v65q0 60 6.5 103.5t23.5 84t51 66.5t85 37l-244 53v76q0 164 106.5 269.5t282.5 105.5q186 0 287 -88q43 40 120 64t167 24q172 0 258 -92.5t86 -312.5v-1201h-188v1201q0 80 -12.5 131.5 t-38.5 76.5t-56.5 34t-77.5 9q-105 0 -178 -45q49 -110 49 -290v-1117h-188v1127q0 183 -54 254t-174 71q-207 0 -215 -217l234 -51v-86q-84 -29 -112.5 -91.5t-28.5 -174.5v-129q0 -35 -2 -63.5t-7 -57.5t-13.5 -50.5t-22 -43t-32 -34.5t-43.5 -26t-56.5 -16.5t-70.5 -6 t-87 4.5z" />
<glyph unicode="FontcraftLogo" horiz-adv-x="1617" d="M123 -213l39 213h102l-8 -35h-59l-9 -53h50l-9 -33h-47l-18 -92h-41zM129 772q0 138 54 264t145 217t217.5 145t265.5 54q138 0 263.5 -54t216.5 -145t144.5 -217t53.5 -264t-53.5 -264t-144.5 -217t-216.5 -145t-263.5 -54q-139 0 -265.5 54t-217.5 145t-145 217 t-54 264zM250 772q0 -152 75.5 -281t204.5 -203.5t281 -74.5q151 0 280 76t203 205t74 278q0 153 -75.5 282t-203.5 203t-278 74q-114 0 -218 -44.5t-179 -119.5t-119.5 -178.5t-44.5 -216.5zM276 -160l19 107q6 26 24 41.5t43 15.5t38.5 -15.5t9.5 -41.5l-19 -107 q-11 -55 -67 -55t-48 55zM317 -162q0 -18 13 -18q16 0 16 18l23 109q0 20 -13 20q-15 0 -18 -20zM350 772q0 190 134.5 322.5t326.5 132.5q81 0 158.5 -29t138.5 -80l-82 -368q-14 -60 -34 -83.5t-60 -23.5q-36 0 -56 18t-14 56l33 155q2 18 -9.5 33t-39.5 15q-42 0 -51 -41 l-33 -150q-7 -38 -32 -66t-71 -28q-66 0 -47 90l27 133q6 38 -17.5 53t-68.5 15q-86 0 -86 -54q0 -23 11.5 -39t31.5 -16h14l-14 -76q-20 -87 17 -145.5t132 -58.5q98 0 136 79q9 -41 50.5 -60t86.5 -19q146 0 184 168l74 319q74 -122 74 -252q0 -93 -36.5 -178t-97.5 -146 t-144.5 -97t-174.5 -36q-192 0 -326.5 133.5t-134.5 323.5zM430 -213l35 213h47l6 -109v-26h2q0 5 1 11t2.5 13t2.5 11l15 100h43l-37 -213h-43l-12 137l-25 -137h-37zM618 -35l7 35h112l-6 -35h-37l-28 -178h-45l32 178h-35zM748 -160l18 107q6 26 24.5 41.5t43.5 15.5 q23 0 36 -14t9 -39q0 -2 -5 -17l-40 -2q2 6 2 15q3 20 -9 20q-13 0 -16 -20l-23 -109q0 -18 13 -18t18 18l2 15h41l-2 -13q-8 -55 -65 -55q-55 0 -47 55zM895 -213l37 213h57q53 0 43 -59v-7q-8 -32 -33 -43l7 -104h-45v96h-9l-16 -96h-41zM958 -86h11q15 0 20 20l4 11 q0 22 -14 22h-12zM1040 -213l76 213h51l7 -213h-48l2 47h-32l-15 -47h-41zM1110 -127h18l2 61zM1208 -213l39 213h103l-7 -35h-61l-8 -53h49l-6 -33h-49l-19 -92h-41zM1376 -35l6 35h113l-6 -35h-33l-33 -178h-45l33 178h-35z" />
<glyph />
<glyph />
<glyph unicode="&#xd;" horiz-adv-x="512" />
<glyph unicode="&#xa;" horiz-adv-x="614" />
<glyph unicode=" "  horiz-adv-x="409" />
<glyph unicode="&#x09;" horiz-adv-x="409" />
<glyph unicode="&#xa0;" horiz-adv-x="409" />
<glyph unicode="!" horiz-adv-x="419" d="M82 127q0 53 37 90t90 37t91 -37t38 -90q0 -52 -38 -89.5t-91 -37.5t-90 37t-37 90zM109 1434h200l-20 -1045h-160z" />
<glyph unicode="&#x22;" horiz-adv-x="649" d="M61 1434h201l-33 -533h-143zM387 1434h201l-33 -533h-143z" />
<glyph unicode="#" horiz-adv-x="1130" d="M41 350v160h235l68 375h-209v159h240l69 390h174l-69 -390h174l70 390h174l-70 -390h193v-159h-224l-67 -375h196v-160h-225l-63 -350h-175l64 350h-174l-64 -350h-174l64 350h-207zM451 510h174l67 375h-174z" />
<glyph unicode="$" horiz-adv-x="862" d="M51 68l49 137q113 -41 260 -41q263 0 263 211q0 60 -19 106t-57 80t-73 56t-88 49l-24 12q-70 37 -119 70.5t-95 79t-69.5 102.5t-23.5 125q0 183 78 274t236 109v241h188v-243q153 -18 238 -68l-50 -137q-121 41 -258 41q-38 0 -68.5 -3t-64.5 -14.5t-57 -30.5t-38 -53 t-15 -81q0 -38 8.5 -70t27 -58t37.5 -46t50 -40t53.5 -33t60 -33t58.5 -32q52 -30 87.5 -54.5t73 -60t60 -73t37 -89t14.5 -112.5q0 -310 -254 -377v-258h-188v238q-84 2 -172 20.5t-146 55.5z" />
<glyph unicode="%" horiz-adv-x="1126" d="M41 1104v26q0 162 62 237t163 75t164.5 -75.5t63.5 -236.5v-26q0 -161 -63.5 -236t-164.5 -75t-163 74.5t-62 236.5zM178 1106q0 -170 88 -170q92 0 92 170v22q0 168 -92 168q-88 0 -88 -168v-22zM233 0l486 1434h174l-485 -1434h-175zM633 303v27q0 162 62 236.5 t163 74.5t164 -75t63 -236v-27q0 -161 -63 -236t-164 -75t-163 74.5t-62 236.5zM770 305q0 -170 88 -170q92 0 92 170v23q0 168 -92 168q-88 0 -88 -168v-23z" />
<glyph unicode="&#x26;" horiz-adv-x="974" d="M55 371.5q8 77.5 34 152.5t80.5 148t129.5 127l-53 94q-41 73 -63.5 148.5t-20 147.5t31.5 128t99 90.5t174 34.5q56 0 105 -9.5t78 -23t50.5 -27t29.5 -22.5l9 -10l-45 -127q-9 7 -25.5 17.5t-72 28t-115.5 17.5q-65 0 -100.5 -25t-42 -62t4 -87t29 -92t42.5 -84 l258 -465q53 206 8 434h164q30 -155 12 -320.5t-82 -297.5l160 -287h-193l-73 131q-136 -139 -330 -139q-72 0 -129.5 30.5t-91.5 83.5t-52 120.5t-10 145zM232.5 352q-7.5 -82 30.5 -141t122 -59q120 0 203 122l-215 392q-57 -57 -95 -144.5t-45.5 -169.5z" />
<glyph unicode="'" horiz-adv-x="323" d="M61 1434h201l-33 -533h-143z" />
<glyph unicode="(" horiz-adv-x="565" d="M123 678q0 457 192 838h189q-102 -208 -148.5 -391.5t-46.5 -446.5q0 -264 46.5 -449.5t148.5 -392.5h-189q-192 381 -192 842z" />
<glyph unicode=")" horiz-adv-x="565" d="M61 -164q102 208 148.5 392.5t46.5 447.5t-46.5 447.5t-148.5 392.5h189q192 -381 192 -840t-192 -840h-189z" />
<glyph unicode="*" horiz-adv-x="700" d="M41 1161l45 129l201 -71l-8 215h143l-8 -215l198 71l47 -129l-210 -59l133 -176l-113 -78l-119 180l-121 -180l-112 78l133 176z" />
<glyph unicode="+" horiz-adv-x="901" d="M82 610v156h276v293h185v-293h276v-156h-276v-293h-185v293h-276z" />
<glyph unicode="," horiz-adv-x="339" d="M-20 -225l118 471h211l-176 -471h-153z" />
<glyph unicode="-" horiz-adv-x="901" d="M82 610v156h737v-156h-737z" />
<glyph unicode="." horiz-adv-x="337" d="M41 127q0 53 37.5 90t89.5 37q53 0 91 -37t38 -90q0 -52 -38 -89.5t-91 -37.5q-52 0 -89.5 37t-37.5 90z" />
<glyph unicode="/" horiz-adv-x="587" d="M20 0l363 1434h184l-362 -1434h-185z" />
<glyph unicode="0" horiz-adv-x="993" d="M72 692v47q0 95 7 174.5t23.5 162.5t47.5 146.5t76.5 114.5t114 78t155.5 27q75 0 136.5 -21t105 -57t76.5 -89t53 -112t33 -132t17.5 -142.5t4.5 -149.5v-47q0 -80 -4.5 -149.5t-17.5 -142t-33 -131t-53 -111.5t-76.5 -88.5t-105 -56.5t-136.5 -21q-87 0 -155.5 27 t-114 77.5t-76.5 113.5t-47.5 145.5t-23.5 162t-7 174.5zM266 715q0 -64 1.5 -110.5t6.5 -108t14 -105.5t26.5 -90.5t41 -75t59.5 -47t81 -18.5t81 18.5t60 47t41 75t26.5 90.5t14.5 105.5t6.5 108.5t1.5 110t-1.5 110t-6.5 109t-14.5 106t-26.5 90.5t-41 75.5t-60 47.5 t-81 18.5t-81 -18.5t-59.5 -47.5t-41 -75.5t-26.5 -90.5t-14 -106t-6.5 -108.5t-1.5 -110.5z" />
<glyph unicode="1" horiz-adv-x="712" d="M82 1028v174q190 91 317 232h150v-1434h-189v1225q-58 -110 -278 -197z" />
<glyph unicode="2" horiz-adv-x="878" d="M72 0v205q0 84 18.5 156.5t50.5 126.5t72.5 101t86 85t91 73.5t86 72t72.5 75.5t50.5 88.5t18.5 106.5q0 47 -14 81t-35.5 53t-54 30.5t-62 14.5t-67.5 3q-137 0 -258 -41l-49 137q62 36 155.5 55t174.5 19q203 0 301 -80.5t98 -253.5q0 -78 -18.5 -144t-50.5 -115.5 t-73 -92.5t-86 -80t-90.5 -73.5t-86.5 -77t-73 -85.5t-50.5 -105t-18.5 -130v-41h533v-164h-721z" />
<glyph unicode="3" horiz-adv-x="890" d="M61 66l50 137q121 -41 251 -41q48 0 86 6t73.5 23t58.5 45t37 74t14 108q0 25 -3 48t-10.5 54.5t-24 57.5t-40.5 49t-64 36t-90 13h-120v160h120q43 0 78 10.5t56.5 25t37 39t23 43.5t11.5 47.5t4.5 42.5t0.5 37q0 191 -237 191q-131 0 -252 -41l-49 137q62 36 152.5 55 t170.5 19q204 0 304 -88.5t100 -280.5q0 -121 -51.5 -214.5t-139.5 -102.5q93 -10 152 -110t59 -234q0 -420 -434 -420q-81 0 -171.5 19t-152.5 55z" />
<glyph unicode="4" horiz-adv-x="892" d="M41 287v75l485 1072h183v-988h143v-159h-143v-287h-189v287h-479zM260 446h260v601z" />
<glyph unicode="5" horiz-adv-x="866" d="M72 66l49 137q121 -41 211 -41q274 0 274 276q0 277 -274 277h-236v84l23 635h618v-160h-446l-12 -400h22q86 0 155 -10.5t134 -39.5t108.5 -76t70 -123.5t26.5 -178.5q0 -227 -117 -340.5t-324 -113.5q-154 0 -282 74z" />
<glyph unicode="6" horiz-adv-x="933" d="M74 551q1 51 0 101v53q0 158 13.5 274.5t43 206.5t79 145t120.5 83t168 28q81 0 174 -19t155 -55l-49 -137q-121 41 -258 41q-67 0 -113.5 -20.5t-81.5 -70.5t-52 -138.5t-17 -219.5q2 4 7 11t24.5 25t44 31.5t69 24.5t97.5 11q83 0 148 -27t104.5 -70t65.5 -102.5 t36 -119.5t10 -126v-47q0 -67 -10.5 -126t-38 -118.5t-70.5 -102t-113.5 -69t-162.5 -26.5q-65 0 -118 13t-91.5 36t-69 55.5t-49 72.5t-32.5 85t-20 94t-10 100.5t-3 102.5zM262 457q0 -310 209 -310q211 0 211 310q0 311 -211 311q-209 0 -209 -311z" />
<glyph unicode="7" horiz-adv-x="839" d="M41 1270v164h758v-66l-381 -1368h-199l354 1270h-532z" />
<glyph unicode="8" horiz-adv-x="960" d="M72 403q0 288 211 345q-94 23 -139.5 111.5t-45.5 211.5q0 168 100 269.5t281 101.5q182 0 282.5 -101.5t100.5 -269.5q0 -123 -45.5 -211.5t-138.5 -111.5q211 -57 211 -345q0 -194 -105.5 -302.5t-302.5 -108.5q-199 0 -304 108.5t-105 302.5zM260 416q0 -254 219 -254 q221 0 221 254q0 33 -2.5 58.5t-15 64t-34.5 64t-65.5 44.5t-103.5 19t-103.5 -19t-65 -44.5t-34 -64t-14.5 -64t-2 -58.5zM287 1071q0 -22 0.5 -36.5t4.5 -42.5t11 -47t21 -42.5t33.5 -38.5t51 -25t70.5 -10q195 0 195 242q0 97 -50.5 149t-144.5 52q-93 0 -142.5 -52 t-49.5 -149z" />
<glyph unicode="9" horiz-adv-x="933" d="M72 952v47q0 67 10.5 126t38 119t70.5 102.5t113.5 69t162.5 26.5q65 0 118 -13t91.5 -36t69 -55.5t49 -72.5t32.5 -85t20 -94t10 -100.5t3 -102.5t0 -101v-53q0 -158 -13.5 -274.5t-43 -206.5t-79 -145t-120.5 -83t-168 -28q-81 0 -174.5 19t-155.5 55l50 137 q121 -41 258 -41q67 0 113.5 20.5t81.5 70.5t52 138t17 219q-2 -4 -7 -11t-24.5 -24.5t-44 -31t-69 -24.5t-97.5 -11q-83 0 -148 26.5t-104.5 69.5t-65.5 102.5t-36 119.5t-10 126zM252 977q0 -311 211 -311q209 0 209 311q0 309 -209 309q-211 0 -211 -309z" />
<glyph unicode=":" horiz-adv-x="419" d="M82 127q0 53 37 90t90 37t91 -37t38 -90q0 -52 -38 -89.5t-91 -37.5t-90 37t-37 90zM82 938q0 52 37 89.5t90 37.5t91 -37t38 -90q0 -52 -38 -89.5t-91 -37.5t-90 37.5t-37 89.5z" />
<glyph unicode=";" horiz-adv-x="419" d="M-12 -225l118 471h222l-176 -471h-164zM82 938q0 52 37 89.5t90 37.5t91 -37t38 -90q0 -52 -38 -89.5t-91 -37.5t-90 37.5t-37 89.5z" />
<glyph unicode="&#x3c;" horiz-adv-x="778" d="M82 573v68l614 533v-216l-409 -352l409 -350v-215z" />
<glyph unicode="=" horiz-adv-x="860" d="M82 446v156h696v-156h-696zM82 774v156h696v-156h-696z" />
<glyph unicode="&#x3e;" horiz-adv-x="778" d="M82 41v215l410 350l-410 352v216l614 -533v-68z" />
<glyph unicode="?" horiz-adv-x="821" d="M61 1368q62 36 156 55t180 19q174 0 263.5 -81t89.5 -239q0 -64 -15 -115t-39 -86.5t-53 -68t-57.5 -67t-52.5 -75t-39 -102t-15 -137.5v-82h-188v82q0 118 28 206t67.5 139t79 93t67.5 92.5t28 112.5q0 89 -50 123.5t-144 34.5q-135 0 -256 -41zM258 127q0 53 37 90 t90 37t91 -37t38 -90q0 -52 -38 -89.5t-91 -37.5t-90 37t-37 90z" />
<glyph unicode="@" horiz-adv-x="1406" d="M61 573q0 129 22 242t72.5 212.5t125.5 170t187 111.5t251 41q135 0 242.5 -39t178.5 -107t118 -164t67.5 -204t20.5 -234q0 -56 -6.5 -112.5t-25 -122t-47.5 -115t-80 -82.5t-116 -33q-60 0 -105 27.5t-65 79.5q-65 -97 -227 -97q-69 0 -121.5 26.5t-84 68t-51.5 98.5 t-27 111t-7 114q0 62 6.5 117.5t25.5 116t50 103.5t84.5 71t124.5 28q65 0 108.5 -22t75.5 -72l12 86h152v-577q0 -2 -0.5 -18t0 -24.5t1.5 -25t4 -26t8 -20.5t13 -16t19 -5q31 0 53.5 27.5t33.5 63t17.5 86.5t7.5 81t1 63q0 101 -12 184t-43.5 162t-82.5 133t-133 86.5 t-190 32.5q-110 0 -195.5 -34.5t-140 -92.5t-90 -140t-50 -170t-14.5 -190q0 -114 15.5 -205t53 -170t97 -131.5t151 -82t212.5 -29.5q108 0 213 18v-161q-128 -11 -215 -11q-153 0 -271 36t-197.5 101t-130.5 162t-73.5 213t-22.5 260zM557 565q0 -42 2 -73t11.5 -72 t25.5 -67.5t47 -45t74 -18.5q79 0 135 65v441q-56 65 -135 65q-27 0 -49 -7t-37.5 -16t-28 -28.5t-20 -32.5t-13 -40.5t-7.5 -41t-3.5 -45.5t-1.5 -42v-42z" />
<glyph unicode="A" horiz-adv-x="880" d="M20 0l326 1434h189l325 -1434h-192l-76 358h-303l-76 -358h-193zM322 518h237l-119 557z" />
<glyph unicode="B" horiz-adv-x="897" d="M82 0v1434h307q184 0 287.5 -92t103.5 -269q0 -258 -207 -325q130 -15 201.5 -103.5t71.5 -234.5q0 -207 -119 -308.5t-326 -101.5h-319zM270 160h109q156 0 219.5 62.5t63.5 189.5q0 126 -63 186.5t-220 60.5h-109v-499zM270 819h95q64 0 111.5 22t72 59t36 76.5 t11.5 82.5q0 106 -62.5 160.5t-171.5 54.5h-92v-455z" />
<glyph unicode="C" horiz-adv-x="888" d="M61 717q0 125 15 230t51 198t91.5 157.5t140.5 102t194 37.5q77 0 148.5 -18t104.5 -36l32 -18l-45 -143q-109 43 -215 43q-65 0 -116.5 -21.5t-84.5 -62.5t-56 -90.5t-34.5 -115.5t-16 -127.5t-4.5 -135.5t4.5 -135.5t16 -127.5t34.5 -115.5t56 -90.5t84.5 -62.5 t116.5 -21.5q47 0 101 11t84 21l30 11l45 -144q-5 -3 -13.5 -7.5t-37 -17t-59.5 -22t-78.5 -17t-96.5 -7.5q-109 0 -194 37.5t-140.5 102t-91.5 157.5t-51 198t-15 230z" />
<glyph unicode="D" horiz-adv-x="931" d="M82 0v1434h225q105 0 186.5 -16t140.5 -44.5t101 -76t68 -102t41 -132t20.5 -155.5t5.5 -183q0 -106 -5.5 -185.5t-20.5 -159t-41 -135t-68.5 -104.5t-102 -78.5t-142 -46t-187.5 -16.5h-221zM270 160h29q77 0 135 14t97.5 34t66 62.5t41.5 80t22.5 106t9 121t1.5 143.5 t-1.5 142t-8.5 119t-22 104.5t-41.5 78.5t-66 62t-97 33.5t-134.5 13.5h-31v-1114z" />
<glyph unicode="E" horiz-adv-x="772" d="M82 0v1434h629v-160h-441v-455h355v-160h-355v-499h441v-160h-629z" />
<glyph unicode="F" horiz-adv-x="780" d="M82 0v1434h637v-160h-449v-477h365v-160h-365v-637h-188z" />
<glyph unicode="G" horiz-adv-x="970" d="M72 717q0 106 9 193.5t29.5 172t57.5 148t89.5 112t129 74t172.5 25.5q77 0 159 -19.5t126 -38.5l43 -20l-45 -143q-152 49 -258 49q-62 0 -110 -17.5t-80.5 -44t-55.5 -72t-35.5 -87.5t-19.5 -105.5t-8.5 -110t-2.5 -116.5q2 -227 17 -317q34 -191 156 -227q31 -9 69 -9 q60 0 109 21.5t77 54.5v419h-194v160h383v-819h-166l-16 106q-18 -43 -82 -78.5t-162 -35.5q-77 0 -138.5 25.5t-104 74t-72 112t-46 148t-23.5 172t-7 193.5z" />
<glyph unicode="H" horiz-adv-x="946" d="M92 0v1434h189v-615h385v615h188v-1434h-188v659h-385v-659h-189z" />
<glyph unicode="I" horiz-adv-x="434" d="M123 0v1434h188v-1434h-188z" />
<glyph unicode="J" horiz-adv-x="671" d="M31 35l35 131q23 -10 73 -17.5t82 -7.5q79 0 119.5 52.5t40.5 152.5v928h-211v160h399v-1088q-1 -180 -82.5 -267t-230.5 -87q-61 0 -130 11t-95 32z" />
<glyph unicode="K" horiz-adv-x="888" d="M82 0v1434h188v-1434h-188zM270 717l383 717h205l-393 -717l403 -717h-204z" />
<glyph unicode="L" horiz-adv-x="743" d="M82 0v1434h188v-1274h432v-160h-620z" />
<glyph unicode="M" horiz-adv-x="1171" d="M92 0v1434h189l305 -1125l305 1125h188v-1434h-188v877l-238 -877h-135l-237 877v-877h-189z" />
<glyph unicode="N" horiz-adv-x="976" d="M92 0v1434h189l415 -1033v1033h189v-1434h-189l-415 1032v-1032h-189z" />
<glyph unicode="O" horiz-adv-x="1005" d="M78 692v47q0 83 3.5 149.5t14.5 142t29.5 132.5t50.5 111.5t76 90t107.5 56.5t142.5 21t142.5 -21t107.5 -56.5t76.5 -90t51.5 -111.5t30 -132t14.5 -142t3.5 -150v-47q0 -83 -3.5 -149.5t-14.5 -141.5t-30 -132t-51.5 -111t-76.5 -89t-107.5 -56t-142.5 -21t-142.5 21 t-107.5 56t-76 89t-50.5 111t-29.5 132t-14.5 141.5t-3.5 149.5zM279 715q0 -67 1 -110.5t5.5 -107t13 -105t25 -89t39.5 -75t58.5 -46t80.5 -18.5t80.5 18.5t59 46t40 74.5t25.5 89t13.5 105t5.5 107.5t1 110.5t-1 110.5t-5.5 107.5t-13.5 105.5t-25.5 89.5t-40 75 t-59 46.5t-80.5 18.5t-80.5 -18.5t-58.5 -46t-39.5 -75.5t-25 -89.5t-13 -105.5t-5.5 -107.5t-1 -110.5z" />
<glyph unicode="P" horiz-adv-x="872" d="M82 0v1434h348q185 0 293 -100.5t108 -289.5q0 -191 -109 -299t-292 -108h-160v-637h-188zM270 797h133q124 0 184 69t60 183q0 111 -58.5 168t-185.5 57h-133v-477z" />
<glyph unicode="Q" horiz-adv-x="1005" d="M57 692v47q0 116 9.5 209t38.5 188.5t76.5 160t129 105t191.5 40.5q92 0 164.5 -27t120 -78t80.5 -114.5t50 -146.5t24 -162.5t7 -174.5v-47q0 -85 -5 -154t-20 -145.5t-40 -134.5t-69 -108t-103 -78l286 -72v-164l-565 152q-92 25 -159 70t-108.5 104t-65.5 143.5 t-33 175t-9 211.5zM260 715q0 -69 1 -110.5t5.5 -107t13.5 -106t27 -88.5t43 -75t63.5 -45.5t88.5 -18.5t88.5 18.5t64 46t43 75t26.5 88.5t14 105.5t6 107t1 110.5q0 52 -0.5 85.5t-3 84.5t-6.5 85t-13 78t-21 72.5t-30.5 59t-42 48t-55.5 29t-71 11.5q-50 0 -88.5 -18.5 t-63.5 -46t-43 -76t-27 -89t-13.5 -106t-5.5 -107t-1 -110.5z" />
<glyph unicode="R" horiz-adv-x="884" d="M82 0v1434h348q185 0 293 -100.5t108 -289.5q0 -148 -67 -248t-186 -137l296 -659h-204l-277 637h-123v-637h-188zM270 797h133q124 0 184 69t60 183q0 111 -58.5 168t-185.5 57h-133v-477z" />
<glyph unicode="S" horiz-adv-x="862" d="M51 68l49 137q113 -41 260 -41q263 0 263 211q0 60 -19 106t-57 80t-73 56t-88 49l-24 12q-70 37 -119 70.5t-95 79t-69.5 102.5t-23.5 125q0 209 101 298t309 89q81 0 174.5 -19t155.5 -55l-50 -137q-121 41 -258 41q-38 0 -68.5 -3t-64.5 -14.5t-57 -30.5t-38 -53 t-15 -81q0 -38 8.5 -70t27 -58t37.5 -46t50 -40t53.5 -33t60 -33t58.5 -32q52 -30 87.5 -54.5t73 -60t60 -73t37 -89t14.5 -112.5q0 -208 -109.5 -302.5t-318.5 -94.5q-84 0 -177.5 19t-154.5 57z" />
<glyph unicode="T" horiz-adv-x="839" d="M31 1274v160h778v-160h-295v-1274h-188v1274h-295z" />
<glyph unicode="U" horiz-adv-x="1013" d="M92 590v844h189v-822q0 -181 8 -240q21 -149 116 -190q42 -18 101 -18q55 0 95.5 14t65 48t38.5 63.5t20 89.5t7 95t1 109v29v822h189v-844q0 -115 -8.5 -198t-35 -162.5t-71.5 -129t-120.5 -79t-180.5 -29.5t-180.5 29.5t-120 79t-70.5 129t-34.5 162.5t-8.5 198z" />
<glyph unicode="V" horiz-adv-x="880" d="M20 1434h193l227 -1076l228 1076h192l-325 -1434h-189z" />
<glyph unicode="W" horiz-adv-x="1349" d="M41 1434h201l166 -1076l186 1076h162l186 -1076l166 1076h201l-260 -1434h-168l-205 1030l-207 -1030h-168z" />
<glyph unicode="X" horiz-adv-x="894" d="M20 0l269 717l-269 717h205l224 -641l221 641h204l-268 -717l268 -717h-204l-221 641l-224 -641h-205z" />
<glyph unicode="Y" horiz-adv-x="894" d="M20 1434h205l224 -652l221 652h204l-333 -887v-547h-189v547z" />
<glyph unicode="Z" horiz-adv-x="860" d="M61 0v98l496 1176h-496v160h738v-99l-496 -1175h496v-160h-738z" />
<glyph unicode="[" horiz-adv-x="593" d="M123 -164v1680h409v-160h-221v-1360h221v-160h-409z" />
<glyph unicode="\" horiz-adv-x="587" d="M20 1434h185l362 -1434h-184z" />
<glyph unicode="]" horiz-adv-x="593" d="M61 -4h222v1360h-222v160h410v-1680h-410v160z" />
<glyph unicode="^" horiz-adv-x="798" d="M61 860l244 574h189l243 -574h-192l-146 400l-145 -400h-193z" />
<glyph unicode="_" horiz-adv-x="942" d="M41 0h860v-156h-860v156z" />
<glyph unicode="`" horiz-adv-x="399" d="M0 1434h205l174 -492h-164z" />
<glyph unicode="a" horiz-adv-x="815" d="M41 293q0 273 258 319l254 45v91q0 101 -35 139.5t-137 38.5q-113 0 -236 -39l-49 123q47 28 137 45.5t168 17.5q177 0 254.5 -76t77.5 -249v-748h-158l-16 106q-44 -34 -75 -54.5t-83.5 -40t-105.5 -19.5q-117 0 -185.5 83t-68.5 218zM229 305q0 -73 33.5 -118.5 t99.5 -45.5q97 0 191 76v295l-182 -39q-73 -18 -107.5 -57t-34.5 -111z" />
<glyph unicode="b" horiz-adv-x="888" d="M82 0v1434h180v-402q80 41 170 41q71 0 128.5 -16.5t108 -57t85 -103t54 -158.5t19.5 -220q0 -262 -88 -394t-252 -132t-231 114l-16 -106h-158zM262 217q28 -33 75 -54.5t101 -21.5q111 0 158 98t47 281q0 116 -17 196.5t-50 125t-74.5 63.5t-98.5 19q-79 0 -141 -27 v-680z" />
<glyph unicode="c" horiz-adv-x="784" d="M61 532q0 279 102.5 410t282.5 131q78 0 160 -16.5t127 -44.5l-47 -123q-111 35 -211 35q-110 0 -169.5 -93.5t-59.5 -285.5q0 -194 62 -299t171 -105q96 0 207 35l47 -125q-46 -27 -128 -43t-159 -16q-180 0 -282.5 130.5t-102.5 409.5z" />
<glyph unicode="d" horiz-adv-x="888" d="M61 518q0 124 19.5 220t54 158.5t85 103t108.5 57t129 16.5q90 0 170 -41v402h180v-1434h-158l-16 106q-67 -114 -232 -114q-164 0 -252 132t-88 394zM246 520q0 -183 47 -281t158 -98q54 0 101 21.5t75 54.5v680q-62 27 -142 27q-56 0 -98 -19t-74.5 -63.5t-49.5 -125 t-17 -196.5z" />
<glyph unicode="e" horiz-adv-x="804" d="M61 483v70q0 145 26 248t75 161.5t111.5 84.5t142.5 26q78 0 136.5 -20.5t103.5 -66t68.5 -126t23.5 -194.5q0 -124 -7 -197h-503q7 -182 61 -257t160 -75q99 0 223 39l47 -125q-45 -27 -129.5 -43t-161.5 -16q-87 0 -152 24t-116 79.5t-78.5 152.5t-30.5 235zM238 608 h342v58q0 144 -39.5 206t-124.5 62q-166 0 -178 -326z" />
<glyph unicode="f" horiz-adv-x="589" d="M20 922v143h164v33q2 179 64 267.5t198 88.5q120 0 172 -41l-32 -125q-51 23 -103 23q-32 0 -54 -10.5t-34.5 -27t-19 -46.5t-8.5 -57.5t-2 -71.5v-33h202v-143h-202v-922h-181v922h-164z" />
<glyph unicode="g" horiz-adv-x="888" d="M61 522q0 161 35 282.5t113 195t192 73.5q164 0 232 -115l16 107h158v-1032q-1 -110 -20 -192t-51 -133.5t-81 -82.5t-103.5 -43t-125.5 -12q-77 0 -159 16t-128 43l47 125q111 -35 207 -35q49 0 80 5.5t63.5 24.5t50 54t29 97t11.5 151v45q-70 -104 -226 -104 q-152 0 -246 136.5t-94 393.5zM246 522q0 -175 53 -278t152 -103q54 0 101 21.5t75 54.5v631q-28 33 -75 54.5t-101 21.5q-205 0 -205 -402z" />
<glyph unicode="h" horiz-adv-x="856" d="M82 0v1434h180v-469q115 108 270 108q113 0 177.5 -62t64.5 -212v-799h-180v788q0 88 -29 115t-84 27q-69 0 -130.5 -27.5t-88.5 -54.5v-848h-180z" />
<glyph unicode="i" horiz-adv-x="425" d="M98 1284q0 47 34 81t81 34t82 -34t35 -81q0 -49 -34.5 -83t-82.5 -34q-47 0 -81 35t-34 82zM123 0v1065h180v-1065h-180z" />
<glyph unicode="j" horiz-adv-x="425" d="M-131 -266l33 125q51 -23 102 -23q32 0 54 10.5t35 27t19.5 46t8.5 58t2 71.5v1016h180v-1016q-2 -179 -64 -267.5t-198 -88.5q-120 0 -172 41zM98 1284q0 47 34 81t81 34t82 -34t35 -81q0 -49 -34.5 -83t-82.5 -34q-47 0 -81 35t-34 82z" />
<glyph unicode="k" horiz-adv-x="825" d="M82 0v1434h180v-1434h-180zM262 532l332 533h201l-342 -533l352 -532h-201z" />
<glyph unicode="l" horiz-adv-x="385" d="M102 0v1434h181v-1434h-181z" />
<glyph unicode="m" horiz-adv-x="1267" d="M82 0v1065h158l16 -107q59 53 116.5 84t131.5 31q144 0 192 -125q3 2 20.5 16l22.5 18t22 16t25 17t25 15t27.5 14.5t27.5 11.5t31 9.5t31.5 5t34.5 2.5q113 0 168 -75t55 -212v-786h-180v754q0 81 -24.5 124.5t-90.5 43.5q-73 0 -172 -76q6 -54 6 -60v-786h-180v754 q0 81 -24.5 124.5t-88.5 43.5q-79 0 -170 -78v-844h-180z" />
<glyph unicode="n" horiz-adv-x="856" d="M82 0v1065h158l16 -107q119 115 276 115q113 0 177.5 -62t64.5 -212v-799h-180v788q0 88 -29 115t-84 27q-69 0 -130.5 -27.5t-88.5 -54.5v-848h-180z" />
<glyph unicode="o" horiz-adv-x="870" d="M57 510v43q0 140 29.5 243t82.5 162t119 87t146 28q64 0 118.5 -17t103 -55.5t83 -97.5t54.5 -148.5t20 -201.5v-43q0 -112 -20 -200.5t-54.5 -147.5t-83 -97.5t-103 -55.5t-118.5 -17q-80 0 -146 28t-119 87t-82.5 161.5t-29.5 241.5zM238 510q0 -194 49.5 -284.5 t146.5 -90.5q199 0 199 375v43q0 375 -199 375q-97 0 -146.5 -90.5t-49.5 -284.5v-43z" />
<glyph unicode="p" horiz-adv-x="888" d="M82 -410v1475h158l16 -107q68 115 231 115q114 0 192 -73.5t113 -195t35 -282.5q0 -257 -94 -393.5t-246 -136.5q-155 0 -225 104v-506h-180zM262 217q28 -33 75 -54.5t101 -21.5q99 0 152 103t53 278q0 402 -205 402q-54 0 -101 -21.5t-75 -54.5v-631z" />
<glyph unicode="q" horiz-adv-x="888" d="M61 522q0 161 35 282.5t113 195t192 73.5q164 0 232 -115l16 107h158v-1475h-180v506q-70 -104 -226 -104q-152 0 -246 136.5t-94 393.5zM246 522q0 -175 53 -278t152 -103q54 0 101 21.5t75 54.5v631q-28 33 -75 54.5t-101 21.5q-205 0 -205 -402z" />
<glyph unicode="r" horiz-adv-x="555" d="M82 0v1065h156l18 -109q139 108 268 115v-174h-13q-65 1 -133 -17q-76 -20 -116 -53v-827h-180z" />
<glyph unicode="s" horiz-adv-x="737" d="M51 61l49 115q37 -16 102 -25.5t115 -9.5q52 0 91.5 11.5t67.5 44t28 82.5q0 104 -150 192q-20 12 -63.5 35t-69 37.5t-61 41t-55 52.5t-34 65t-14.5 84q0 156 82.5 221.5t229.5 65.5q85 0 175 -17t134 -50l-47 -121q-42 17 -106.5 28t-118.5 11q-71 0 -118.5 -26 t-47.5 -89q0 -29 11.5 -55t26.5 -44.5t44.5 -39.5t51.5 -33.5t61.5 -34t60.5 -33.5q36 -21 63 -40.5t59.5 -54t50 -82.5t17.5 -107q0 -80 -25.5 -138.5t-72.5 -91.5t-105 -48t-131 -15q-83 0 -170.5 17t-130.5 52z" />
<glyph unicode="t" horiz-adv-x="628" d="M20 922v143h164v57l25 236h156v-293h202v-143h-202v-574q0 -44 2 -71.5t8.5 -57.5t19 -46.5t34.5 -27t54 -10.5q52 0 103 23l32 -125q-52 -41 -172 -41q-136 0 -198 88.5t-64 267.5v574h-164z" />
<glyph unicode="u" horiz-adv-x="856" d="M82 266v799h180v-789q0 -46 8.5 -76t26 -43.5t34.5 -17.5t44 -4q69 0 130.5 27.5t88.5 54.5v848h180v-1065h-158l-16 106q-118 -114 -276 -114q-113 0 -177.5 62t-64.5 212z" />
<glyph unicode="v" horiz-adv-x="843" d="M20 1065h189l213 -795l213 795h188l-317 -1065h-168z" />
<glyph unicode="w" horiz-adv-x="1261" d="M41 1065h188l156 -784l174 784h143l175 -784l155 784h189l-240 -1065h-176l-174 754l-174 -754h-176z" />
<glyph unicode="x" horiz-adv-x="843" d="M20 0l261 532l-261 533h201l201 -465l201 465h200l-260 -533l260 -532h-200l-201 467l-201 -467h-201z" />
<glyph unicode="y" horiz-adv-x="843" d="M20 1065h189l213 -784l213 784h188l-440 -1475h-184l131 439z" />
<glyph unicode="z" horiz-adv-x="798" d="M61 0v82l455 840h-455v143h676v-82l-454 -840h454v-143h-676z" />
<glyph unicode="{" horiz-adv-x="671" d="M82 610v129q50 4 84 26.5t50.5 61t23 79.5t6.5 95v199q0 159 60 237.5t212 78.5h92v-160h-63q-78 0 -99 -41q-14 -29 -14 -128v-9v-7v-190q0 -274 -145 -307q145 -35 145 -307v-197v-44.5t1.5 -35t4 -31t8 -22.5t13.5 -19.5t20 -11.5t28 -8.5t38 -1.5h63v-160h-92 q-152 0 -212 77.5t-60 236.5v200q0 53 -6.5 93.5t-23 79t-50.5 61t-84 26.5z" />
<glyph unicode="|" horiz-adv-x="516" d="M164 -164v1680h188v-1680h-188z" />
<glyph unicode="}" horiz-adv-x="671" d="M61 -4h64q22 0 38 1.5t28 8.5t20 11.5t13.5 19.5t8 22.5t4 31t1.5 35v44.5v197q0 272 145 307q-145 33 -145 307v190v7q0 102 -12 131q-18 44 -87 47h-14h-64v160h93q152 0 212 -78.5t60 -237.5v-199q0 -54 6.5 -95t23 -79.5t50.5 -61t84 -26.5v-129q-50 -4 -84 -26.5 t-50.5 -61t-23 -79t-6.5 -93.5v-200q0 -159 -60 -236.5t-212 -77.5h-93v160z" />
<glyph unicode="~" horiz-adv-x="892" d="M61 602q0 9 2 23.5t16.5 52.5t37.5 67t72 52.5t114 23.5q50 0 94.5 -17t71.5 -38t58.5 -38t58.5 -17q37 0 59 24.5t25 48.5l4 25l157 -35q0 -5 -1 -12.5t-6 -30.5t-14 -43.5t-27.5 -46t-43 -43.5t-64 -30.5t-87.5 -12.5q-50 0 -94.5 17.5t-71 38t-57.5 38t-58 17.5 q-37 0 -59.5 -25t-26.5 -49l-4 -25z" />
<glyph unicode="&#xa1;" horiz-adv-x="419" d="M82 946q0 52 37 89.5t90 37.5t91 -37.5t38 -89.5q0 -53 -38 -90t-91 -37t-90 37.5t-37 89.5zM109 -360l20 1044h160l20 -1044h-200z" />
<glyph unicode="&#xa2;" horiz-adv-x="784" d="M61 532q0 247 81.5 378t226.5 157v244h188v-246q117 -17 176 -53l-47 -123q-111 35 -211 35q-110 0 -169.5 -93.5t-59.5 -285.5q0 -194 62 -299t171 -105q96 0 207 35l47 -125q-54 -33 -176 -51v-246h-188v244q-145 26 -226.5 156.5t-81.5 377.5z" />
<glyph unicode="&#xa3;" horiz-adv-x="878" d="M41 0v160h123v639q0 70 1 116t4 104t9 96t15.5 83t25 73.5t36.5 59t49.5 48.5t64.5 34t82 22.5t102 6.5q77 0 148.5 -18t104.5 -36l32 -18l-45 -143q-109 43 -228 43q-53 0 -91 -13.5t-61 -38.5t-37 -60.5t-18.5 -80t-6 -97t0.5 -111.5v-70v-21h355v-160h-355v-458h461 v-160h-772z" />
<glyph unicode="&#xa4;" horiz-adv-x="1052" d="M82 999l106 107l111 -113q98 76 221 76q127 0 225 -76l111 113l115 -107l-115 -110q71 -101 72 -225.5t-72 -225.5l115 -112l-111 -107l-115 111q-91 -70 -221 -70q-131 0 -225 70l-113 -111l-102 113l111 106q-76 101 -73.5 224.5t73.5 226.5zM270 664q0 -104 73.5 -180 t180.5 -76q105 0 179.5 76t74.5 180q0 105 -74.5 180.5t-179.5 75.5q-108 0 -181 -75.5t-73 -180.5z" />
<glyph unicode="&#xa5;" horiz-adv-x="894" d="M20 1434h205l224 -652l221 652h204l-274 -732h197v-155h-256v-152h256v-155h-256v-240h-189v240h-252v155h252v152h-252v155h195z" />
<glyph unicode="&#xa6;" horiz-adv-x="516" d="M164 -164v653h188v-653h-188zM164 981v657h188v-657h-188z" />
<glyph unicode="&#xa7;" horiz-adv-x="737" d="M51 745q0 87 35 133t104 74q-34 23 -53 38.5t-40 42t-30.5 62t-9.5 83.5q0 264 312 264q85 0 175 -17.5t134 -50.5l-47 -121q-42 17 -106.5 28t-118.5 11q-166 0 -166 -114q0 -35 13.5 -62t42 -48t56 -35.5t72 -36.5t72.5 -38q27 -15 35.5 -20t34.5 -22.5t37.5 -29 t31 -34.5t28 -44.5t16 -52.5t7.5 -65q0 -88 -35.5 -135t-103.5 -74q34 -23 53 -38.5t40 -41.5t30.5 -61.5t9.5 -83.5q0 -264 -311 -264q-85 0 -175.5 17t-134.5 50l47 121q42 -17 107 -28t119 -11q71 0 118.5 26t47.5 89q0 35 -13.5 61.5t-42 47.5t-56 35.5t-72 36 t-72.5 38.5q-25 14 -35 20t-35.5 23t-37.5 29.5t-31 35t-28 44.5t-16.5 53t-7.5 65zM233 752q0 -19 5 -36.5t10.5 -30.5t19.5 -28t21.5 -23t28 -21.5t27 -17.5t30.5 -18t28 -16q101 28 101 123q0 22 -4.5 40.5t-17 35t-21.5 28t-30 26t-30 20.5t-35 20.5t-32 17.5 q-101 -28 -101 -120z" />
<glyph unicode="&#xa8;" horiz-adv-x="780" d="M82 1311q0 48 37 85.5t88 37.5q49 0 85 -37.5t36 -85.5q0 -54 -35.5 -91.5t-85.5 -37.5q-52 0 -88.5 37.5t-36.5 91.5zM453 1311q0 48 37 85.5t88 37.5q50 0 85 -37.5t35 -85.5q0 -54 -34.5 -91.5t-85.5 -37.5q-52 0 -88.5 37.5t-36.5 91.5z" />
<glyph unicode="&#xa9;" horiz-adv-x="1273" d="M61 717q0 124 17.5 229t60 198t107 158t164.5 102.5t227 37.5t226.5 -37.5t164.5 -102.5t107 -158t59.5 -198t17.5 -229t-17.5 -229t-59.5 -198t-107 -158t-164.5 -102.5t-226.5 -37.5t-227 37.5t-164.5 102.5t-107 158t-60 198t-17.5 229zM229 717q0 -101 12 -184.5 t41 -157.5t75 -125t117 -80t163 -29q115 0 196 43.5t126 124.5t65 180.5t20 227.5q0 101 -12 184.5t-41 157.5t-74.5 124.5t-116.5 79.5t-163 29t-163 -29t-117 -79.5t-75 -124.5t-41 -157.5t-12 -184.5zM348 717q0 57 6.5 109t27.5 112t54.5 103.5t93.5 72.5t138 29 q109 0 196 -53l-45 -129q-70 34 -137 34q-158 0 -158 -278q0 -281 158 -281q53 0 137 35l45 -129q-89 -53 -196 -53q-66 0 -118.5 19.5t-86.5 55t-57.5 77t-35.5 92.5t-17 94.5t-5 89.5z" />
<glyph unicode="&#xaa;" horiz-adv-x="573" d="M41 965q0 160 137 192l166 37v39q0 51 -15.5 67.5t-66.5 16.5q-45 0 -151 -29l-41 105q85 49 204 49q114 0 166 -51.5t52 -157.5v-457h-127l-11 60q-66 -66 -143 -66q-85 0 -127.5 58.5t-42.5 136.5zM193 973q0 -76 57 -76q47 0 94 35v139l-84 -18q-36 -9 -51.5 -26.5 t-15.5 -53.5z" />
<glyph unicode="&#xab;" horiz-adv-x="1290" d="M82 573v68l614 533v-216l-409 -352l409 -350v-215zM594 573v68l614 533v-216l-409 -352l409 -350v-215z" />
<glyph unicode="&#xac;" horiz-adv-x="901" d="M82 575v156h737v-420h-184v264h-553z" />
<glyph unicode="&#xad;" horiz-adv-x="901" d="M82 610v156h737v-156h-737z" />
<glyph unicode="&#xae;" horiz-adv-x="1273" d="M61 717q0 124 17.5 229t60 198t107 158t164.5 102.5t227 37.5t226.5 -37.5t164.5 -102.5t107 -158t59.5 -198t17.5 -229t-17.5 -229t-59.5 -198t-107 -158t-164.5 -102.5t-226.5 -37.5t-227 37.5t-164.5 102.5t-107 158t-60 198t-17.5 229zM229 717q0 -101 12 -184.5 t41 -157.5t75 -125t117 -80t163 -29q115 0 196 43.5t126 124.5t65 180.5t20 227.5q0 101 -12 184.5t-41 157.5t-74.5 124.5t-116.5 79.5t-163 29t-163 -29t-117 -79.5t-75 -124.5t-41 -157.5t-12 -184.5zM412 295v850h227q123 0 190.5 -67t67.5 -177q0 -73 -33.5 -133.5 t-101.5 -91.5l168 -381h-176l-144 354h-30v-354h-168zM580 793h43q110 0 110 112q0 51 -26 73.5t-84 22.5h-43v-208z" />
<glyph unicode="&#xaf;" horiz-adv-x="942" d="M41 1536v156h860v-156h-860z" />
<glyph unicode="&#xb0;" horiz-adv-x="595" d="M41 1157q0 75 22.5 132t60 89.5t81 48t92.5 15.5t93 -15.5t82 -48t60.5 -89.5t22.5 -132t-22.5 -131.5t-61 -87.5t-82 -46t-92.5 -15t-92.5 15t-81 46t-60 87.5t-22.5 131.5zM178 1159q0 -85 33 -117t86 -32q56 0 89.5 31.5t33.5 117.5q0 85 -33.5 116.5t-89.5 31.5 q-53 0 -86 -31.5t-33 -116.5z" />
<glyph unicode="&#xb1;" horiz-adv-x="901" d="M82 0v156h737v-156h-737zM82 610v156h276v293h185v-293h276v-156h-276v-293h-185v293h-276z" />
<glyph unicode="&#xb2;" horiz-adv-x="567" d="M72 1391q91 51 196 51q228 0 228 -189q0 -66 -28 -118.5t-68 -86t-79.5 -64.5t-67.5 -70t-28 -87h262v-135h-413v127q0 62 20 113t49.5 82.5t64.5 61.5t64.5 52t49.5 52.5t20 64.5t-19 47t-65 13q-66 0 -145 -27z" />
<glyph unicode="&#xb3;" horiz-adv-x="571" d="M61 739l41 115q79 -27 144 -27q56 0 78 20.5t22 74.5q0 44 -29 70t-73 26h-70v131h70q42 0 67 23.5t25 68.5q0 35 -20.5 49.5t-65.5 14.5q-62 0 -141 -27l-41 113q57 29 96 40t98 11q227 0 227 -205q0 -49 -26.5 -89.5t-71.5 -62.5q109 -37 109 -165q0 -109 -61.5 -170.5 t-182.5 -61.5q-112 0 -195 51z" />
<glyph unicode="&#xb4;" horiz-adv-x="460" d="M61 1188l134 409h204l-174 -409h-164z" />
<glyph unicode="&#xb6;" horiz-adv-x="1163" d="M61 1004q0 122 29.5 207.5t86.5 133.5t130.5 68.5t171.5 20.5h602v-1434h-178v1280h-141v-1280h-178v606q-63 -18 -133 -18q-90 0 -159 21.5t-122 68.5t-81 129t-28 197z" />
<glyph unicode="&#xb7;" horiz-adv-x="632" d="M154 649q0 66 48 113t117 47q66 0 113 -47t47 -113q0 -69 -47 -116.5t-113 -47.5q-69 0 -117 47.5t-48 116.5z" />
<glyph unicode="&#xb8;" horiz-adv-x="643" d="M41 -469l45 107q85 -29 145 -29q46 0 79.5 2.5t69 11t54 26.5t17.5 46q-1 48 -31.5 62t-114.5 14h-186l6 69l131 232h168l-105 -183q60 -1 97.5 -4t76.5 -14.5t60.5 -32t35 -56t13.5 -87.5q0 -55 -21 -95t-53.5 -63t-83 -36t-98 -17t-110.5 -4q-109 0 -195 51z" />
<glyph unicode="&#xb9;" horiz-adv-x="514" d="M41 1169v144q4 2 37.5 16.5t50.5 23t45 23.5t47 29.5t31 28.5h119v-746h-154v567q-31 -24 -82.5 -49t-93.5 -37z" />
<glyph unicode="&#xba;" horiz-adv-x="641" d="M72 1077q0 54 5.5 101t22 97t43 85.5t71.5 58.5t105 23q250 0 250 -389q0 -53 -6 -100.5t-23 -97.5t-43.5 -85.5t-72 -58.5t-105.5 -23q-63 0 -110 25.5t-72.5 63t-41 93t-19.5 102.5t-4 105zM227 1065q0 -25 1 -48t6 -60.5t14 -64t27.5 -47t43.5 -20.5q31 0 51.5 27.5 t29 72t11.5 76.5t3 64q0 31 -3 63t-11.5 76.5t-29 72.5t-51.5 28q-25 0 -43.5 -20.5t-27.5 -47.5t-14 -64.5t-6 -60.5t-1 -47z" />
<glyph unicode="&#xbb;" horiz-adv-x="1290" d="M82 41v215l410 350l-410 352v216l614 -533v-68zM594 41v215l410 350l-410 352v216l614 -533v-68z" />
<glyph unicode="&#xbc;" horiz-adv-x="1138" d="M41 1169v144q4 2 37.5 16.5t50.5 23t45 23.5t47 29.5t31 28.5h119v-705h-154v526q-31 -24 -82.5 -49t-93.5 -37zM317 0l363 1434h164l-363 -1434h-164zM639 137v60l256 546h131v-475h72v-131h-72v-137h-152v137h-235zM793 268h92v207z" />
<glyph unicode="&#xbd;" horiz-adv-x="1241" d="M41 1169v144q4 2 37.5 16.5t50.5 23t45 23.5t47 29.5t31 28.5h119v-705h-154v526q-31 -24 -82.5 -49t-93.5 -37zM317 0l363 1434h164l-363 -1434h-164zM745 698q93 52 197 52q227 0 227 -189q0 -48 -15 -89t-38.5 -69.5t-52.5 -53.5t-58 -48t-52.5 -46t-38.5 -53.5 t-15 -66.5h262v-135h-413v127q0 62 20 113t49.5 82.5t64.5 61.5t64.5 52t49.5 52.5t20 64.5t-19 46.5t-65 12.5q-70 0 -146 -26z" />
<glyph unicode="&#xbe;" horiz-adv-x="1189" d="M61 739l41 115q79 -27 144 -27q56 0 78 20.5t22 74.5q0 44 -29 70t-73 26h-70v131h70q42 0 67 23.5t25 68.5q0 35 -20.5 49.5t-65.5 14.5q-62 0 -141 -27l-41 113q57 29 96 40t98 11q227 0 227 -205q0 -49 -26.5 -89.5t-71.5 -62.5q109 -37 109 -165q0 -109 -61.5 -170.5 t-182.5 -61.5q-112 0 -195 51zM369 0l362 1434h164l-363 -1434h-163zM690 137v60l256 546h131v-475h72v-131h-72v-137h-151v137h-236zM844 268h92v207z" />
<glyph unicode="&#xbf;" horiz-adv-x="821" d="M72 -49q0 64 15 115t38.5 86.5t52.5 68t58 67t52.5 75t38.5 102t15 137.5v82h188v-82q0 -118 -28 -206t-67.5 -139t-79 -93t-67.5 -92.5t-28 -112.5q0 -89 50.5 -123.5t144.5 -34.5q135 0 256 41l49 -137q-62 -36 -156 -55t-180 -19q-173 0 -262.5 81t-89.5 239zM307 946 q0 52 38 89.5t91 37.5q52 0 89.5 -37.5t37.5 -89.5t-37.5 -89.5t-89.5 -37.5q-53 0 -91 37t-38 90z" />
<glyph unicode="&#xc0;" horiz-adv-x="880" d="M20 0l326 1434h189l325 -1434h-192l-76 358h-303l-76 -358h-193zM201 1966h205l133 -410h-164zM322 518h237l-119 557z" />
<glyph unicode="&#xc1;" horiz-adv-x="880" d="M20 0l326 1434h189l325 -1434h-192l-76 358h-303l-76 -358h-193zM322 518h237l-119 557zM365 1556l133 410h204l-174 -410h-163z" />
<glyph unicode="&#xc2;" horiz-adv-x="880" d="M20 0l326 1434h189l325 -1434h-192l-76 358h-303l-76 -358h-193zM143 1556l244 410h107l243 -410h-184l-113 216l-112 -216h-185zM322 518h237l-119 557z" />
<glyph unicode="&#xc3;" horiz-adv-x="880" d="M20 0l326 1434h189l325 -1434h-192l-76 358h-303l-76 -358h-193zM96 1604v12.5t3.5 30.5t10 43.5t22.5 46t39 43.5t60.5 30.5t85.5 12.5q43 0 80 -17.5t58 -38t49 -38t55 -17.5q37 0 54 24.5t15 49.5l-1 24l157 -34q1 -9 0 -24t-11.5 -52.5t-30.5 -66.5t-67.5 -53 t-113.5 -24q-43 0 -79.5 17.5t-57 38t-48 38t-54.5 17.5q-37 0 -54.5 -24.5t-16.5 -48.5l1 -25zM322 518h237l-119 557z" />
<glyph unicode="&#xc4;" horiz-adv-x="880" d="M20 0l326 1434h189l325 -1434h-192l-76 358h-303l-76 -358h-193zM131 1700q0 51 38 87t89 36t87 -36t36 -87t-36 -87t-87 -36t-89 36t-38 87zM322 518h237l-119 557zM502 1700q0 51 38 87t91 36q50 0 85.5 -36t35.5 -87t-35.5 -87t-85.5 -36q-53 0 -91 36t-38 87z" />
<glyph unicode="&#xc5;" horiz-adv-x="880" d="M20 0l310 1358q-53 27 -84 74.5t-31 107.5q0 93 65 153t158 60t160.5 -60t67.5 -153q0 -58 -31 -105.5t-84 -74.5l309 -1360h-192l-76 358h-303l-76 -358h-193zM322 518h237l-119 557zM358 1540q0 -31 22.5 -53.5t57.5 -22.5t59.5 22.5t24.5 53.5q0 37 -24 58.5t-60 21.5 t-58 -21t-22 -59z" />
<glyph unicode="&#xc6;" horiz-adv-x="1402" d="M20 0l668 1434h653v-160h-440v-455h354v-160h-354v-499h440v-160h-628v358h-324l-168 -358h-201zM463 518h250v537z" />
<glyph unicode="&#xc7;" horiz-adv-x="888" d="M61 717q0 125 15 230t51 198t91.5 157.5t140.5 102t194 37.5q77 0 148.5 -18t104.5 -36l32 -18l-45 -143q-109 43 -215 43q-65 0 -116.5 -21.5t-84.5 -62.5t-56 -90.5t-34.5 -115.5t-16 -127.5t-4.5 -135.5t4.5 -135.5t16 -127.5t34.5 -115.5t56 -90.5t84.5 -62.5 t116.5 -21.5q47 0 101 11t84 21l30 11l45 -144q-11 -7 -32 -18t-89 -30.5t-139 -22.5l-60 -103q60 -1 97.5 -4t76.5 -14.5t60.5 -32t35 -56t13.5 -87.5q0 -55 -21 -95t-53.5 -63t-83.5 -36t-98.5 -17t-110.5 -4q-108 0 -194 51l45 107q85 -29 145 -29q46 0 79.5 2.5t68.5 11 t53.5 26.5t17.5 46q-1 49 -31.5 62.5t-113.5 13.5h-187l7 69l94 168q-357 93 -357 709z" />
<glyph unicode="&#xc8;" horiz-adv-x="772" d="M82 0v1434h629v-160h-441v-455h355v-160h-355v-499h441v-160h-629zM201 1966h205l133 -410h-164z" />
<glyph unicode="&#xc9;" horiz-adv-x="772" d="M82 0v1434h629v-160h-441v-455h355v-160h-355v-499h441v-160h-629zM303 1556l133 410h205l-174 -410h-164z" />
<glyph unicode="&#xca;" horiz-adv-x="772" d="M82 0v1434h629v-160h-441v-455h355v-160h-355v-499h441v-160h-629zM102 1556l244 410h107l243 -410h-184l-113 216l-112 -216h-185z" />
<glyph unicode="&#xcb;" horiz-adv-x="776" d="M82 0v1434h629v-160h-441v-455h355v-160h-355v-499h441v-160h-629zM94 1700q0 51 38 87t89 36t87 -36t36 -87t-36 -87t-87 -36t-89 36t-38 87zM465 1700q0 51 38 87t91 36q50 0 85.5 -36t35.5 -87t-35.5 -87t-85.5 -36q-53 0 -91 36t-38 87z" />
<glyph unicode="&#xcc;" horiz-adv-x="434" d="M-37 1966h205l133 -410h-164zM123 0v1434h188v-1434h-188z" />
<glyph unicode="&#xcd;" horiz-adv-x="434" d="M123 0v1434h188v-1434h-188zM129 1556l133 410h205l-174 -410h-164z" />
<glyph unicode="&#xce;" horiz-adv-x="434" d="M-80 1556l244 410h106l244 -410h-184l-113 216l-113 -216h-184zM123 0v1434h188v-1434h-188z" />
<glyph unicode="&#xcf;" horiz-adv-x="434" d="M-94 1700q0 51 38 87t89 36t87 -36t36 -87t-36 -87t-87 -36t-89 36t-38 87zM123 0v1434h188v-1434h-188zM276 1700q0 51 38.5 87t91.5 36q50 0 85 -36t35 -87t-35 -87t-85 -36q-53 0 -91.5 36t-38.5 87z" />
<glyph unicode="&#xd0;" horiz-adv-x="1013" d="M20 659v160h144v615h225q105 0 186.5 -16t140.5 -44.5t101 -76t68 -102t41 -132t20.5 -155.5t5.5 -183q0 -106 -5.5 -185.5t-20.5 -159t-41 -135t-68.5 -104.5t-102 -78.5t-142 -46t-187.5 -16.5h-221v659h-144zM352 160h29q77 0 135 14t97.5 34t66 62.5t41.5 80 t22.5 106t9 121t1.5 143.5t-1.5 142t-8.5 119t-22 104.5t-41.5 78.5t-66 62t-97 33.5t-134.5 13.5h-31v-455h211v-160h-211v-499z" />
<glyph unicode="&#xd1;" horiz-adv-x="976" d="M92 0v1434h189l415 -1033v1033h189v-1434h-189l-415 1032v-1032h-189zM145 1604v12.5t3.5 30.5t10.5 43.5t23 46t39 43.5t60.5 30.5t85.5 12.5q43 0 79.5 -17.5t58 -38t49 -38t54.5 -17.5q37 0 54 24.5t16 49.5l-2 24l158 -34q0 -9 -0.5 -24t-11 -52.5t-31 -66.5t-68 -53 t-113.5 -24q-43 0 -79.5 17.5t-57 38t-48 38t-54.5 17.5q-37 0 -54.5 -24.5t-16.5 -48.5l1 -25z" />
<glyph unicode="&#xd2;" horiz-adv-x="1005" d="M78 692v47q0 83 3.5 149.5t14.5 142t29.5 132.5t50.5 111.5t76 90t107.5 56.5t142.5 21t142.5 -21t107.5 -56.5t76.5 -90t51.5 -111.5t30 -132t14.5 -142t3.5 -150v-47q0 -83 -3.5 -149.5t-14.5 -141.5t-30 -132t-51.5 -111t-76.5 -89t-107.5 -56t-142.5 -21t-142.5 21 t-107.5 56t-76 89t-50.5 111t-29.5 132t-14.5 141.5t-3.5 149.5zM279 715q0 -67 1 -110.5t5.5 -107t13 -105t25 -89t39.5 -75t58.5 -46t80.5 -18.5t80.5 18.5t59 46t40 74.5t25.5 89t13.5 105t5.5 107.5t1 110.5t-1 110.5t-5.5 107.5t-13.5 105.5t-25.5 89.5t-40 75 t-59 46.5t-80.5 18.5t-80.5 -18.5t-58.5 -46t-39.5 -75.5t-25 -89.5t-13 -105.5t-5.5 -107.5t-1 -110.5zM293 1966h205l133 -410h-164z" />
<glyph unicode="&#xd3;" horiz-adv-x="1005" d="M78 692v47q0 83 3.5 149.5t14.5 142t29.5 132.5t50.5 111.5t76 90t107.5 56.5t142.5 21t142.5 -21t107.5 -56.5t76.5 -90t51.5 -111.5t30 -132t14.5 -142t3.5 -150v-47q0 -83 -3.5 -149.5t-14.5 -141.5t-30 -132t-51.5 -111t-76.5 -89t-107.5 -56t-142.5 -21t-142.5 21 t-107.5 56t-76 89t-50.5 111t-29.5 132t-14.5 141.5t-3.5 149.5zM279 715q0 -67 1 -110.5t5.5 -107t13 -105t25 -89t39.5 -75t58.5 -46t80.5 -18.5t80.5 18.5t59 46t40 74.5t25.5 89t13.5 105t5.5 107.5t1 110.5t-1 110.5t-5.5 107.5t-13.5 105.5t-25.5 89.5t-40 75 t-59 46.5t-80.5 18.5t-80.5 -18.5t-58.5 -46t-39.5 -75.5t-25 -89.5t-13 -105.5t-5.5 -107.5t-1 -110.5zM416 1556l133 410h205l-174 -410h-164z" />
<glyph unicode="&#xd4;" horiz-adv-x="1005" d="M78 692v47q0 83 3.5 149.5t14.5 142t29.5 132.5t50.5 111.5t76 90t107.5 56.5t142.5 21t142.5 -21t107.5 -56.5t76.5 -90t51.5 -111.5t30 -132t14.5 -142t3.5 -150v-47q0 -83 -3.5 -149.5t-14.5 -141.5t-30 -132t-51.5 -111t-76.5 -89t-107.5 -56t-142.5 -21t-142.5 21 t-107.5 56t-76 89t-50.5 111t-29.5 132t-14.5 141.5t-3.5 149.5zM207 1556l244 410h106l244 -410h-185l-112 216l-113 -216h-184zM279 715q0 -67 1 -110.5t5.5 -107t13 -105t25 -89t39.5 -75t58.5 -46t80.5 -18.5t80.5 18.5t59 46t40 74.5t25.5 89t13.5 105t5.5 107.5 t1 110.5t-1 110.5t-5.5 107.5t-13.5 105.5t-25.5 89.5t-40 75t-59 46.5t-80.5 18.5t-80.5 -18.5t-58.5 -46t-39.5 -75.5t-25 -89.5t-13 -105.5t-5.5 -107.5t-1 -110.5z" />
<glyph unicode="&#xd5;" horiz-adv-x="1005" d="M78 692v47q0 83 3.5 149.5t14.5 142t29.5 132.5t50.5 111.5t76 90t107.5 56.5t142.5 21t142.5 -21t107.5 -56.5t76.5 -90t51.5 -111.5t30 -132t14.5 -142t3.5 -150v-47q0 -83 -3.5 -149.5t-14.5 -141.5t-30 -132t-51.5 -111t-76.5 -89t-107.5 -56t-142.5 -21t-142.5 21 t-107.5 56t-76 89t-50.5 111t-29.5 132t-14.5 141.5t-3.5 149.5zM160 1604v12.5t3.5 30.5t10 43.5t22.5 46t39 43.5t60.5 30.5t85.5 12.5q43 0 80 -17.5t58 -38t49 -38t55 -17.5q24 0 39.5 10t20.5 24.5t7 29t1 24.5l-1 10l158 -34q1 -9 0 -24t-11.5 -52.5t-30.5 -66.5 t-67.5 -53t-113.5 -24q-43 0 -79.5 17.5t-57.5 38t-48.5 38t-54.5 17.5q-37 0 -54.5 -24.5t-16.5 -48.5l1 -25zM279 715q0 -67 1 -110.5t5.5 -107t13 -105t25 -89t39.5 -75t58.5 -46t80.5 -18.5t80.5 18.5t59 46t40 74.5t25.5 89t13.5 105t5.5 107.5t1 110.5t-1 110.5 t-5.5 107.5t-13.5 105.5t-25.5 89.5t-40 75t-59 46.5t-80.5 18.5t-80.5 -18.5t-58.5 -46t-39.5 -75.5t-25 -89.5t-13 -105.5t-5.5 -107.5t-1 -110.5z" />
<glyph unicode="&#xd6;" horiz-adv-x="1005" d="M78 692v47q0 83 3.5 149.5t14.5 142t29.5 132.5t50.5 111.5t76 90t107.5 56.5t142.5 21t142.5 -21t107.5 -56.5t76.5 -90t51.5 -111.5t30 -132t14.5 -142t3.5 -150v-47q0 -83 -3.5 -149.5t-14.5 -141.5t-30 -132t-51.5 -111t-76.5 -89t-107.5 -56t-142.5 -21t-142.5 21 t-107.5 56t-76 89t-50.5 111t-29.5 132t-14.5 141.5t-3.5 149.5zM197 1700q0 51 38 87t89 36t86.5 -36t35.5 -87t-35.5 -87t-86.5 -36t-89 36t-38 87zM279 715q0 -67 1 -110.5t5.5 -107t13 -105t25 -89t39.5 -75t58.5 -46t80.5 -18.5t80.5 18.5t59 46t40 74.5t25.5 89 t13.5 105t5.5 107.5t1 110.5t-1 110.5t-5.5 107.5t-13.5 105.5t-25.5 89.5t-40 75t-59 46.5t-80.5 18.5t-80.5 -18.5t-58.5 -46t-39.5 -75.5t-25 -89.5t-13 -105.5t-5.5 -107.5t-1 -110.5zM567 1700q0 51 38 87t91 36q50 0 85.5 -36t35.5 -87t-35.5 -87t-85.5 -36 q-53 0 -91 36t-38 87z" />
<glyph unicode="&#xd7;" horiz-adv-x="823" d="M82 469l219 219l-219 219l111 111l219 -219l219 219l110 -111l-219 -219l219 -219l-110 -111l-219 220l-219 -220z" />
<glyph unicode="&#xd8;" horiz-adv-x="1005" d="M78 692v47q0 83 3.5 149.5t14.5 142t29.5 132.5t50.5 111.5t76 90t107.5 56.5t142.5 21t142.5 -21t107.5 -56.5t76.5 -90t51.5 -111.5t30 -132t14.5 -142t3.5 -150v-47q0 -83 -3.5 -149.5t-14.5 -141.5t-30 -132t-51.5 -111t-76.5 -89t-107.5 -56t-142.5 -21t-142.5 21 t-107.5 56t-76 89t-50.5 111t-29.5 132t-14.5 141.5t-3.5 149.5zM279 715q0 -93 2 -152.5t13 -137.5t32 -130l241 962q-25 11 -65 11q-45 0 -80.5 -18.5t-58.5 -46t-39.5 -75.5t-25 -89.5t-13 -105.5t-5.5 -107.5t-1 -110.5zM438 174q30 -10 64 -10q45 0 80.5 18.5t59 46 t40 74.5t25.5 89t13.5 105t5.5 107.5t1 110.5q0 297 -47 418z" />
<glyph unicode="&#xd9;" horiz-adv-x="1013" d="M92 590v844h189v-822q0 -181 8 -240q21 -149 116 -190q42 -18 101 -18q55 0 95.5 14t65 48t38.5 63.5t20 89.5t7 95t1 109v29v822h189v-844q0 -115 -8.5 -198t-35 -162.5t-71.5 -129t-120.5 -79t-180.5 -29.5t-180.5 29.5t-120 79t-70.5 129t-34.5 162.5t-8.5 198z M293 1966h205l133 -410h-164z" />
<glyph unicode="&#xda;" horiz-adv-x="1013" d="M92 590v844h189v-822q0 -181 8 -240q21 -149 116 -190q42 -18 101 -18q55 0 95.5 14t65 48t38.5 63.5t20 89.5t7 95t1 109v29v822h189v-844q0 -115 -8.5 -198t-35 -162.5t-71.5 -129t-120.5 -79t-180.5 -29.5t-180.5 29.5t-120 79t-70.5 129t-34.5 162.5t-8.5 198z M416 1556l133 410h205l-174 -410h-164z" />
<glyph unicode="&#xdb;" horiz-adv-x="1013" d="M92 590v844h189v-822q0 -181 8 -240q21 -149 116 -190q42 -18 101 -18q55 0 95.5 14t65 48t38.5 63.5t20 89.5t7 95t1 109v29v822h189v-844q0 -115 -8.5 -198t-35 -162.5t-71.5 -129t-120.5 -79t-180.5 -29.5t-180.5 29.5t-120 79t-70.5 129t-34.5 162.5t-8.5 198z M211 1556l244 410h106l244 -410h-184l-113 216l-113 -216h-184z" />
<glyph unicode="&#xdc;" horiz-adv-x="1013" d="M92 590v844h189v-822q0 -181 8 -240q21 -149 116 -190q42 -18 101 -18q55 0 95.5 14t65 48t38.5 63.5t20 89.5t7 95t1 109v29v822h189v-844q0 -115 -8.5 -198t-35 -162.5t-71.5 -129t-120.5 -79t-180.5 -29.5t-180.5 29.5t-120 79t-70.5 129t-34.5 162.5t-8.5 198z M197 1700q0 51 38 87t89 36t86.5 -36t35.5 -87t-35.5 -87t-86.5 -36t-89 36t-38 87zM567 1700q0 51 38 87t91 36q50 0 85.5 -36t35.5 -87t-35.5 -87t-85.5 -36q-53 0 -91 36t-38 87z" />
<glyph unicode="&#xdd;" horiz-adv-x="894" d="M20 1434h205l224 -652l221 652h204l-333 -887v-547h-189v547zM375 1556l133 410h205l-174 -410h-164z" />
<glyph unicode="&#xde;" horiz-adv-x="872" d="M82 0v1434h188v-332h160q185 0 293 -100t108 -289q0 -191 -109.5 -299.5t-291.5 -108.5h-160v-305h-188zM270 465h133q124 0 184 69t60 183q0 111 -58.5 168t-185.5 57h-133v-477z" />
<glyph unicode="&#xdf;" horiz-adv-x="976" d="M92 0v1063q0 198 80 288.5t285 90.5q99 0 175 -27t120.5 -73t67 -102t22.5 -120q0 -52 -3 -90t-14.5 -80.5t-31.5 -72t-56 -54.5t-86 -39q46 -13 83 -30t74 -47t62 -69t40.5 -97.5t15.5 -130.5q0 -223 -134 -330.5t-354 -79.5v152q141 -21 220 46t79 218 q0 86 -26.5 147.5t-72 92.5t-94 44t-106.5 13v135q69 0 112.5 15.5t65.5 51.5t29.5 79t7.5 112q0 80 -44.5 132t-151.5 52q-59 0 -94.5 -13.5t-53.5 -48t-23 -75t-5 -111.5v-1042h-189z" />
<glyph unicode="&#xe0;" horiz-adv-x="815" d="M41 293q0 273 258 319l254 45v91q0 101 -35 139.5t-137 38.5q-113 0 -236 -39l-49 123q47 28 137 45.5t168 17.5q177 0 254.5 -76t77.5 -249v-748h-158l-16 106q-44 -34 -75 -54.5t-83.5 -40t-105.5 -19.5q-117 0 -185.5 83t-68.5 218zM229 305q0 -73 33.5 -118.5 t99.5 -45.5q97 0 191 76v295l-182 -39q-73 -18 -107.5 -57t-34.5 -111zM242 1597h204l134 -409h-164z" />
<glyph unicode="&#xe1;" horiz-adv-x="815" d="M41 293q0 273 258 319l254 45v91q0 101 -35 139.5t-137 38.5q-113 0 -236 -39l-49 123q47 28 137 45.5t168 17.5q177 0 254.5 -76t77.5 -249v-748h-158l-16 106q-44 -34 -75 -54.5t-83.5 -40t-105.5 -19.5q-117 0 -185.5 83t-68.5 218zM229 305q0 -73 33.5 -118.5 t99.5 -45.5q97 0 191 76v295l-182 -39q-73 -18 -107.5 -57t-34.5 -111zM317 1188l134 409h204l-174 -409h-164z" />
<glyph unicode="&#xe2;" horiz-adv-x="815" d="M41 293q0 273 258 319l254 45v91q0 101 -35 139.5t-137 38.5q-113 0 -236 -39l-49 123q47 28 137 45.5t168 17.5q177 0 254.5 -76t77.5 -249v-748h-158l-16 106q-44 -34 -75 -54.5t-83.5 -40t-105.5 -19.5q-117 0 -185.5 83t-68.5 218zM127 1188l244 409h106l244 -409 h-184l-113 215l-113 -215h-184zM229 305q0 -73 33.5 -118.5t99.5 -45.5q97 0 191 76v295l-182 -39q-73 -18 -107.5 -57t-34.5 -111z" />
<glyph unicode="&#xe3;" horiz-adv-x="815" d="M41 293q0 273 258 319l254 45v91q0 101 -35 139.5t-137 38.5q-113 0 -236 -39l-49 123q47 28 137 45.5t168 17.5q177 0 254.5 -76t77.5 -249v-748h-158l-16 106q-44 -34 -75 -54.5t-83.5 -40t-105.5 -19.5q-117 0 -185.5 83t-68.5 218zM96 1235v12.5t3.5 30.5t10 43.5 t22.5 46t39 43.5t60.5 30.5t85.5 12.5q43 0 80 -17.5t58 -38t49 -38t55 -17.5q37 0 54 24.5t15 49.5l-1 25l157 -35q-2 -1 0 -12.5t-3 -31t-10.5 -42.5t-22.5 -46.5t-39.5 -43t-61 -31.5t-86.5 -12q-35 0 -65 11.5t-51 27.5t-39.5 32t-40 27.5t-43.5 11.5q-37 0 -54.5 -24.5 t-16.5 -49.5l1 -24zM229 305q0 -73 33.5 -118.5t99.5 -45.5q97 0 191 76v295l-182 -39q-73 -18 -107.5 -57t-34.5 -111z" />
<glyph unicode="&#xe4;" horiz-adv-x="815" d="M41 293q0 273 258 319l254 45v91q0 101 -35 139.5t-137 38.5q-113 0 -236 -39l-49 123q47 28 137 45.5t168 17.5q177 0 254.5 -76t77.5 -249v-748h-158l-16 106q-44 -34 -75 -54.5t-83.5 -40t-105.5 -19.5q-117 0 -185.5 83t-68.5 218zM121 1331q0 51 38 87t89 36t87 -36 t36 -87t-36 -87t-87 -36t-89 36t-38 87zM229 305q0 -73 33.5 -118.5t99.5 -45.5q97 0 191 76v295l-182 -39q-73 -18 -107.5 -57t-34.5 -111zM492 1331q0 51 38 87t91 36q50 0 85 -36t35 -87t-35 -87t-85 -36q-53 0 -91 36t-38 87z" />
<glyph unicode="&#xe5;" horiz-adv-x="815" d="M41 293q0 273 258 319l254 45v91q0 101 -35 139.5t-137 38.5q-113 0 -236 -39l-49 123q47 28 137 45.5t168 17.5q177 0 254.5 -76t77.5 -249v-748h-158l-16 106q-44 -34 -75 -54.5t-83.5 -40t-105.5 -19.5q-117 0 -185.5 83t-68.5 218zM215 1395q0 93 65 153t158 60 t160.5 -60t67.5 -153q0 -89 -67.5 -148t-160.5 -59q-92 0 -157.5 59t-65.5 148zM229 305q0 -73 33.5 -118.5t99.5 -45.5q97 0 191 76v295l-182 -39q-73 -18 -107.5 -57t-34.5 -111zM358 1395q0 -31 22.5 -53.5t57.5 -22.5t59.5 22.5t24.5 53.5q0 37 -24 58.5t-60 21.5 t-58 -21t-22 -59z" />
<glyph unicode="&#xe6;" horiz-adv-x="1300" d="M41 293q0 273 258 319l254 45v91q0 101 -35 139.5t-137 38.5q-113 0 -236 -39l-49 123q47 28 137 45.5t168 17.5q97 0 168 -34.5t99 -92.5q22 55 95.5 91t147.5 36q78 0 136.5 -20.5t103.5 -66t68.5 -126t23.5 -194.5q0 -134 -6 -197h-504q7 -182 61 -257t160 -75 q100 0 224 39l47 -125q-45 -27 -129.5 -43t-161.5 -16q-196 0 -287 129q-64 -64 -149.5 -96.5t-155.5 -32.5q-154 0 -227.5 80.5t-73.5 220.5zM229 305q0 -74 33.5 -121t99.5 -47q44 0 105 31.5t121 81.5q-35 118 -35 262l-182 -39q-73 -18 -107.5 -57t-34.5 -111zM733 608 h342v58q0 144 -39.5 206t-124.5 62q-166 0 -178 -326z" />
<glyph unicode="&#xe7;" horiz-adv-x="784" d="M61 532q0 279 102.5 410t282.5 131q78 0 160 -16.5t127 -44.5l-47 -123q-111 35 -211 35q-110 0 -169.5 -93.5t-59.5 -285.5q0 -194 62 -299t171 -105q96 0 207 35l47 -125q-79 -46 -237 -57l-60 -105q60 -1 97.5 -4t76.5 -14.5t60.5 -32t35 -56t13.5 -87.5 q0 -55 -21 -95t-53.5 -63t-83.5 -36t-98.5 -17t-110.5 -4q-108 0 -194 51l45 107q85 -29 145 -29q46 0 79.5 2.5t68.5 11t53.5 26.5t17.5 46q-1 49 -31.5 62.5t-113.5 13.5h-186l6 69l94 166q-275 75 -275 526z" />
<glyph unicode="&#xe8;" horiz-adv-x="804" d="M61 483v70q0 145 26 248t75 161.5t111.5 84.5t142.5 26q78 0 136.5 -20.5t103.5 -66t68.5 -126t23.5 -194.5q0 -124 -7 -197h-503q7 -182 61 -257t160 -75q99 0 223 39l47 -125q-45 -27 -129.5 -43t-161.5 -16q-87 0 -152 24t-116 79.5t-78.5 152.5t-30.5 235zM238 608 h342v58q0 144 -39.5 206t-124.5 62q-166 0 -178 -326zM242 1597h204l134 -409h-164z" />
<glyph unicode="&#xe9;" horiz-adv-x="804" d="M61 483v70q0 145 26 248t75 161.5t111.5 84.5t142.5 26q78 0 136.5 -20.5t103.5 -66t68.5 -126t23.5 -194.5q0 -124 -7 -197h-503q7 -182 61 -257t160 -75q99 0 223 39l47 -125q-45 -27 -129.5 -43t-161.5 -16q-87 0 -152 24t-116 79.5t-78.5 152.5t-30.5 235zM238 608 h342v58q0 144 -39.5 206t-124.5 62q-166 0 -178 -326zM334 1188l133 409h205l-174 -409h-164z" />
<glyph unicode="&#xea;" horiz-adv-x="804" d="M61 483v70q0 145 26 248t75 161.5t111.5 84.5t142.5 26q78 0 136.5 -20.5t103.5 -66t68.5 -126t23.5 -194.5q0 -124 -7 -197h-503q7 -182 61 -257t160 -75q99 0 223 39l47 -125q-45 -27 -129.5 -43t-161.5 -16q-87 0 -152 24t-116 79.5t-78.5 152.5t-30.5 235zM119 1188 l243 409h107l244 -409h-185l-112 215l-113 -215h-184zM238 608h342v58q0 144 -39.5 206t-124.5 62q-166 0 -178 -326z" />
<glyph unicode="&#xeb;" horiz-adv-x="804" d="M61 483v70q0 145 26 248t75 161.5t111.5 84.5t142.5 26q78 0 136.5 -20.5t103.5 -66t68.5 -126t23.5 -194.5q0 -124 -7 -197h-503q7 -182 61 -257t160 -75q99 0 223 39l47 -125q-45 -27 -129.5 -43t-161.5 -16q-87 0 -152 24t-116 79.5t-78.5 152.5t-30.5 235zM111 1331 q0 51 38 87t89 36t86.5 -36t35.5 -87t-35.5 -87t-86.5 -36t-89 36t-38 87zM238 608h342v58q0 144 -39.5 206t-124.5 62q-166 0 -178 -326zM481 1331q0 51 38 87t91 36q50 0 85.5 -36t35.5 -87t-35.5 -87t-85.5 -36q-53 0 -91 36t-38 87z" />
<glyph unicode="&#xec;" horiz-adv-x="425" d="M-45 1597h205l133 -409h-164zM123 0v1065h180v-1065h-180z" />
<glyph unicode="&#xed;" horiz-adv-x="425" d="M123 0v1065h180v-1065h-180zM131 1188l133 409h205l-174 -409h-164z" />
<glyph unicode="&#xee;" horiz-adv-x="425" d="M-84 1188l244 409h106l244 -409h-184l-113 215l-113 -215h-184zM123 0v1065h180v-1065h-180z" />
<glyph unicode="&#xef;" horiz-adv-x="425" d="M-96 1331q0 51 38 87t89 36t87 -36t36 -87t-36 -87t-87 -36t-89 36t-38 87zM123 0v1065h180v-1065h-180zM274 1331q0 51 38 87t91 36q50 0 85.5 -36t35.5 -87t-35.5 -87t-85.5 -36q-53 0 -91 36t-38 87z" />
<glyph unicode="&#xf0;" horiz-adv-x="931" d="M72 414v47q0 81 20 154t60 135t109 98.5t159 36.5t123 -29l-101 209h-288v123h229l-117 246h201l117 -246h239v-123h-180q14 -30 51 -104t53 -108t42.5 -99.5t38.5 -111t22 -107t10 -121.5q0 -67 -10 -124t-37.5 -113.5t-70 -96t-113 -64t-162.5 -24.5t-162.5 24.5 t-113.5 64t-70.5 96t-38 114t-10.5 123.5zM250 436q0 -153 53 -226t164 -73q110 0 162.5 72.5t52.5 226.5t-52.5 227.5t-162.5 73.5t-163.5 -73.5t-53.5 -227.5z" />
<glyph unicode="&#xf1;" horiz-adv-x="856" d="M82 0v1065h158l16 -107q119 115 276 115q113 0 177.5 -62t64.5 -212v-799h-180v788q0 88 -29 115t-84 27q-69 0 -130.5 -27.5t-88.5 -54.5v-848h-180zM84 1235v12.5t3.5 30.5t10 43.5t22.5 46t39 43.5t60.5 30.5t85.5 12.5q43 0 80 -17.5t58 -38t49 -38t55 -17.5 q24 0 39.5 10t20.5 24.5t7 29.5t1 25l-1 10l158 -35q-2 -1 0 -12.5t-3 -31t-10.5 -42.5t-22.5 -46.5t-39.5 -43t-61 -31.5t-86.5 -12q-43 0 -79.5 17t-57.5 38t-48.5 38t-54.5 17q-24 0 -39.5 -10t-21 -24.5t-8 -29t-1.5 -24.5l1 -10z" />
<glyph unicode="&#xf2;" horiz-adv-x="870" d="M57 510v43q0 140 29.5 243t82.5 162t119 87t146 28q64 0 118.5 -17t103 -55.5t83 -97.5t54.5 -148.5t20 -201.5v-43q0 -112 -20 -200.5t-54.5 -147.5t-83 -97.5t-103 -55.5t-118.5 -17q-80 0 -146 28t-119 87t-82.5 161.5t-29.5 241.5zM238 510q0 -194 49.5 -284.5 t146.5 -90.5q199 0 199 375v43q0 375 -199 375q-97 0 -146.5 -90.5t-49.5 -284.5v-43zM242 1597h204l134 -409h-164z" />
<glyph unicode="&#xf3;" horiz-adv-x="870" d="M57 510v43q0 140 29.5 243t82.5 162t119 87t146 28q64 0 118.5 -17t103 -55.5t83 -97.5t54.5 -148.5t20 -201.5v-43q0 -112 -20 -200.5t-54.5 -147.5t-83 -97.5t-103 -55.5t-118.5 -17q-80 0 -146 28t-119 87t-82.5 161.5t-29.5 241.5zM238 510q0 -194 49.5 -284.5 t146.5 -90.5q199 0 199 375v43q0 375 -199 375q-97 0 -146.5 -90.5t-49.5 -284.5v-43zM356 1188l133 409h205l-174 -409h-164z" />
<glyph unicode="&#xf4;" horiz-adv-x="870" d="M57 510v43q0 140 29.5 243t82.5 162t119 87t146 28q64 0 118.5 -17t103 -55.5t83 -97.5t54.5 -148.5t20 -201.5v-43q0 -112 -20 -200.5t-54.5 -147.5t-83 -97.5t-103 -55.5t-118.5 -17q-80 0 -146 28t-119 87t-82.5 161.5t-29.5 241.5zM139 1188l244 409h106l244 -409 h-184l-113 215l-112 -215h-185zM238 510q0 -194 49.5 -284.5t146.5 -90.5q199 0 199 375v43q0 375 -199 375q-97 0 -146.5 -90.5t-49.5 -284.5v-43z" />
<glyph unicode="&#xf5;" horiz-adv-x="870" d="M57 510v43q0 140 29.5 243t82.5 162t119 87t146 28q64 0 118.5 -17t103 -55.5t83 -97.5t54.5 -148.5t20 -201.5v-43q0 -112 -20 -200.5t-54.5 -147.5t-83 -97.5t-103 -55.5t-118.5 -17q-80 0 -146 28t-119 87t-82.5 161.5t-29.5 241.5zM92 1235v12.5t3.5 30.5t10 43.5 t22.5 46t39 43.5t60.5 30.5t85.5 12.5q43 0 80 -17.5t58 -38t49 -38t55 -17.5q37 0 54 24.5t15 49.5l-1 25l157 -35q-2 -1 0 -12.5t-3 -31t-10.5 -42.5t-22.5 -46.5t-39.5 -43t-61 -31.5t-86.5 -12q-43 0 -79.5 17t-57.5 38t-48.5 38t-54.5 17q-24 0 -39.5 -10t-21 -24.5 t-8 -29t-1.5 -24.5l1 -10zM238 510q0 -194 49.5 -284.5t146.5 -90.5q199 0 199 375v43q0 375 -199 375q-97 0 -146.5 -90.5t-49.5 -284.5v-43z" />
<glyph unicode="&#xf6;" horiz-adv-x="870" d="M57 510v43q0 140 29.5 243t82.5 162t119 87t146 28q64 0 118.5 -17t103 -55.5t83 -97.5t54.5 -148.5t20 -201.5v-43q0 -112 -20 -200.5t-54.5 -147.5t-83 -97.5t-103 -55.5t-118.5 -17q-80 0 -146 28t-119 87t-82.5 161.5t-29.5 241.5zM129 1331q0 51 38 87t89 36t87 -36 t36 -87t-36 -87t-87 -36t-89 36t-38 87zM238 510q0 -194 49.5 -284.5t146.5 -90.5q199 0 199 375v43q0 375 -199 375q-97 0 -146.5 -90.5t-49.5 -284.5v-43zM500 1331q0 51 38 87t91 36q50 0 85.5 -36t35.5 -87t-35.5 -87t-85.5 -36q-53 0 -91 36t-38 87z" />
<glyph unicode="&#xf7;" horiz-adv-x="901" d="M82 610v156h737v-156h-737zM324 401q0 53 37 90t90 37t91 -37t38 -90q0 -52 -38 -89.5t-91 -37.5t-90 37t-37 90zM324 975q0 53 37 90t90 37t91 -37t38 -90q0 -52 -38 -89.5t-91 -37.5t-90 37t-37 90z" />
<glyph unicode="&#xf8;" horiz-adv-x="868" d="M57 510v43q0 140 29.5 243t82.5 162t119 87t146 28q64 0 118.5 -17t103 -55.5t83 -97.5t54.5 -148.5t20 -201.5v-43q0 -112 -20 -200.5t-54.5 -147.5t-83 -97.5t-103 -55.5t-118.5 -17q-80 0 -146 28t-119 87t-82.5 161.5t-29.5 241.5zM238 510q0 -192 49 -283l176 699 q-10 2 -29 2q-97 0 -146.5 -90.5t-49.5 -284.5v-43zM408 137q8 -2 26 -2q199 0 199 375v43q0 192 -49 283z" />
<glyph unicode="&#xf9;" horiz-adv-x="856" d="M82 266v799h180v-789q0 -46 8.5 -76t26 -43.5t34.5 -17.5t44 -4q69 0 130.5 27.5t88.5 54.5v848h180v-1065h-158l-16 106q-118 -114 -276 -114q-113 0 -177.5 62t-64.5 212zM242 1597h204l134 -409h-164z" />
<glyph unicode="&#xfa;" horiz-adv-x="856" d="M82 266v799h180v-789q0 -46 8.5 -76t26 -43.5t34.5 -17.5t44 -4q69 0 130.5 27.5t88.5 54.5v848h180v-1065h-158l-16 106q-118 -114 -276 -114q-113 0 -177.5 62t-64.5 212zM324 1188l133 409h205l-175 -409h-163z" />
<glyph unicode="&#xfb;" horiz-adv-x="856" d="M82 266v799h180v-789q0 -46 8.5 -76t26 -43.5t34.5 -17.5t44 -4q69 0 130.5 27.5t88.5 54.5v848h180v-1065h-158l-16 106q-118 -114 -276 -114q-113 0 -177.5 62t-64.5 212zM131 1188l244 409h106l244 -409h-184l-113 215l-113 -215h-184z" />
<glyph unicode="&#xfc;" horiz-adv-x="856" d="M82 266v799h180v-789q0 -46 8.5 -76t26 -43.5t34.5 -17.5t44 -4q69 0 130.5 27.5t88.5 54.5v848h180v-1065h-158l-16 106q-118 -114 -276 -114q-113 0 -177.5 62t-64.5 212zM121 1331q0 51 38 87t89 36t87 -36t36 -87t-36 -87t-87 -36t-89 36t-38 87zM492 1331 q0 51 38 87t91 36q50 0 85 -36t35 -87t-35 -87t-85 -36q-53 0 -91 36t-38 87z" />
<glyph unicode="&#xfd;" horiz-adv-x="843" d="M20 1065h189l213 -784l213 784h188l-440 -1475h-184l131 439zM324 1188l133 409h205l-175 -409h-163z" />
<glyph unicode="&#xfe;" horiz-adv-x="888" d="M82 -410v1844h180v-465q70 104 225 104q114 0 192 -73.5t113 -195t35 -282.5q0 -257 -94 -393.5t-246 -136.5q-155 0 -225 104v-506h-180zM262 217q28 -33 75 -54.5t101 -21.5q99 0 152 103t53 278q0 402 -205 402q-54 0 -101 -21.5t-75 -54.5v-631z" />
<glyph unicode="&#xff;" horiz-adv-x="843" d="M20 1065h189l213 -784l213 784h188l-440 -1475h-184l131 439zM125 1331q0 51 38 87t89 36t87 -36t36 -87t-36 -87t-87 -36t-89 36t-38 87zM496 1331q0 51 38 87t91 36q50 0 85 -36t35 -87t-35 -87t-85 -36q-53 0 -91 36t-38 87z" />
<glyph unicode="&#x110;" horiz-adv-x="1013" d="M20 659v160h144v615h225q105 0 186.5 -16t140.5 -44.5t101 -76t68 -102t41 -132t20.5 -155.5t5.5 -183q0 -106 -5.5 -185.5t-20.5 -159t-41 -135t-68.5 -104.5t-102 -78.5t-142 -46t-187.5 -16.5h-221v659h-144zM352 160h29q77 0 135 14t97.5 34t66 62.5t41.5 80 t22.5 106t9 121t1.5 143.5t-1.5 142t-8.5 119t-22 104.5t-41.5 78.5t-66 62t-97 33.5t-134.5 13.5h-31v-455h211v-160h-211v-499z" />
<glyph unicode="&#x111;" horiz-adv-x="946" d="M61 518q0 124 19.5 220t54 158.5t85 103t108.5 57t129 16.5q90 0 170 -41v135h-371v123h371v144h180v-144h119v-123h-119v-1167h-158l-16 106q-67 -114 -232 -114q-164 0 -252 132t-88 394zM246 520q0 -183 47 -281t158 -98q54 0 101 21.5t75 54.5v680q-62 27 -142 27 q-56 0 -98 -19t-74.5 -63.5t-49.5 -125t-17 -196.5z" />
<glyph unicode="&#x131;" horiz-adv-x="425" d="M123 0v1065h180v-1065h-180z" />
<glyph unicode="&#x141;" horiz-adv-x="825" d="M20 659v160h144v615h188v-615h277v-160h-277v-499h432v-160h-620v659h-144z" />
<glyph unicode="&#x142;" horiz-adv-x="720" d="M20 659v160h246v615h189v-615h245v-160h-245v-659h-189v659h-246z" />
<glyph unicode="&#x152;" horiz-adv-x="1388" d="M78 692v47q0 83 3.5 149.5t14.5 142t29.5 132.5t50.5 111.5t76 90t107.5 56.5t142.5 21q55 0 94 -8h731v-160h-498q92 -149 99 -455h313v-160h-313q-4 -344 -99 -499h498v-160h-731q-39 -8 -94 -8q-79 0 -142.5 21t-107.5 56t-76 89t-50.5 111t-29.5 132t-14.5 141.5 t-3.5 149.5zM279 715q0 -67 1 -110.5t5.5 -107t13 -105t25 -89t39.5 -75t58.5 -46t80.5 -18.5t80.5 18.5t59 46t40 74.5t25.5 89t13.5 105t5.5 107.5t1 110.5t-1 110.5t-5.5 107.5t-13.5 105.5t-25.5 89.5t-40 75t-59 46.5t-80.5 18.5t-80.5 -18.5t-58.5 -46t-39.5 -75.5 t-25 -89.5t-13 -105.5t-5.5 -107.5t-1 -110.5z" />
<glyph unicode="&#x153;" horiz-adv-x="1378" d="M57 510v43q0 140 29.5 243t82.5 162t119 87t146 28q89 0 168.5 -46.5t114.5 -131.5q31 87 106.5 132.5t165.5 45.5q78 0 136.5 -20.5t103.5 -66t68.5 -126t23.5 -194.5q0 -134 -6 -197h-504q7 -182 61 -257t160 -75q100 0 223 39l48 -125q-45 -27 -129.5 -43t-161.5 -16 q-101 0 -182 46t-113 134q-35 -86 -114.5 -133t-168.5 -47q-80 0 -146 28t-119 87t-82.5 161.5t-29.5 241.5zM238 510q0 -194 49.5 -284.5t146.5 -90.5q199 0 199 375v43q0 375 -199 375q-97 0 -146.5 -90.5t-49.5 -284.5v-43zM811 608h342v58q0 144 -39.5 206t-124.5 62 q-166 0 -178 -326z" />
<glyph unicode="&#x160;" horiz-adv-x="862" d="M51 68l49 137q113 -41 260 -41q263 0 263 211q0 60 -19 106t-57 80t-73 56t-88 49l-24 12q-70 37 -119 70.5t-95 79t-69.5 102.5t-23.5 125q0 209 101 298t309 89q81 0 174.5 -19t155.5 -55l-50 -137q-121 41 -258 41q-38 0 -68.5 -3t-64.5 -14.5t-57 -30.5t-38 -53 t-15 -81q0 -38 8.5 -70t27 -58t37.5 -46t50 -40t53.5 -33t60 -33t58.5 -32q52 -30 87.5 -54.5t73 -60t60 -73t37 -89t14.5 -112.5q0 -208 -109.5 -302.5t-318.5 -94.5q-84 0 -177.5 19t-154.5 57zM135 1966h184l113 -215l113 215h184l-244 -410h-106z" />
<glyph unicode="&#x161;" horiz-adv-x="737" d="M51 61l49 115q37 -16 102 -25.5t115 -9.5q52 0 91.5 11.5t67.5 44t28 82.5q0 104 -150 192q-20 12 -63.5 35t-69 37.5t-61 41t-55 52.5t-34 65t-14.5 84q0 156 82.5 221.5t229.5 65.5q85 0 175 -17t134 -50l-47 -121q-42 17 -106.5 28t-118.5 11q-71 0 -118.5 -26 t-47.5 -89q0 -29 11.5 -55t26.5 -44.5t44.5 -39.5t51.5 -33.5t61.5 -34t60.5 -33.5q36 -21 63 -40.5t59.5 -54t50 -82.5t17.5 -107q0 -80 -25.5 -138.5t-72.5 -91.5t-105 -48t-131 -15q-83 0 -170.5 17t-130.5 52zM72 1597h184l113 -215l112 215h185l-244 -409h-107z" />
<glyph unicode="&#x178;" horiz-adv-x="894" d="M20 1434h205l224 -652l221 652h204l-333 -887v-547h-189v547zM133 1700q0 51 38 87t89 36t87 -36t36 -87t-36 -87t-87 -36t-89 36t-38 87zM504 1700q0 51 38 87t91 36q50 0 85.5 -36t35.5 -87t-35.5 -87t-85.5 -36q-53 0 -91 36t-38 87z" />
<glyph unicode="&#x17d;" horiz-adv-x="860" d="M61 0v98l496 1176h-496v160h738v-99l-496 -1175h496v-160h-738zM133 1966h184l113 -215l113 215h184l-244 -410h-106z" />
<glyph unicode="&#x17e;" horiz-adv-x="798" d="M61 0v82l455 840h-455v143h676v-82l-454 -840h454v-143h-676zM102 1597h185l112 -215l113 215h184l-243 -409h-107z" />
<glyph unicode="&#x192;" horiz-adv-x="729" d="M20 33l33 125q51 -23 103 -23q32 0 54 10.5t34.5 27t19 46.5t8.5 57.5t2 71.5v574h-163v143h163v33q2 179 64 267.5t199 88.5q120 0 172 -41l-33 -125q-51 23 -103 23q-32 0 -54 -10.5t-34.5 -27t-19 -46.5t-8.5 -57.5t-2 -71.5v-33h202v-143h-202v-574 q-2 -179 -64 -267.5t-198 -88.5q-121 0 -173 41z" />
<glyph unicode="&#x2c6;" horiz-adv-x="716" d="M61 1188l244 409h107l243 -409h-184l-113 215l-112 -215h-185z" />
<glyph unicode="&#x2c7;" horiz-adv-x="716" d="M61 1597h185l112 -215l113 215h184l-243 -409h-107z" />
<glyph unicode="&#x2d8;" horiz-adv-x="651" d="M61 1448h150q0 -55 29 -89t82 -34q57 0 85.5 33.5t28.5 89.5h154q0 -110 -75.5 -185t-192.5 -75q-113 0 -187 75t-74 185z" />
<glyph unicode="&#x2d9;" horiz-adv-x="372" d="M61 1331q0 51 38 87t89 36t87 -36t36 -87t-36 -87t-87 -36t-89 36t-38 87z" />
<glyph unicode="&#x2da;" horiz-adv-x="573" d="M61 1395q0 93 65.5 153t158.5 60t160 -60t67 -153q0 -89 -67 -148t-160 -59t-158.5 59t-65.5 148zM205 1395q0 -31 22.5 -53.5t57.5 -22.5t59.5 22.5t24.5 53.5q0 37 -24 58.5t-60 21.5t-58 -21t-22 -59z" />
<glyph unicode="&#x2db;" horiz-adv-x="573" />
<glyph unicode="&#x2dc;" horiz-adv-x="815" d="M63 1235v12.5t3.5 30.5t10.5 43.5t23 46t39 43.5t60.5 30.5t85.5 12.5q43 0 79.5 -17.5t58 -38t49 -38t54.5 -17.5q37 0 54 24.5t16 49.5l-2 25l158 -35v-12.5t-3.5 -30.5t-10.5 -43.5t-23 -46t-39 -43.5t-61.5 -30.5t-86.5 -12.5q-35 0 -65 11.5t-51 27.5t-39.5 32 t-40 27.5t-43.5 11.5q-37 0 -54.5 -24.5t-16.5 -49.5l1 -24z" />
<glyph unicode="&#x2dd;" horiz-adv-x="778" d="M41 942l174 492h205l-215 -492h-164zM358 942l174 492h205l-215 -492h-164z" />
<glyph unicode="&#x3bc;" horiz-adv-x="856" d="M82 -410v1475h180v-789q0 -46 8.5 -76t26 -43.5t34.5 -17.5t44 -4q69 0 130.5 27.5t88.5 54.5v848h180v-1065h-158l-16 106q-57 -56 -107.5 -85t-115.5 -29q-37 0 -71.5 10t-43.5 23v-435h-180z" />
<glyph unicode="&#xe01;" horiz-adv-x="958" d="M72 745v76q0 164 106.5 269.5t282.5 105.5q211 0 313.5 -113t102.5 -376v-707h-189v717q0 183 -53.5 254t-173.5 71q-207 0 -215 -217l233 -51v-86q-174 -60 -174 -266v-422h-188v401q0 115 48.5 192t149.5 99z" />
<glyph unicode="&#xe02;" horiz-adv-x="897" d="M47 1155q100 39 191 39q87 0 142.5 -43t55.5 -135q0 -49 -17.5 -100t-42 -95.5t-49 -90t-42 -101t-17.5 -111.5v-123q0 -103 17 -157t53 -74.5t104 -20.5q69 0 107 20t58 75t20 157v793h188v-793q0 -97 -17.5 -168t-48 -116t-78.5 -71.5t-102.5 -37t-126.5 -10.5 q-67 0 -119.5 8.5t-90 31.5t-64 44t-43 64.5t-26 73.5t-13.5 91t-5 97t-1 110q0 69 18.5 131t45.5 106t54 83t45.5 78.5t18.5 74.5q0 37 -25.5 56.5t-72.5 19.5q-30 0 -78 -10z" />
<glyph unicode="&#xe03;" horiz-adv-x="929" d="M41.5 1127.5q2.5 31.5 11.5 60.5h154q-31 -127 26 -127q34 0 69.5 35t35.5 92h149v-96q0 -64 -19 -126.5t-46.5 -114l-55 -103t-46.5 -111t-19 -119.5v-123q0 -103 17 -157t53 -74.5t104 -20.5q69 0 107 20t57.5 75t19.5 157v793h189v-793q0 -97 -17.5 -168t-48 -116 t-78.5 -71.5t-102.5 -37t-126.5 -10.5q-67 0 -119.5 8.5t-90 31.5t-64 44t-43 64.5t-26 73.5t-13.5 91t-5 97t-1 110q0 69 19.5 134t48 114t57 92.5t51 86t26.5 77.5q-45 -76 -135 -76q-42 0 -72 17t-44.5 44t-19.5 61t-2.5 65.5z" />
<glyph unicode="&#xe04;" horiz-adv-x="980" d="M82 0v696q0 142 27.5 240.5t83 154.5t128 80.5t171.5 24.5t171.5 -24.5t127 -81t81.5 -154.5t27 -240v-696h-188v696q0 139 -23 214.5t-68.5 103.5t-127.5 28t-128 -28t-70 -104t-24 -214v-217q61 144 215 144h82v-152h-82q-84 0 -149.5 -55.5t-65.5 -126.5v-289h-188z " />
<glyph unicode="&#xe05;" horiz-adv-x="983" d="M82 0v850q0 66 4 112t17 92.5t36 74.5t62.5 45.5t95.5 17.5q152 0 195 -125q43 125 194 125q56 0 95.5 -17.5t62.5 -45.5t36 -74.5t17 -92.5t4 -112v-850h-188v864q0 31 -2.5 54t-10 50t-25 41.5t-44.5 14.5q-19 0 -33 -6.5t-22 -21t-13 -27.5t-7 -36t-2.5 -36t-0.5 -37 h-123q0 24 -0.5 37t-2.5 36t-7 36t-13 27.5t-22 21t-33 6.5q-27 0 -44.5 -14.5t-25 -41.5t-10 -50t-2.5 -54v-385q61 144 215 144h82v-152h-82q-84 0 -149.5 -55.5t-65.5 -126.5v-289h-188z" />
<glyph unicode="&#xe06;" horiz-adv-x="948" d="M41.5 1127.5q2.5 31.5 11.5 60.5h154q-31 -127 26 -127q33 0 68.5 35t36.5 92h149v-96q0 -64 -19 -126.5t-46.5 -114l-55 -103t-46.5 -111t-19 -119.5v-229q81 -137 234 -137q143 0 143 133v903h188v-914q0 -139 -70.5 -210.5t-193.5 -71.5q-192 0 -313 160l-21 -152 h-155v512q0 69 19.5 134t48 114t57 92.5t51 86t26.5 77.5q-45 -76 -135 -76q-42 0 -72 17t-44.5 44t-19.5 61t-2.5 65.5z" />
<glyph unicode="&#xe07;" horiz-adv-x="905" d="M20 1188h191l278 -1038q170 342 170 661q0 123 -33 178t-110 55q-23 0 -50.5 -4t-43.5 -8l-16 -4l-35 131q79 37 188 37q142 0 213.5 -89t71.5 -286q0 -371 -248 -821h-238z" />
<glyph unicode="&#xe08;" horiz-adv-x="856" d="M51 1130q51 30 149 48t193 18q204 0 308 -94.5t104 -313.5q0 -356 -238 -788h-235l-150 504q-7 20 -26 20h-99v152h170q37 0 66 -21.5t39 -56.5l129 -448q160 322 160 616q0 86 -17.5 143t-52.5 85.5t-75.5 39t-98.5 10.5q-140 0 -275 -43z" />
<glyph unicode="&#xe09;" horiz-adv-x="917" d="M82 274v402h188v-391q0 -133 144 -133q152 0 233 137v452q0 96 -16 157.5t-51 92.5t-76.5 42t-104.5 11q-127 0 -262 -43l-51 129q50 30 147.5 48t188.5 18q77 0 138 -13t114 -44.5t87.5 -82.5t54.5 -130.5t20 -184.5v-741h-156l-21 152q-121 -160 -313 -160 q-123 0 -193.5 71.5t-70.5 210.5z" />
<glyph unicode="&#xe0a;" horiz-adv-x="897" d="M47 1155q100 39 191 39q87 0 142.5 -43t55.5 -135q0 -49 -17.5 -100t-42 -95.5t-49 -90t-42 -101t-17.5 -111.5v-123q0 -103 17 -157t53 -74.5t104 -20.5q69 0 107 20t58 75t20 157v123q0 36 -4 66.5t-9 52t-16.5 41.5t-18.5 30.5t-23.5 24t-22.5 17.5t-24.5 15t-21.5 13 v123q2 1 7 4l25.5 15t25.5 16t26.5 19.5t24 21.5t23 26.5t19 30.5t15.5 36.5t9 42t4 49.5t-4 57h178q27 -125 -25.5 -225t-177.5 -152q90 -54 134 -127.5t44 -202.5v-117q0 -97 -17.5 -168t-48 -116t-78.5 -71.5t-102.5 -37t-126.5 -10.5t-125.5 10.5t-99.5 37t-75 71.5 t-45.5 116t-16.5 168v117q0 69 18.5 131t45.5 106t54 83t45.5 78.5t18.5 74.5q0 37 -25.5 56.5t-72.5 19.5q-30 0 -78 -10z" />
<glyph unicode="&#xe0b;" horiz-adv-x="929" d="M41.5 1127.5q2.5 31.5 11.5 60.5h154q-31 -127 26 -127q33 0 68.5 35t36.5 92h149v-96q0 -64 -19 -126.5t-46.5 -114l-55 -103t-46.5 -111t-19 -119.5v-123q0 -103 17 -157t53 -74.5t104 -20.5q69 0 107 20t57.5 75t19.5 157v123q0 36 -4 66.5t-9 52t-16.5 41.5t-18 30.5 t-23 24t-22 17.5t-24.5 15t-22 13v123q79 45 111 79q83 86 63 239h178q27 -125 -25 -225t-177 -152q90 -54 134 -127.5t44 -202.5v-117q0 -97 -17.5 -168t-48 -116t-78.5 -71.5t-102.5 -37t-126.5 -10.5q-67 0 -119.5 8.5t-90 31.5t-64 44t-43 64.5t-26 73.5t-13.5 91t-5 97 t-1 110q0 69 19.5 134t48 114t57 92.5t51 86t26.5 77.5q-45 -76 -135 -76q-42 0 -72 17t-44.5 44t-19.5 61t-2.5 65.5z" />
<glyph unicode="&#xe0c;" horiz-adv-x="1437" d="M72 745v76q0 166 99 270.5t273 104.5q208 0 304 -112t96 -377v-418q39 -65 86 -101t119 -36q62 0 90 31t28 102v903h189v-914q0 -282 -238 -282q-166 0 -287 160l-20 -152h-156v717q0 127 -21 197t-66 99t-124 29q-99 0 -147 -51.5t-51 -165.5l233 -51v-86 q-92 -32 -143 -99.5t-51 -166.5v-66q0 -47 2.5 -74.5t13 -58.5t30.5 -46t57 -23t91 -2v-152q-104 -11 -180 7.5t-119.5 63t-63.5 104.5t-20 138v88q0 111 57.5 189.5t161.5 101.5z" />
<glyph unicode="&#xe0d;" horiz-adv-x="1437" d="M72 745v76q0 166 99 270.5t273 104.5q208 0 304 -112t96 -377v-238q0 -156 9 -203q17 -90 88 -113q31 -10 73 -10q30 0 53 4t39 15t27.5 21.5t18.5 31.5t10.5 37t4.5 47t1 51t-0.5 59.5t-0.5 63.5v715h189v-735q0 -73 -3 -125t-11.5 -103t-24.5 -85.5t-41 -64.5 t-61.5 -47t-86 -26.5t-114.5 -9.5q-90 0 -153.5 18.5t-103.5 52.5t-62.5 93t-31 128t-8.5 169v264q0 127 -21 197t-66 99t-124 29q-99 0 -147 -51.5t-51 -165.5l233 -51v-86q-92 -32 -143 -99.5t-51 -166.5v-66q0 -47 2.5 -74.5t13 -58.5t30.5 -46t57 -23t91 -2v-152 q-104 -11 -180 7.5t-119.5 63t-63.5 104.5t-20 138v88q0 111 57.5 189.5t161.5 101.5zM662 -80h174q-15 -79 28 -114t154 -35h338v-140h-393q-96 0 -162 24.5t-97 67t-40.5 91t-1.5 106.5z" />
<glyph unicode="&#xe0e;" horiz-adv-x="985" d="M31 0v152q27 -3 48 -3t36.5 4t26 11t17 17.5t10.5 24t5.5 30t1.5 35.5v41v24v65q0 60 6.5 103.5t23.5 84t51 66.5t85 37l-244 53v76q0 164 106.5 269.5t282.5 105.5q211 0 313.5 -113t102.5 -376v-1117h-211q-63 89 -126.5 129.5t-141.5 40.5q-77 0 -105 -47t-18 -123 h-188q-22 133 54.5 225.5t219.5 92.5q112 0 191 -48t137 -145v1002q0 183 -54 254t-174 71q-207 0 -215 -217l234 -51v-86q-84 -29 -112.5 -91.5t-28.5 -174.5v-129q0 -35 -2 -63.5t-7 -57.5t-13.5 -50.5t-22 -43t-32 -34.5t-43.5 -26t-56.5 -16.5t-70.5 -6t-87 4.5z" />
<glyph unicode="&#xe0f;" horiz-adv-x="985" d="M31 0v152q27 -3 48 -3t36.5 4t26 11t17 17.5t10.5 24t5.5 30t1.5 35.5v41v24v65q0 60 6.5 103.5t23.5 84t51 66.5t85 37l-244 53v76q0 164 106.5 269.5t282.5 105.5q211 0 313.5 -113t102.5 -376v-842q0 -138 -67.5 -210.5t-178.5 -72.5q-103 0 -175.5 56.5t-78.5 148.5 q-34 -107 -104 -158.5t-207 -38.5v162q91 -14 152 31t92 125h156q17 -84 43.5 -125t82.5 -41q97 0 97 133v842q0 183 -54 254t-174 71q-206 0 -215 -217l234 -51v-86q-84 -29 -112.5 -91.5t-28.5 -174.5v-129q0 -35 -2 -63.5t-7 -57.5t-13.5 -50.5t-22 -43t-32 -34.5 t-43.5 -26t-56.5 -16.5t-70.5 -6t-87 4.5z" />
<glyph unicode="&#xe10;" horiz-adv-x="899" d="M47 -260q86 -14 144.5 26.5t87.5 114.5h147q15 -78 41 -114.5t80 -36.5q100 0 100 120v31h160v-41q0 -129 -71 -195.5t-181 -66.5q-95 0 -151 50t-62 139q-21 -66 -53 -106.5t-92.5 -62t-149.5 -12.5v154zM51 1116q109 51 352 88l523 78v-135l-283 -41 q91 -35 136.5 -109.5t45.5 -208.5q0 -187 -71.5 -383t-186.5 -405h-229l-150 504q-7 20 -26 20h-105v152h170q37 0 66 -21.5t39 -56.5l129 -448q180 362 180 616q0 86 -19 143.5t-56 85.5t-78.5 38.5t-100.5 10.5q-105 0 -285 -57z" />
<glyph unicode="&#xe11;" horiz-adv-x="1058" d="M31.5 1127.5q2.5 31.5 11.5 60.5h154q-31 -127 26 -127q33 0 68.5 35t36.5 92h149v-105q118 113 250 113q113 0 181.5 -72.5t68.5 -210.5v-913h-189v903q0 68 -36 100.5t-97 32.5q-100 0 -171.5 -76t-71.5 -217v-743h-189v602q0 255 111 414q-59 -76 -164 -76 q-42 0 -72 17t-44.5 44t-19.5 61t-2.5 65.5z" />
<glyph unicode="&#xe12;" horiz-adv-x="1492" d="M74 539q0 227 2 262q11 259 106 343q55 48 137 48q63 0 111 -33.5t68 -91.5q43 125 190 125q56 0 95 -17.5t61.5 -45t35 -74.5t16 -92.5t3.5 -112.5v-561q39 -65 86 -101t119 -36q62 0 90.5 31t28.5 102v903h188v-914q0 -282 -237 -282q-166 0 -287 160l-21 -152h-155 v864v13v34t-2 32.5t-6.5 32t-12 24t-20.5 18.5t-31 6q-22 0 -38 -11t-24 -26t-12.5 -40t-5 -42.5t-0.5 -44.5h-123q0 62 -21 113t-61 51q-33 0 -53 -30.5t-28 -106.5t-9.5 -135t-1.5 -182v-31q0 -76 4 -131.5t12.5 -100t23 -72t36.5 -48.5t51 -27.5t67.5 -10.5t86.5 3v-152 q-93 -8 -167.5 -3.5t-131 35t-94.5 91t-57 163.5t-19 253z" />
<glyph unicode="&#xe13;" horiz-adv-x="1437" d="M72 745v76q0 166 99 270.5t273 104.5q208 0 304 -112t96 -377v-422q0 -71 28.5 -102t90.5 -31q72 0 118.5 35.5t85.5 101.5v899h189v-1188h-156l-20 152q-121 -160 -287 -160q-238 0 -238 282v443q0 127 -21 197t-66 99t-124 29q-99 0 -146.5 -51t-51.5 -166l233 -51v-86 q-92 -32 -143 -99.5t-51 -166.5v-66q0 -47 2.5 -74.5t13 -58.5t30.5 -46t57 -23t91 -2v-152q-104 -11 -180 7.5t-119.5 63t-63.5 104.5t-20 138v88q0 111 57.5 189.5t161.5 101.5z" />
<glyph unicode="&#xe14;" horiz-adv-x="970" d="M72 600q0 74 3.5 133t14.5 123t29.5 112t49.5 92.5t73.5 73t103 45.5t135.5 17q99 0 171.5 -24.5t127 -80.5t82 -154.5t27.5 -240.5v-696h-189v696q0 139 -23 214.5t-68.5 103.5t-127.5 28q-41 0 -74 -10.5t-55 -28.5t-39.5 -43.5t-26.5 -55.5t-15.5 -63.5t-8 -68 t-2.5 -70t0 -68.5v-34q0 -70 2 -123.5t7 -100t13 -78.5t19.5 -59.5t27.5 -42.5t36.5 -27.5t46 -15t57 -4.5t68.5 3v-152q-93 -9 -167 -1.5t-130 42.5t-93.5 103t-56 180.5t-18.5 275.5z" />
<glyph unicode="&#xe15;" horiz-adv-x="980" d="M74 539q0 227 2 262q11 259 106 343q55 48 137 48q63 0 111 -33.5t68 -91.5q43 125 190 125q56 0 95 -17.5t61.5 -45t35 -74.5t16 -92.5t3.5 -112.5v-850h-188v864v13v34t-2 32.5t-6.5 32t-12 24t-20.5 18.5t-31 6q-22 0 -38 -11t-24 -26t-12.5 -40t-5 -42.5t-0.5 -44.5 h-123q0 62 -21 113t-61 51q-33 0 -53 -30.5t-28 -106.5t-9.5 -135t-1.5 -182v-31q0 -76 4 -131.5t12.5 -100t23 -72t36.5 -48.5t51 -27.5t67.5 -10.5t86.5 3v-152q-93 -8 -167.5 -3.5t-131 35t-94.5 91t-57 163.5t-19 253z" />
<glyph unicode="&#xe16;" horiz-adv-x="958" d="M72 745v76q0 164 106.5 269.5t282.5 105.5q211 0 313.5 -113t102.5 -376v-707h-189v717q0 183 -53.5 254t-173.5 71q-207 0 -215 -217l233 -51v-86q-92 -32 -143 -99.5t-51 -166.5v-66q0 -47 2.5 -74.5t13 -58.5t30.5 -46t57 -23t91 -2v-152q-104 -11 -180 7.5t-119.5 63 t-63.5 104.5t-20 138v88q0 111 57.5 189.5t161.5 101.5z" />
<glyph unicode="&#xe17;" horiz-adv-x="917" d="M82 0v1188h156l20 -152q121 160 313 160q123 0 194 -72t71 -211v-913h-189v903q0 133 -143 133q-153 0 -234 -137v-899h-188z" />
<glyph unicode="&#xe18;" horiz-adv-x="911" d="M82 412v141h188v-121q0 -66 2.5 -104t13 -78.5t30.5 -60.5t56 -33t89 -13q38 0 67 6.5t49.5 17t34 31t21.5 40.5t12 54t5 63.5t1 76.5v21q0 161 -172 198l-397 84v47q0 123 29 206.5t87 128t128.5 62t169.5 17.5q90 0 187 -18t148 -48l-51 -129q-135 43 -262 43 q-36 0 -57.5 -1t-49.5 -5t-44.5 -12t-35 -22.5t-29.5 -35.5t-19 -52t-11 -72l258 -56q95 -20 157.5 -52.5t95.5 -79.5t45 -99t12 -125v-20q0 -107 -17 -181t-58.5 -130t-116.5 -82.5t-187 -26.5t-187 26.5t-116.5 82.5t-58.5 130t-17 181z" />
<glyph unicode="&#xe19;" horiz-adv-x="917" d="M82 274v914h188v-903q0 -133 144 -133q152 0 233 137v899h189v-1188h-156l-21 152q-121 -160 -313 -160q-123 0 -193.5 71.5t-70.5 210.5z" />
<glyph unicode="&#xe1a;" horiz-adv-x="933" d="M82 453v735h188v-715q0 -68 3 -112.5t14.5 -89.5t32.5 -70.5t57.5 -41.5t89.5 -16t89.5 16t57.5 41.5t32.5 70.5t14.5 89.5t3 112.5v715h188v-735q0 -122 -17.5 -204.5t-61 -142.5t-118.5 -87t-188 -27t-188 27t-118.5 87t-61 142.5t-17.5 204.5z" />
<glyph unicode="&#xe1b;" horiz-adv-x="954" d="M82 453v735h188v-715q0 -66 4 -112t17 -90t35.5 -70.5t60 -42t90.5 -15.5t90.5 15.5t60 42t35.5 70.5t17 90t4 112v1063h188v-1083q0 -243 -87 -352t-308 -109t-308 109t-87 352z" />
<glyph unicode="&#xe1c;" horiz-adv-x="968" d="M82 0v874q0 78 20 138t63.5 105t119.5 63.5t180 7.5v-152q-67 7 -108 -4t-59 -43.5t-23 -66t-5 -91.5v-542l174 428h80l174 -428v899h189v-1188h-185l-217 508l-219 -508h-184z" />
<glyph unicode="&#xe1d;" horiz-adv-x="968" d="M82 0v874q0 78 20 138t63.5 105t119.5 63.5t180 7.5v-152q-67 7 -108 -4t-59 -43.5t-23 -66t-5 -91.5v-542l174 428h80l174 -428v1247h189v-1536h-185l-217 508l-219 -508h-184z" />
<glyph unicode="&#xe1e;" horiz-adv-x="1126" d="M41 1188h184l92 -881l185 737h123l184 -737l92 881h184l-147 -1188h-184l-191 743l-190 -743h-185z" />
<glyph unicode="&#xe1f;" horiz-adv-x="1126" d="M41 1188h184l92 -881l185 737h123l184 -737l135 1229h184l-190 -1536h-184l-191 743l-190 -743h-185z" />
<glyph unicode="&#xe20;" horiz-adv-x="985" d="M31 0v152q27 -3 48 -3t36.5 4t26 11t17 17.5t10.5 24t5.5 30t1.5 35.5v41v24v65q0 60 6.5 103.5t23.5 84t51 66.5t85 37l-244 53v76q0 164 106.5 269.5t282.5 105.5q211 0 313.5 -113t102.5 -376v-707h-188v717q0 183 -54 254t-174 71q-207 0 -215 -217l234 -51v-86 q-84 -29 -112.5 -91.5t-28.5 -174.5v-129q0 -35 -2 -63.5t-7 -57.5t-13.5 -50.5t-22 -43t-32 -34.5t-43.5 -26t-56.5 -16.5t-70.5 -6t-87 4.5z" />
<glyph unicode="&#xe21;" horiz-adv-x="917" d="M82 0v1188h188v-899q81 -137 234 -137q143 0 143 133v903h189v-914q0 -139 -71 -210.5t-194 -71.5q-192 0 -313 160l-20 -152h-156z" />
<glyph unicode="&#xe22;" horiz-adv-x="923" d="M72 313v56q0 105 50 181t154 99q-101 24 -152.5 100.5t-51.5 176.5q0 122 79 195t236 73q45 0 98 -6v-152q-69 7 -113 0.5t-68.5 -29.5t-34 -46t-9.5 -48q0 -90 60 -141t165 -51v-135q-225 0 -225 -207v-51q0 -80 45 -132.5t152 -52.5q115 0 155.5 57t40.5 191v797h189 v-817q0 -194 -89 -286.5t-296 -92.5q-99 0 -175 26.5t-121 72.5t-67 102t-22 120z" />
<glyph unicode="&#xe23;" horiz-adv-x="774" d="M41 63l51 119q34 -14 103 -25.5t133 -11.5q213 0 213 158q0 29 -6 52t-25.5 56.5t-67 69.5t-120.5 72q-275 137 -275 332q0 164 88 237.5t279 73.5q95 0 181.5 -21t123.5 -49l-49 -120q-36 15 -105 26.5t-133 11.5q-196 0 -196 -135q0 -21 2.5 -36.5t15 -41.5t35 -49.5 t66.5 -55.5t106 -64q132 -68 200 -150t68 -201q0 -163 -95.5 -241t-287.5 -78q-96 0 -182 21t-123 50z" />
<glyph unicode="&#xe24;" horiz-adv-x="958" d="M72 745v76q0 164 106.5 269.5t282.5 105.5q211 0 313.5 -113t102.5 -376v-1117h-189v1127q0 183 -53.5 254t-173.5 71q-207 0 -215 -217l233 -51v-86q-92 -32 -143 -99.5t-51 -166.5v-66q0 -47 2.5 -74.5t13 -58.5t30.5 -46t57 -23t91 -2v-152q-104 -11 -180 7.5 t-119.5 63t-63.5 104.5t-20 138v88q0 111 57.5 189.5t161.5 101.5z" />
<glyph unicode="&#xe25;" horiz-adv-x="909" d="M51 324q0 157 88 241.5t293 124.5l205 39v41q0 108 -25 168t-71 82t-125 22q-136 0 -271 -43l-53 129q53 30 153.5 49t194.5 19q190 0 288.5 -98.5t98.5 -327.5v-770h-190v573l-154 -28q-142 -28 -191.5 -72t-49.5 -145q0 -44 7 -75.5t24.5 -59t53.5 -42t89 -14.5 q36 0 80 6v-137q-66 -14 -129 -14q-159 0 -237.5 85t-78.5 247z" />
<glyph unicode="&#xe26;" horiz-adv-x="985" d="M31 0v152q27 -3 48 -3t36.5 4t26 11t17 17.5t10.5 24t5.5 30t1.5 35.5v41v24v65q0 60 6.5 103.5t23.5 84t51 66.5t85 37l-244 53v76q0 164 106.5 269.5t282.5 105.5q211 0 313.5 -113t102.5 -376v-1117h-188v1127q0 183 -54 254t-174 71q-207 0 -215 -217l234 -51v-86 q-84 -29 -112.5 -91.5t-28.5 -174.5v-129q0 -35 -2 -63.5t-7 -57.5t-13.5 -50.5t-22 -43t-32 -34.5t-43.5 -26t-56.5 -16.5t-70.5 -6t-87 4.5z" />
<glyph unicode="&#xe27;" horiz-adv-x="784" d="M41 63l51 119q88 -37 195 -37q127 0 191.5 91t64.5 309v98q0 112 -17 190t-51 123.5t-80 65.5t-108 20q-51 0 -106 -11t-89 -27l-51 120q37 29 111.5 50.5t152.5 21.5q202 0 315 -132t113 -421v-98q0 -289 -113 -421t-315 -132q-79 0 -153 21t-111 50z" />
<glyph unicode="&#xe28;" horiz-adv-x="991" d="M82 0v696q0 114 16 197t44.5 137t77.5 89t104.5 53t136.5 30l532 80v-135l-286 -45q99 -41 145.5 -133.5t46.5 -272.5v-696h-188v696q0 139 -23 214.5t-68.5 103.5t-127.5 28t-128 -28t-70 -104t-24 -214v-217q61 144 215 144h82v-152h-82q-84 0 -149.5 -55.5 t-65.5 -126.5v-289h-188z" />
<glyph unicode="&#xe29;" horiz-adv-x="954" d="M82 453v735h188v-715q0 -68 3 -112.5t14.5 -89.5t32.5 -70.5t57.5 -41.5t89.5 -16t89.5 16t57.5 41.5t32.5 70.5t14.5 89.5t3 112.5v35h-7q-73 0 -125.5 14t-81 39t-44.5 59t-17 73.5t2 82.5h164q-8 -80 11.5 -104.5t92.5 -24.5h5v541h188v-541h104v-139h-104v-55 q0 -122 -17.5 -204.5t-61 -142.5t-118.5 -87t-188 -27t-188 27t-118.5 87t-61 142.5t-17.5 204.5z" />
<glyph unicode="&#xe2a;" horiz-adv-x="919" d="M51 324q0 157 88 241.5t293 124.5l205 39q0 72 -9.5 124t-34.5 96.5t-73.5 67.5t-120.5 23q-68 0 -138 -15t-116 -38l-53 129q114 58 311 88l523 78v-135l-283 -41q184 -99 184 -428v-678h-190v573l-154 -28q-142 -28 -191.5 -72t-49.5 -145q0 -44 7 -75.5t24.5 -59 t53.5 -42t89 -14.5q36 0 80 6v-137q-66 -14 -129 -14q-159 0 -237.5 85t-78.5 247z" />
<glyph unicode="&#xe2b;" horiz-adv-x="929" d="M82 0v1188h188v-479l101 10q58 6 99.5 16t71.5 28t48 38t31 54t19.5 67t12.5 86l21 174h190l-20 -174q-7 -61 -16.5 -105t-26 -85.5t-39.5 -69.5t-58.5 -49t-82.5 -33q106 -15 154 -83t63 -214l41 -369h-191l-41 381q-13 118 -62.5 161.5t-135.5 32.5l-179 -18v-557h-188 z" />
<glyph unicode="&#xe2c;" horiz-adv-x="1116" d="M41 1188h184l92 -881l185 737h123l184 -737l49 461q6 65 7.5 105t-8 64.5t-24.5 36t-42 19.5v123q19 5 33.5 9.5t32.5 12t30.5 16t26.5 20.5t23 26.5t17 34t11.5 42.5t3.5 52.5t-4 63.5h163q27 -125 -21.5 -215.5t-166.5 -120.5q76 -36 93 -90t1 -183l-96 -784h-184 l-191 743l-190 -743h-185z" />
<glyph unicode="&#xe2d;" horiz-adv-x="907" d="M72 432q0 147 26 270h322v-151h-166q-4 -37 -4 -109q0 -160 49 -230.5t156 -70.5q48 0 80.5 14t58.5 50t38.5 102.5t12.5 167.5v205q0 111 -16.5 184t-50.5 112t-76.5 53.5t-104.5 14.5q-127 0 -262 -43l-51 129q50 30 147.5 48t188.5 18q97 0 169.5 -24t130 -81t87 -160 t29.5 -251v-205q0 -99 -13 -175.5t-38.5 -129t-57.5 -88t-76.5 -55t-90 -27.5t-101.5 -8q-94 0 -163 22t-120.5 72t-77.5 136.5t-26 209.5z" />
<glyph unicode="&#xe2e;" horiz-adv-x="917" d="M72 432q0 147 26 270h322v-151h-166q-4 -37 -4 -109q0 -160 49 -230.5t156 -70.5q48 0 80.5 14t58.5 50t38.5 102.5t12.5 167.5v205q0 111 -16.5 184t-50.5 112t-76.5 53.5t-104.5 14.5q-108 0 -262 -49l-51 129q117 55 289 78l569 80v-135l-297 -43q61 -31 101.5 -79 t65 -134.5t24.5 -210.5v-205q0 -99 -13 -175.5t-38.5 -129t-57.5 -88t-76.5 -55t-90 -27.5t-101.5 -8q-94 0 -163 22t-120.5 72t-77.5 136.5t-26 209.5z" />
<glyph unicode="&#xe2f;" horiz-adv-x="851" d="M61 856q0 196 86.5 275.5t296.5 56.5v-152q-27 3 -50 3.5t-41 -2.5t-32 -7t-24.5 -12.5t-18.5 -17t-13 -22t-8 -25.5t-4.5 -30t-2 -33.5t-0.5 -37.5q0 -86 31.5 -137t115.5 -51q68 0 120.5 44t68.5 93v387h184v-1188h-184v647q-68 -143 -240 -143q-76 0 -133 28.5t-89 79 t-47.5 111.5t-15.5 133z" />
<glyph unicode="&#xe30;" horiz-adv-x="606" d="M64 305.5q-1 43.5 2 91.5h180q-8 -89 12.5 -115t101.5 -26h195v-154h-197q-80 0 -137.5 15.5t-89 43t-49 64.5t-18.5 80.5zM64 940.5q-1 43.5 2 91.5h180q-8 -89 12.5 -115t101.5 -26h195v-154h-197q-80 0 -137.5 15.5t-89 43t-49 64.5t-18.5 80.5z" />
<glyph unicode="&#xe31;" d="M-666 1659h177q-10 -97 12.5 -126.5t99.5 -29.5h377v-151h-373q-181 0 -245 76t-48 231z" />
<glyph unicode="&#xe32;" horiz-adv-x="753" d="M20 1128q119 68 308 68q172 0 258 -92.5t86 -312.5v-791h-189v791q0 64 -8.5 110t-23 73t-39 42.5t-50.5 20.5t-63 5q-90 0 -225 -43z" />
<glyph unicode="&#xe33;" horiz-adv-x="753" d="M-565 1540q0 93 66 153t159 60q92 0 159.5 -60t67.5 -153q0 -89 -67.5 -148t-159.5 -59q-93 0 -159 59t-66 148zM-420 1540q0 -31 22.5 -53.5t57.5 -22.5t59.5 22.5t24.5 53.5q0 37 -24 58.5t-60 21.5t-58 -21t-22 -59zM20 1128q119 68 308 68q172 0 258 -92.5t86 -312.5 v-791h-189v791q0 64 -8.5 110t-23 73t-39 42.5t-50.5 20.5t-63 5q-90 0 -225 -43z" />
<glyph unicode="&#xe34;" d="M-840 1352v151h758v-151h-758z" />
<glyph unicode="&#xe35;" d="M-840 1352v151h578v156h180v-307h-758z" />
<glyph unicode="&#xe36;" d="M-840 1352v151h428q0 83 46 129.5t124 46.5q77 0 123.5 -45t46.5 -118q0 -74 -47 -119t-123 -45h-598zM-299 1516q0 -26 15.5 -42t41.5 -16t42 16t16 42t-16 41.5t-42 15.5t-41.5 -15.5t-15.5 -41.5z" />
<glyph unicode="&#xe37;" d="M-840 1352v151h373v156h152v-156h82v156h151v-307h-758z" />
<glyph unicode="&#xe38;" d="M-440 -143h358v-389h-172v245h-186v144z" />
<glyph unicode="&#xe39;" d="M-651 -143h272v-183q0 -45 16 -64.5t50 -19.5t50.5 19.5t16.5 64.5v183h164v-189q0 -58 -18.5 -100.5t-51.5 -66.5t-72.5 -35t-86.5 -11q-97 0 -159 46.5t-62 142.5v69h-119v144z" />
<glyph unicode="&#xe3a;" d="M-342 -274q0 56 38 93.5t93 37.5t92 -37.5t37 -93.5t-37 -94t-92 -38t-93 38t-38 94z" />
<glyph unicode="&#xe3f;" horiz-adv-x="897" d="M82 0v1434h242v245h188v-258q128 -28 198 -116t70 -232q0 -258 -207 -325q130 -15 201.5 -103.5t71.5 -234.5q0 -177 -88 -277.5t-246 -124.5v-254h-188v246h-242zM270 160h109q156 0 219.5 62.5t63.5 189.5q0 126 -63 186.5t-220 60.5h-109v-499zM270 819h95 q64 0 111.5 22t72 59t36 76.5t11.5 82.5q0 106 -62.5 160.5t-171.5 54.5h-92v-455z" />
<glyph unicode="&#xe40;" horiz-adv-x="495" d="M102 313v875h189v-840q0 -47 2.5 -74.5t13 -59t30.5 -46.5t57 -23t91 -2v-143q-104 -11 -180 7.5t-119.5 63t-63.5 104.5t-20 138z" />
<glyph unicode="&#xe41;" horiz-adv-x="925" d="M102 313v875h189v-840q0 -47 2.5 -74.5t13 -59t30.5 -46.5t57 -23t91 -2v-143q-104 -11 -180 7.5t-119.5 63t-63.5 104.5t-20 138zM532 313v875h189v-840q0 -47 2.5 -74.5t13 -59t30.5 -46.5t57 -23t91 -2v-143q-104 -11 -180 7.5t-119.5 63t-63.5 104.5t-20 138z" />
<glyph unicode="&#xe42;" horiz-adv-x="598" d="M-27 1362v27q0 80 15 135t51 96t99.5 60.5t158.5 19.5h301v-152h-295q-80 0 -113.5 -25t-33.5 -73v-12q129 -27 183 -97.5t54 -222.5v-770q0 -58 5 -91.5t23 -66t59 -43.5t108 -4v-143q-104 -11 -180 7.5t-119.5 63t-63.5 104.5t-20 138v826q0 54 -9 88.5t-34.5 62 t-70.5 44t-118 28.5z" />
<glyph unicode="&#xe43;" horiz-adv-x="598" d="M-18 1585q4 5 12 12.5t36 27.5t60 35t84.5 27.5t108.5 12.5q140 0 215 -65.5t75 -192.5q0 -58 -18.5 -108.5t-45 -86.5t-53 -70t-45 -76t-18.5 -89v-664q0 -58 5 -91.5t23 -66t59 -43.5t108 -4v-143q-104 -11 -180 7.5t-119.5 63t-63.5 104.5t-20 138v736q0 41 19.5 81.5 t47.5 75t56 69.5t47.5 79t19.5 90q0 47 -26.5 76.5t-100.5 29.5q-62 0 -118.5 -22t-82.5 -44l-26 -22z" />
<glyph unicode="&#xe44;" horiz-adv-x="598" d="M20 1548v152h584v-115q-83 -62 -109 -89q-91 -93 -101 -255q-1 -21 -1 -43v-850q0 -58 5 -91.5t23 -66t59 -43.5t108 -4v-143q-104 -11 -180 7.5t-119.5 63t-63.5 104.5t-20 138v885q0 126 52.5 218t137.5 132h-375z" />
<glyph unicode="&#xe45;" horiz-adv-x="753" d="M20 1128q119 68 308 68q172 0 258 -92.5t86 -312.5v-1201h-189v1201q0 64 -8.5 110t-23 73t-39 42.5t-50.5 20.5t-63 5q-90 0 -225 -43z" />
<glyph unicode="&#xe46;" horiz-adv-x="927" d="M61 698q0 37 0.5 61t5.5 66.5t13.5 71t26 63t42 55.5t62.5 35.5t86 14.5q66 0 115 -34t53 -91q22 63 62.5 94t117.5 31q40 0 71 -9t52 -23.5t36 -40.5t23 -51t12.5 -64.5t5.5 -72t1 -81.5v-928h-184v942v26t-0.5 26.5t-2.5 28t-4.5 24.5t-7 23.5t-11 17t-16 12.5t-20.5 4 q-70 0 -70 -166h-122q0 40 -6 75.5t-24 64t-46 28.5q-21 0 -36.5 -6.5t-24.5 -18.5t-15 -28.5t-7.5 -36t-2.5 -41.5t0 -45v-27q0 -109 46 -148t173 -24v-141q-91 -12 -166 -1t-127.5 44.5t-81.5 101.5t-29 168z" />
<glyph unicode="&#xe47;" d="M-788 1571q0 225 268 225h397v-135h-391q-115 0 -115 -88q0 -41 19 -63.5t53 -22.5q40 0 59 23t19 77h137q0 -62 28.5 -85t75.5 -23q34 0 74 8v-135q-38 -6 -76 -4.5t-70.5 10t-59 34t-40.5 66.5q-43 -106 -157 -106q-96 0 -158.5 52t-62.5 167z" />
<glyph unicode="&#xe48;" d="M-266 1352v409h180v-409h-180z" />
<glyph unicode="&#xe49;" d="M-674 1733q72 28 160 28q180 0 180 -137q0 -106 -125 -160q128 39 234 39h184v-151h-602v75q50 19 82 50.5t41.5 56.5t9.5 49q0 57 -68 57q-34 0 -69 -14z" />
<glyph unicode="&#xe4a;" d="M-848 1526q0 209 154 209q106 0 145 -86q34 86 135 86q81 0 113.5 -53.5t32.5 -161.5v-39q0 -22 4 -32.5t20 -10.5q4 0 7 0.5t5 2.5l3.5 3.5t2.5 5t2 6.5t1.5 8t0.5 8t0.5 9t0.5 10l20 254h144l-21 -254q-7 -89 -47 -124.5t-121 -35.5q-82 0 -122 35.5t-40 124.5v27 q0 45 -8.5 64.5t-36.5 19.5q-30 0 -36.5 -19.5t-6.5 -69.5v-14h-114q0 30 -0.5 43.5t-4.5 30.5t-12.5 23t-23.5 6q-28 0 -37.5 -19t-9.5 -59q0 -24 5 -40.5t11 -24.5t20 -11.5t23.5 -3.5t31 1t32.5 1v-111q-59 -6 -108.5 0t-86.5 23t-57.5 59t-20.5 109z" />
<glyph unicode="&#xe4b;" d="M-635 1503v127h193v152h168v-152h192v-127h-192v-151h-168v151h-193z" />
<glyph unicode="&#xe4c;" d="M-543 1352q-16 155 48 231t245 76h209v-152h-213q-77 0 -100 -29t-13 -126h-176z" />
<glyph unicode="&#xe4d;" d="M-565 1540q0 93 66 153t159 60q92 0 159.5 -60t67.5 -153q0 -89 -67.5 -148t-159.5 -59q-93 0 -159 59t-66 148zM-420 1540q0 -31 22.5 -53.5t57.5 -22.5t59.5 22.5t24.5 53.5q0 37 -24 58.5t-60 21.5t-58 -21t-22 -59z" />
<glyph unicode="&#xe4e;" />
<glyph unicode="&#xe4f;" horiz-adv-x="978" d="M61 649q0 178 125 304t303 126q177 0 303 -126.5t126 -303.5q0 -178 -126 -303t-303 -125q-117 0 -215.5 57t-155.5 155.5t-57 215.5zM141 649q0 -143 102.5 -245.5t245.5 -102.5q141 0 240.5 102.5t99.5 245.5q0 141 -99.5 240.5t-240.5 99.5q-143 0 -245.5 -99.5 t-102.5 -240.5zM231 649q0 108 75.5 182t182.5 74q105 0 179.5 -74t74.5 -182q0 -106 -75 -182t-179 -76q-106 0 -182 76t-76 182zM307 649q0 -75 53.5 -128.5t128.5 -53.5q77 0 127 53t50 129q0 77 -49.5 126.5t-127.5 49.5q-76 0 -129 -50t-53 -126z" />
<glyph unicode="&#xe50;" horiz-adv-x="870" d="M57 510v43q0 140 29.5 243t82.5 162t119 87t146 28q64 0 118.5 -17t103 -55.5t83 -97.5t54.5 -148.5t20 -201.5v-43q0 -112 -20 -200.5t-54.5 -147.5t-83 -97.5t-103 -55.5t-118.5 -17q-80 0 -146 28t-119 87t-82.5 161.5t-29.5 241.5zM238 510q0 -194 49.5 -284.5 t146.5 -90.5q199 0 199 375v43q0 375 -199 375q-97 0 -146.5 -90.5t-49.5 -284.5v-43z" />
<glyph unicode="&#xe51;" horiz-adv-x="870" d="M57 643q0 107 30 191t82 135.5t119.5 77.5t145.5 26q64 0 118.5 -17t103 -55.5t83 -97.5t54.5 -148.5t20 -201.5v-125q0 -94 -16.5 -173t-55.5 -148t-98 -114t-150 -67t-206 -12l16 145q81 -8 142.5 12t96.5 56t56 90t28 103.5t7 107.5v125q0 375 -199 375 q-94 0 -145 -76t-51 -207q0 -223 153 -223q12 0 60 6v-145q-50 -13 -86 -13q-42 0 -82 9.5t-82 35t-73 66t-51 108t-20 154.5z" />
<glyph unicode="&#xe52;" horiz-adv-x="1007" d="M82 453v981h180v-981q0 -157 55.5 -233.5t186.5 -76.5q132 0 189 77t57 233v305q0 31 -1 52t-4.5 46t-12 38t-21.5 13q-15 0 -24.5 -14.5t-13 -44t-4.5 -50t-1 -57.5h-107q0 24 -0.5 37.5t-1.5 36.5t-4 37t-8 28.5t-13.5 21.5t-19.5 7q-27 0 -34 -36t-7 -125 q0 -96 16 -129t68 -33q14 0 76 8v-125q-59 -12 -105 -12q-112 0 -167.5 71t-55.5 220q0 40 0.5 59t3.5 60t9.5 63.5t19.5 53.5t31.5 47.5t48 29t67.5 12.5q44 0 79 -22t50 -60q32 82 134 82q48 0 81.5 -17.5t52 -45t29 -75t13 -92t2.5 -112.5v-278q0 -231 -108 -346 t-314 -115q-205 0 -313.5 115t-108.5 346z" />
<glyph unicode="&#xe53;" horiz-adv-x="952" d="M72 375v356q0 79 9.5 137.5t33 106.5t66 73t104.5 25q133 0 186 -125q27 64 68 94.5t118 30.5q62 0 104.5 -25t66 -73t33 -106.5t9.5 -137.5v-731h-184v745q0 35 -1.5 54.5t-7 48.5t-20.5 43t-39 14q-26 0 -42 -12.5t-22.5 -39.5t-7.5 -45.5t-1 -54.5v-6.5v-5.5v-188 h-148v188q0 33 -2 56.5t-8.5 51t-22.5 42t-40 14.5t-39 -14t-20.5 -43t-7 -48.5t-1.5 -54.5v-327q0 -77 8.5 -125.5t32 -85.5t67 -49.5t111.5 -5.5v-152q-205 -22 -304 81t-99 294z" />
<glyph unicode="&#xe54;" horiz-adv-x="849" d="M72 274v330q0 99 9 168.5t32 128t64 93t105 53t154 18.5h60q95 0 129 47.5t20 157.5h164q8 -51 5 -92.5t-7.5 -75t-19 -59.5t-29.5 -45.5t-38.5 -33.5t-47 -23t-53.5 -14t-59 -7t-64 -2h-60q-30 0 -53.5 -5.5t-41.5 -13t-31.5 -24t-22.5 -30t-15 -40.5t-9 -44.5t-5 -54 t-2 -57.5v-65v-301q0 -133 143 -133q83 0 129 40q-12 59 -12 142v284h283v-143h-119v-141q0 -112 28 -148.5t121 -36.5v-147q-106 0 -167.5 17.5t-96.5 74.5q-97 -100 -233 -100q-123 0 -191.5 71t-68.5 211z" />
<glyph unicode="&#xe55;" horiz-adv-x="849" d="M72 274v330q0 180 33.5 280.5t123.5 143.5q-36 45 -36 102q0 77 52.5 126t127.5 49q76 0 130 -49.5t54 -125.5q0 -34 -12 -61q65 10 88.5 58t11.5 143h164q8 -51 5 -92.5t-7.5 -75t-19 -59.5t-29.5 -45.5t-38.5 -33.5t-47 -23t-53.5 -14t-59 -7t-64 -2h-60 q-30 0 -53.5 -5.5t-41.5 -13t-31.5 -24t-22.5 -30t-15 -40.5t-9 -44.5t-5 -54t-2 -57.5v-65v-301q0 -133 143 -133q83 0 129 40q-12 59 -12 142v284h283v-143h-119v-141q0 -112 28 -148.5t121 -36.5v-147q-106 0 -167.5 17.5t-96.5 74.5q-97 -100 -233 -100 q-123 0 -191.5 71t-68.5 211zM309 1130q0 -26 17.5 -43.5t46.5 -17.5t48 18t19 43q0 31 -18.5 48.5t-48.5 17.5t-47 -17t-17 -49z" />
<glyph unicode="&#xe56;" horiz-adv-x="899" d="M41 1331h184l47 -354q70 96 234 96q69 0 121.5 -16t87 -48.5t57.5 -72.5t34.5 -98t16 -114.5t4.5 -131.5v-141q0 -112 -20 -195t-53.5 -133t-83.5 -80t-102 -40.5t-119 -10.5q-80 0 -146 19t-119 59t-82.5 109t-29.5 161q0 81 17.5 143.5t44.5 99.5t65 60t74.5 31t76.5 8 t74 -6v-146q-23 2 -47 3t-46.5 -10.5t-40 -31.5t-28 -59t-10.5 -94q0 -98 50.5 -149.5t146.5 -51.5q51 0 85 12t61 45.5t39.5 96.5t12.5 160v141v52t-1.5 51t-4.5 52.5t-9 46.5t-15 44.5t-23 35.5t-32 30t-42.5 17t-54.5 7q-72 0 -123 -36t-74 -95h-135z" />
<glyph unicode="&#xe57;" horiz-adv-x="1284" d="M72 375v356q0 79 9.5 137.5t33 106.5t66 73t104.5 25q133 0 186 -125q27 64 68 94.5t118 30.5q62 0 104.5 -25t66 -73t33 -106.5t9.5 -137.5v-491q0 -56 18.5 -78.5t55.5 -22.5q40 0 57 22t17 79v1194h184v-1172q0 -154 -66.5 -216t-191.5 -62q-58 0 -102.5 13t-81 43.5 t-55.5 86t-19 135.5v483q0 35 -1.5 54.5t-7 48.5t-20.5 43t-39 14q-26 0 -42 -12.5t-22.5 -39.5t-7.5 -45.5t-1 -54.5v-6.5v-5.5v-188h-148v188q0 33 -2 56.5t-8.5 51t-22.5 42t-40 14.5t-39 -14t-20.5 -43t-7 -48.5t-1.5 -54.5v-327q0 -77 8.5 -125.5t32 -85.5t67 -49.5 t111.5 -5.5v-152q-205 -22 -304 81t-99 294z" />
<glyph unicode="&#xe58;" horiz-adv-x="892" d="M72 334v270q0 99 9 168.5t32 128t64 93t105 53t154 18.5h80q95 0 129.5 48t20.5 157h163q8 -51 5 -92.5t-7.5 -75t-19 -59.5t-29.5 -45.5t-38.5 -33.5t-47 -23t-53.5 -14t-59 -7t-64 -2h-80q-30 0 -53.5 -5.5t-41.5 -13t-31.5 -24t-22.5 -30t-15 -40.5t-9 -44.5t-5 -54 t-2 -57.5v-65v-265q0 -35 1.5 -54.5t7 -48t20.5 -42.5t39 -14q13 0 23 3t17 10t12.5 13.5t8.5 19t5 20.5t2.5 24.5t0.5 24v25.5v24v106h135v-106q0 -35 1.5 -56.5t7.5 -50t21.5 -43t39.5 -14.5t39 14t20.5 42.5t7 48t1.5 54.5v74q0 69 -8 106.5t-28 58t-54.5 21t-88.5 -3.5 v142q49 6 91 6q137 0 200.5 -71t63.5 -226v-92q0 -63 -5 -111.5t-18.5 -93.5t-36 -74t-59 -46t-86.5 -17q-70 0 -109.5 31t-66.5 94q-28 -66 -64 -95.5t-112 -29.5q-62 0 -104.5 25t-66 73t-33 106.5t-9.5 137.5z" />
<glyph unicode="&#xe59;" horiz-adv-x="911" d="M72 375v356q0 66 4 112t16.5 92.5t35.5 74.5t62 45.5t95 17.5q72 0 123.5 -34.5t76.5 -94.5q-2 61 30.5 95t96.5 34q106 0 136 -106l40 303h164l-92 -529h-135q-20 164 -109 164q-27 0 -42.5 -16t-18.5 -42t-0.5 -52t10.5 -54l211 -741h-168l-223 780q-21 70 -37 97.5 t-43 27.5q-16 0 -26.5 -8.5t-15 -27t-6 -36.5t-1.5 -47v-368q0 -160 35.5 -220t163.5 -46v-152q-383 -41 -383 375z" />
<glyph unicode="&#xe5a;" horiz-adv-x="1153" d="M61 856q0 196 86.5 275.5t296.5 56.5v-152q-27 3 -50 3.5t-41 -2.5t-32 -7t-24.5 -12.5t-18.5 -17t-13 -22t-8 -25.5t-4.5 -30t-2 -33.5t-0.5 -37.5q0 -86 31.5 -137t115.5 -51q68 0 120.5 44t68.5 93v387h184v-1188h-184v647q-68 -143 -240 -143q-76 0 -133 28.5t-89 79 t-47.5 111.5t-15.5 133zM887 0v1188h184v-1188h-184z" />
<glyph unicode="&#xe5b;" horiz-adv-x="1435" d="M61 606q0 45 4 86.5t14.5 89.5t31.5 87.5t51 72.5t76.5 51.5t105.5 18.5q49 0 87.5 -16t63 -38.5t42 -60.5t26 -69.5t13.5 -79.5t5.5 -75t0.5 -71h-136v31t-1 37.5t-3.5 44t-7 41.5t-12 41t-17.5 32t-25.5 23.5t-33.5 7.5q-125 0 -125 -268q0 -332 172 -332 q72 0 127 58.5t83.5 140.5t46.5 187.5t23 180t5 138.5h160l65 -406l55 326h156q0 -7 -0.5 -28t0 -34t1 -35.5t3.5 -37t7 -33.5t12 -31.5t18 -24t25 -17t34 -5.5h181v-150h-181q-72 0 -123 48t-61 157l-86 -481h-92l-72 449q-31 -265 -122 -406t-261 -141q-79 0 -140.5 32.5 t-97.5 82.5t-59 118t-31 130t-8 128z" />
<glyph unicode="&#x2000;" horiz-adv-x="1109" />
<glyph unicode="&#x2001;" horiz-adv-x="2218" />
<glyph unicode="&#x2002;" horiz-adv-x="1109" />
<glyph unicode="&#x2003;" horiz-adv-x="2218" />
<glyph unicode="&#x2004;" horiz-adv-x="739" />
<glyph unicode="&#x2005;" horiz-adv-x="554" />
<glyph unicode="&#x2006;" horiz-adv-x="369" />
<glyph unicode="&#x2007;" horiz-adv-x="369" />
<glyph unicode="&#x2008;" horiz-adv-x="277" />
<glyph unicode="&#x2009;" horiz-adv-x="443" />
<glyph unicode="&#x200a;" horiz-adv-x="123" />
<glyph unicode="&#x2010;" horiz-adv-x="901" d="M82 610v156h737v-156h-737z" />
<glyph unicode="&#x2011;" horiz-adv-x="901" d="M82 610v156h737v-156h-737z" />
<glyph unicode="&#x2012;" horiz-adv-x="901" d="M82 610v156h737v-156h-737z" />
<glyph unicode="&#x2013;" horiz-adv-x="901" d="M82 610v156h737v-156h-737z" />
<glyph unicode="&#x2014;" horiz-adv-x="1024" d="M82 610v156h860v-156h-860z" />
<glyph unicode="&#x2018;" horiz-adv-x="460" d="M41 942l215 492h164l-174 -492h-205z" />
<glyph unicode="&#x2019;" horiz-adv-x="460" d="M41 942l174 492h205l-215 -492h-164z" />
<glyph unicode="&#x201a;" horiz-adv-x="339" d="M-20 -225l118 471h211l-176 -471h-153z" />
<glyph unicode="&#x201c;" horiz-adv-x="778" d="M41 942l215 492h164l-174 -492h-205zM358 942l215 492h164l-174 -492h-205z" />
<glyph unicode="&#x201d;" horiz-adv-x="778" d="M41 942l174 492h205l-215 -492h-164zM358 942l174 492h205l-215 -492h-164z" />
<glyph unicode="&#x201e;" horiz-adv-x="657" d="M-20 -225l118 471h211l-176 -471h-153zM297 -225l119 471h211l-176 -471h-154z" />
<glyph unicode="&#x2020;" horiz-adv-x="843" d="M61 883v159h267v392h188v-392h266v-159h-266v-883h-188v883h-267z" />
<glyph unicode="&#x2021;" horiz-adv-x="843" d="M61 391v164h267v328h-267v159h267v392h188v-392h266v-159h-266v-328h266v-164h-266v-391h-188v391h-267z" />
<glyph unicode="&#x2022;" horiz-adv-x="628" d="M61 649q0 105 76 178.5t180 73.5q103 0 176.5 -73.5t73.5 -178.5q0 -101 -74 -176.5t-176 -75.5q-103 0 -179.5 74t-76.5 178z" />
<glyph unicode="&#x2026;" horiz-adv-x="1054" d="M41 127q0 53 37.5 90t89.5 37q53 0 91 -37t38 -90q0 -52 -38 -89.5t-91 -37.5q-52 0 -89.5 37t-37.5 90zM399 127q0 53 37.5 90t89.5 37q53 0 91 -37t38 -90q0 -52 -38 -89.5t-91 -37.5q-52 0 -89.5 37t-37.5 90zM758 127q0 53 37 90t90 37t91 -37t38 -90 q0 -52 -38 -89.5t-91 -37.5t-90 37t-37 90z" />
<glyph unicode="&#x202f;" horiz-adv-x="443" />
<glyph unicode="&#x2030;" horiz-adv-x="1638" d="M41 1104v26q0 162 62 237t163 75t164.5 -75.5t63.5 -236.5v-26q0 -161 -63.5 -236t-164.5 -75t-163 74.5t-62 236.5zM178 1106q0 -170 88 -170q92 0 92 170v22q0 168 -92 168q-88 0 -88 -168v-22zM233 0l486 1434h174l-485 -1434h-175zM633 303v27q0 162 62 236.5 t163 74.5t164 -75t63 -236v-27q0 -161 -63 -236t-164 -75t-163 74.5t-62 236.5zM770 305q0 -170 88 -170q92 0 92 170v23q0 168 -92 168q-88 0 -88 -168v-23zM1145 303v27q0 162 62 236.5t163 74.5t164 -75t63 -236v-27q0 -161 -63 -236t-164 -75t-163 74.5t-62 236.5z M1282 305q0 -170 88 -170q92 0 92 170v23q0 168 -92 168q-88 0 -88 -168v-23z" />
<glyph unicode="&#x2039;" horiz-adv-x="778" d="M82 573v68l614 533v-216l-409 -352l409 -350v-215z" />
<glyph unicode="&#x203a;" horiz-adv-x="778" d="M82 41v215l410 350l-410 352v216l614 -533v-68z" />
<glyph unicode="&#x2044;" horiz-adv-x="587" d="M20 0l363 1434h184l-362 -1434h-185z" />
<glyph unicode="&#x205f;" horiz-adv-x="554" />
<glyph unicode="&#x20ac;" horiz-adv-x="966" d="M20 479v156h121q-2 27 -2 82q0 61 2 90h-121v156h138q77 479 473 479q77 0 148 -18t103 -36l33 -18l-45 -143q-109 43 -215 43q-240 0 -295 -307h357v-156h-371q-2 -31 -2 -90q0 -55 2 -82h371v-156h-357q24 -146 93 -230.5t202 -84.5q47 0 101 11t84 21l30 11l45 -144 q-4 -3 -12.5 -7.5t-37 -17t-59.5 -22t-78.5 -17t-96.5 -7.5q-108 0 -192 35.5t-140.5 102t-91 153t-51.5 196.5h-136z" />
<glyph unicode="&#x2122;" horiz-adv-x="1273" d="M20 1307v127h541v-127h-194v-488h-152v488h-195zM645 819v615h164l131 -443l129 443h164v-615h-143v355l-101 -355h-100l-101 355v-355h-143z" />
<glyph unicode="&#x2212;" horiz-adv-x="901" d="M82 610v156h737v-156h-737z" />
<glyph unicode="&#x25cc;" horiz-adv-x="1132" d="M165 642q-3 20 9 34q16 16 39 16q16 0 29 -10q15 -10 16.5 -31.5t-12.5 -34.5q-13 -16 -37 -16q-16 0 -27 8q-14 14 -17 34zM274 396q-2 19 9 32q12 18 34 18q17 0 29 -12q17 -9 18.5 -29.5t-12.5 -33.5q-10 -17 -35 -17q-17 0 -28 8q-13 15 -15 34zM274 893q-2 18 9 33 q12 18 34 18q17 0 29 -12q17 -12 18.5 -32.5t-12.5 -35.5q-8 -16 -28 -16q-24 0 -35 14q-13 13 -15 31zM523 284q-1 20 12 33q13 19 38 19q17 0 25 -8q29 -32 10 -68q-16 -16 -39 -16q-18 0 -28 10q-17 10 -18 30zM523 998q-1 19 12 32q13 19 38 19q16 0 25 -9 q13 -13 16 -33.5t-6 -33.5q-20 -17 -39 -17q-13 0 -28 11q-17 12 -18 31zM772.5 396q-0.5 19 11.5 32q12 18 33 18q16 0 31 -12q15 -9 18 -29t-10 -34q-14 -17 -39 -17q-20 0 -31 8q-13 15 -13.5 34zM772.5 893q-0.5 18 11.5 33q12 18 33 18q16 0 31 -12t18 -32.5t-10 -35.5 q-11 -16 -33 -16q-23 0 -37 14q-13 13 -13.5 31zM876.5 642q-1.5 21 6.5 34q19 16 39 16q15 0 28 -10q14 -11 16.5 -31.5t-10.5 -34.5q-13 -16 -38 -16q-16 0 -27 8q-13 13 -14.5 34z" />
<glyph unicode="&#x25fc;" horiz-adv-x="1064" d="M0 0v1065h1065v-1065h-1065z" />
<glyph horiz-adv-x="899" d="M51 1116q109 51 352 88l523 78v-135l-283 -41q91 -35 136.5 -109.5t45.5 -208.5q0 -187 -71.5 -383t-186.5 -405h-229l-150 504q-7 20 -26 20h-105v152h170q37 0 66 -21.5t39 -56.5l129 -448q180 362 180 616q0 86 -19 143.5t-56 85.5t-78.5 38.5t-100.5 10.5 q-105 0 -285 -57z" />
<glyph horiz-adv-x="1437" d="M72 745v76q0 166 99 270.5t273 104.5q208 0 304 -112t96 -377v-238q0 -156 9 -203q17 -90 88 -113q31 -10 73 -10q30 0 53 4t39 15t27.5 21.5t18.5 31.5t10.5 37t4.5 47t1 51t-0.5 59.5t-0.5 63.5v715h189v-735q0 -73 -3 -125t-11.5 -103t-24.5 -85.5t-41 -64.5 t-61.5 -47t-86 -26.5t-114.5 -9.5q-90 0 -153.5 18.5t-103.5 52.5t-62.5 93t-31 128t-8.5 169v264q0 127 -21 197t-66 99t-124 29q-99 0 -147 -51.5t-51 -165.5l233 -51v-86q-92 -32 -143 -99.5t-51 -166.5v-66q0 -47 2.5 -74.5t13 -58.5t30.5 -46t57 -23t91 -2v-152 q-104 -11 -180 7.5t-119.5 63t-63.5 104.5t-20 138v88q0 111 57.5 189.5t161.5 101.5z" />
<glyph d="M-563 1540q0 93 65 153t158 60t160 -60t67 -153q0 -89 -67 -148t-160 -59q-92 0 -157.5 59t-65.5 148zM-420 1540q0 -31 22.5 -53.5t57.5 -22.5t59.5 22.5t24.5 53.5q0 37 -24 58.5t-60 21.5t-58 -21t-22 -59zM-344 1831v369h180v-369h-180z" />
<glyph d="M-590 2175q64 27 144 27q161 0 161 -123q0 -98 -112 -144q115 35 211 35h166v-137h-543v68q65 25 93 65.5t28 75.5q0 51 -60 51q-28 0 -63 -12zM-563 1540q0 93 65 153t158 60t160 -60t67 -153q0 -89 -67 -148t-160 -59q-92 0 -157.5 59t-65.5 148zM-420 1540 q0 -31 22.5 -53.5t57.5 -22.5t59.5 22.5t24.5 53.5q0 37 -24 58.5t-60 21.5t-58 -21t-22 -59z" />
<glyph d="M-666 1999q0 186 138 186q95 0 131 -76q29 76 121 76q73 0 102 -47.5t29 -144.5v-35q0 -39 22 -39q3 0 5.5 0.5t4.5 1.5t3 3t2 3.5t2 5t1.5 5.5t1 6t0.5 6.5t0.5 7.5t0.5 8l18 229h129l-18 -229q-6 -80 -42 -111.5t-110 -31.5t-109.5 31.5t-35.5 111.5v25q0 40 -7.5 57.5 t-33.5 17.5q-14 0 -22.5 -5t-12 -18.5t-4 -24.5t-0.5 -36v-8h-103v4q0 26 -0.5 38t-4 26t-11 19t-20.5 5q-26 0 -34.5 -17t-8.5 -52q0 -22 4.5 -36.5t10 -22t18.5 -11t20.5 -4t27.5 0.5t29 1v-98q-52 -6 -96.5 -1t-77.5 21t-51.5 54t-18.5 98zM-563 1540q0 93 65 153t158 60 t160 -60t67 -153q0 -89 -67 -148t-160 -59q-92 0 -157.5 59t-65.5 148zM-420 1540q0 -31 22.5 -53.5t57.5 -22.5t59.5 22.5t24.5 53.5q0 37 -24 58.5t-60 21.5t-58 -21t-22 -59z" />
<glyph d="M-563 1540q0 93 65 153t158 60t160 -60t67 -153q0 -89 -67 -148t-160 -59q-92 0 -157.5 59t-65.5 148zM-520 1968v113h174v137h151v-137h175v-113h-175v-137h-151v137h-174zM-420 1540q0 -31 22.5 -53.5t57.5 -22.5t59.5 22.5t24.5 53.5q0 37 -24 58.5t-60 21.5t-58 -21 t-22 -59z" />
<glyph d="M-602 1659h168q-10 -97 12.5 -126.5t99.5 -29.5h240v-151h-227q-181 0 -245 76t-48 231z" />
<glyph d="M-737 1352v151h655v-151h-655z" />
<glyph d="M-737 1352v151h475v156h180v-307h-655z" />
<glyph d="M-737 1352v151h325q0 85 46 130.5t124 45.5q77 0 123.5 -45t46.5 -118q0 -74 -47 -119t-123 -45h-495zM-299 1516q0 -26 15.5 -42t41.5 -16t42 16t16 42t-16 41.5t-42 15.5t-41.5 -15.5t-15.5 -41.5z" />
<glyph d="M-737 1352v151h270v156h152v-156h82v156h151v-307h-655z" />
<glyph d="M-266 1352v409h180v-409h-180z" />
<glyph d="M-633 1733q72 28 160 28q180 0 180 -137q0 -106 -125 -160q128 39 234 39h102v-151h-520v75q50 19 82 50.5t41.5 56.5t9.5 49q0 57 -68 57q-34 0 -69 -14z" />
<glyph d="M-643 1526q0 209 143 209q42 0 79 -22t56 -64q34 86 125 86q73 0 104.5 -54.5t31.5 -160.5v-39q0 -43 22 -43q8 0 13 3t7.5 13t3 15t1.5 22l20 254h143l-20 -254q-7 -89 -47 -124.5t-121 -35.5q-82 0 -122 35.5t-40 124.5v27q0 45 -6.5 64.5t-28.5 19.5q-12 0 -19 -4.5 t-9.5 -19t-3 -23.5t-0.5 -36v-20h-115q0 30 -0.5 43.5t-3.5 30.5t-9.5 23t-17.5 6q-22 0 -29.5 -19.5t-7.5 -58.5q0 -24 5 -40.5t11 -24.5t19 -11.5t22 -3.5t28 1t28 1v-111q-54 -6 -102 0t-83.5 23t-56 59.5t-20.5 108.5z" />
<glyph d="M-573 1503v127h172v152h168v-152h172v-127h-172v-151h-168v151h-172z" />
<glyph d="M-676 1573q0 106 58 164.5t200 58.5h377v-135h-371q-57 0 -80.5 -23.5t-23.5 -70.5q0 -80 61 -80q38 0 53 22t15 78h137q0 -62 26.5 -85t69.5 -23q32 0 72 8v-135q-53 -5 -97.5 -3.5t-82 28.5t-55.5 81q-23 -57 -58 -81.5t-96 -24.5q-91 0 -148 52.5t-57 168.5z" />
<glyph d="M-262 1352v368h180v-368h-180z" />
<glyph d="M-528 1694q63 26 143 26q71 0 116.5 -28.5t45.5 -94.5q0 -97 -113 -143q115 35 211 35h166v-137h-543v67q65 25 93 66t28 76q0 51 -59 51q-27 0 -64 -13z" />
<glyph d="M-727 1507q0 187 137 187q95 0 131 -76q29 76 121 76q73 0 102 -48t29 -145v-35q0 -39 23 -39q4 0 7 1t5 4t3.5 5.5t2 7.5t1 8.5t1 10.5t0.5 11l19 229h129l-19 -229q-6 -80 -42 -112t-109 -32q-74 0 -110 32t-36 112v24q0 40 -7.5 58t-33.5 18q-14 0 -22.5 -5t-12 -18.5 t-4 -24.5t-0.5 -36v-8h-102q0 27 -0.5 39.5t-4 27t-11.5 20t-21 5.5q-26 0 -34.5 -17.5t-8.5 -52.5q0 -22 4.5 -36.5t10 -22t18.5 -10.5t21.5 -3.5t28 0.5t28.5 1v-99q-52 -6 -96.5 -1t-77.5 21t-51.5 54t-18.5 98z" />
<glyph d="M-420 1489v113h174v137h152v-137h174v-113h-174v-137h-152v137h-174z" />
<glyph d="M-311 1475q-8 77 1 129.5t40 92.5t91.5 58.5t153.5 18.5h209v-144h-213q-77 0 -99.5 -29t-12.5 -126h-170z" />
<glyph d="M-453 1352q-14 140 44 208t221 68h188v-137h-193q-70 0 -89.5 -25.5t-10.5 -113.5h-160z" />
</font>
</defs>
</svg>
