<?xml version="1.0" standalone="no"?>
<!DOCTYPE svg PUBLIC "-//W3C//DTD SVG 1.1//EN" "http://www.w3.org/Graphics/SVG/1.1/DTD/svg11.dtd" >
<svg xmlns="http://www.w3.org/2000/svg" xmlns:xlink="http://www.w3.org/1999/xlink" version="1.1">
<metadata></metadata>
<defs>
<font id="fc_flexica_bold_italicBdIt" horiz-adv-x="0" >
<font-face units-per-em="2048" ascent="1638" descent="-410" />
<missing-glyph horiz-adv-x="409" />
<glyph unicode="fi" horiz-adv-x="1218" d="M156 840l41 225h159l2 14q34 189 128 282t262 93q83 0 144.5 -17t84.5 -42l-86 -197q-48 25 -107 25q-56 0 -81 -33t-37 -100l-4 -25h200l-41 -225h-200l-148 -840h-305l147 840h-159zM801 0l188 1065h307l-188 -1065h-307zM1006 1317q14 77 70 122.5t141 45.5t124 -45 t25 -123q-12 -77 -68 -123.5t-141 -46.5t-124 46t-27 124z" />
<glyph unicode="fl" horiz-adv-x="1177" d="M156 840l41 225h159l2 14q34 189 128 282t262 93q83 0 144.5 -17t84.5 -42l-86 -197q-48 25 -107 25q-56 0 -81 -33t-37 -100l-4 -25h200l-41 -225h-200l-148 -840h-305l147 840h-159zM780 0l252 1434h307l-252 -1434h-307z" />
<glyph unicode="&#xe24;&#xe32;" horiz-adv-x="1617" d="M141 326l4 20q35 203 258 285l-223 49l19 115q31 174 176.5 287.5t349.5 113.5q190 0 291 -68q171 68 321 68q84 0 146 -13.5t109.5 -44.5t71.5 -80.5t31 -122t-12 -169.5l-206 -1176h-316l207 1176q10 45 7.5 76.5t-7.5 50.5t-21.5 29.5t-34 14t-44.5 3.5 q-66 0 -135 -16q12 -95 -13 -236l-192 -1098h-316l195 1108q24 135 -7 189.5t-120 54.5q-60 0 -113 -47t-65 -115l192 -43l-18 -106q-94 -29 -143 -87t-64 -153l-2 -8q-14 -80 15.5 -110t127.5 -21l-43 -246q-55 -6 -108 -6q-82 0 -145 18t-108.5 55.5t-63 101.5t-1.5 151z " />
<glyph unicode="&#xe26;&#xe32;" horiz-adv-x="1619" d="M20 6l43 246q17 -3 28.5 -3.5t28 -0.5t28.5 4.5t24.5 13t20.5 24.5t12 38l10 55q11 58 20.5 89.5t30 64t53.5 53.5t87 41l-224 49l19 115q31 174 176.5 287.5t349.5 113.5q190 0 291 -68q171 68 321 68q84 0 146 -13.5t110 -44.5t72 -80.5t31 -122t-12 -169.5l-207 -1176 h-316l207 1176q10 45 7.5 76.5t-7.5 50.5t-21.5 29.5t-34 14t-44.5 3.5q-66 0 -135 -16q12 -95 -13 -236l-192 -1098h-316l195 1108q24 135 -7 189.5t-120 54.5q-60 0 -113 -47t-65 -115l192 -43l-18 -106q-21 -6 -37.5 -13.5t-29.5 -18.5t-22.5 -19t-17 -25t-12 -25 t-9 -30.5t-6.5 -31.5t-6 -38t-6 -39l-12 -63q-17 -98 -48.5 -164t-77.5 -102t-99.5 -51t-124.5 -15q-62 0 -150 10z" />
<glyph unicode="FontcraftLogo" horiz-adv-x="1617" d="M123 -213l39 213h102l-8 -35h-59l-9 -53h50l-9 -33h-47l-18 -92h-41zM129 772q0 138 54 264t145 217t217.5 145t265.5 54q138 0 263.5 -54t216.5 -145t144.5 -217t53.5 -264t-53.5 -264t-144.5 -217t-216.5 -145t-263.5 -54q-139 0 -265.5 54t-217.5 145t-145 217 t-54 264zM250 772q0 -152 75.5 -281t204.5 -203.5t281 -74.5q151 0 280 76t203 205t74 278q0 153 -75.5 282t-203.5 203t-278 74q-114 0 -218 -44.5t-179 -119.5t-119.5 -178.5t-44.5 -216.5zM276 -160l19 107q6 26 24 41.5t43 15.5t38.5 -15.5t9.5 -41.5l-19 -107 q-11 -55 -67 -55t-48 55zM317 -162q0 -18 13 -18q16 0 16 18l23 109q0 20 -13 20q-15 0 -18 -20zM350 772q0 190 134.5 322.5t326.5 132.5q81 0 158.5 -29t138.5 -80l-82 -368q-14 -60 -34 -83.5t-60 -23.5q-36 0 -56 18t-14 56l33 155q2 18 -9.5 33t-39.5 15q-42 0 -51 -41 l-33 -150q-7 -38 -32 -66t-71 -28q-66 0 -47 90l27 133q6 38 -17.5 53t-68.5 15q-86 0 -86 -54q0 -23 11.5 -39t31.5 -16h14l-14 -76q-20 -87 17 -145.5t132 -58.5q98 0 136 79q9 -41 50.5 -60t86.5 -19q146 0 184 168l74 319q74 -122 74 -252q0 -93 -36.5 -178t-97.5 -146 t-144.5 -97t-174.5 -36q-192 0 -326.5 133.5t-134.5 323.5zM430 -213l35 213h47l6 -109v-26h2q0 5 1 11t2.5 13t2.5 11l15 100h43l-37 -213h-43l-12 137l-25 -137h-37zM618 -35l7 35h112l-6 -35h-37l-28 -178h-45l32 178h-35zM748 -160l18 107q6 26 24.5 41.5t43.5 15.5 q23 0 36 -14t9 -39q0 -2 -5 -17l-40 -2q2 6 2 15q3 20 -9 20q-13 0 -16 -20l-23 -109q0 -18 13 -18t18 18l2 15h41l-2 -13q-8 -55 -65 -55q-55 0 -47 55zM895 -213l37 213h57q53 0 43 -59v-7q-8 -32 -33 -43l7 -104h-45v96h-9l-16 -96h-41zM958 -86h11q15 0 20 20l4 11 q0 22 -14 22h-12zM1040 -213l76 213h51l7 -213h-48l2 47h-32l-15 -47h-41zM1110 -127h18l2 61zM1208 -213l39 213h103l-7 -35h-61l-8 -53h49l-6 -33h-49l-19 -92h-41zM1376 -35l6 35h113l-6 -35h-33l-33 -178h-45l33 178h-35z" />
<glyph />
<glyph />
<glyph unicode="&#xd;" horiz-adv-x="512" />
<glyph unicode="&#xa;" horiz-adv-x="614" />
<glyph unicode=" "  horiz-adv-x="409" />
<glyph unicode="&#x09;" horiz-adv-x="409" />
<glyph unicode="&#xa0;" horiz-adv-x="409" />
<glyph unicode="!" horiz-adv-x="499" d="M100 170q12 77 67.5 122.5t141.5 45.5q85 0 124.5 -45t27.5 -123q-14 -78 -70 -124t-141 -46t-124.5 46t-25.5 124zM190 451l150 983h324l-195 -983h-279z" />
<glyph unicode="&#x22;" horiz-adv-x="788" d="M233 901l68 533h303l-125 -533h-246zM621 901l67 533h303l-125 -533h-245z" />
<glyph unicode="#" horiz-adv-x="1202" d="M86 324l45 260h209l86 231h-156l47 260h211l131 359h281l-131 -359h131l133 359h281l-131 -359h141l-47 -260h-197l-86 -231h148l-45 -260h-199l-123 -324h-278l120 324h-135l-119 -324h-282l123 324h-158zM621 584h133l86 231h-131z" />
<glyph unicode="$" horiz-adv-x="970" d="M55 94l117 225q152 -57 289 -57q199 0 223 139q7 43 -3 77t-39 60.5t-55 43t-71 39.5q-27 15 -49.5 28t-48.5 29t-45.5 31.5t-41.5 34t-36.5 37t-30 41t-23 44.5t-15 49t-5 54t5.5 59q32 181 124 276t251 123l45 252h314l-46 -252q128 -22 240 -84l-117 -225 q-170 56 -288 56q-178 0 -199 -115q-6 -38 3 -68.5t37.5 -56.5t54 -42t73.5 -42q36 -20 58.5 -33t54 -33t51 -35.5t43.5 -38.5t37 -44t26.5 -49.5t18.5 -58t5 -66t-7 -76.5q-56 -316 -338 -396l-47 -266h-314l43 244q-167 18 -295 96z" />
<glyph unicode="%" horiz-adv-x="1280" d="M217 1073l6 25q58 342 330 342q269 0 211 -342l-6 -25q-59 -344 -330 -344q-270 0 -211 344zM242 0l786 1434h264l-788 -1434h-262zM447 981q2 -29 20 -29q38 0 61 123l4 25q20 117 -18 117q-18 0 -30 -27.5t-23 -89.5l-4 -25q-12 -65 -10 -94zM770 336l4 24 q62 345 332 345q126 0 183.5 -82.5t25.5 -262.5l-4 -24q-61 -342 -332 -342q-270 0 -209 342zM998 244.5q3 -29.5 22 -29.5q37 0 57 123l4 24q20 117 -16 117q-35 0 -55 -117l-4 -24q-11 -64 -8 -93.5z" />
<glyph unicode="&#x26;" horiz-adv-x="1126" d="M101 206q-12 95 15.5 203t106 215.5t187.5 180.5q-5 16 -21 45q-34 85 -39.5 170t21.5 160.5t80.5 134.5t143.5 93t204 34q72 0 130.5 -14t91 -34t54 -39.5t28.5 -33.5l7 -14l-166 -199q-2 3 -6 8t-19 18.5t-32.5 23.5t-46 18t-60.5 8q-58 0 -88 -25.5t-32 -66t5 -76 t21 -70.5l125 -307q29 119 29 266h278q-2 -159 -40.5 -298t-129.5 -283l150 -324h-338l-47 84q-150 -92 -328 -92q-123 0 -197.5 59.5t-86.5 154.5zM422 413q-51 -133 26 -155q13 -4 31 -4q86 0 142 61l-115 244q-51 -60 -84 -146z" />
<glyph unicode="'" horiz-adv-x="401" d="M233 901l68 533h303l-125 -533h-246z" />
<glyph unicode="(" horiz-adv-x="688" d="M231 682q74 424 365 825h330q-118 -159 -185.5 -271.5t-117.5 -247.5t-80 -306q-22 -123 -26 -230.5t10 -209t39 -191.5t67 -201h-330q-150 399 -72 832z" />
<glyph unicode=")" horiz-adv-x="688" d="M2 -150q164 223 253.5 409t131.5 423q23 129 28 232t-9.5 201.5t-39.5 185t-71 206.5h330q148 -394 73 -825q-78 -436 -366 -832h-330z" />
<glyph unicode="*" horiz-adv-x="817" d="M219 1075l117 221l176 -65l27 203h241l-43 -203l199 65l43 -221l-213 -55l94 -170l-215 -133l-82 170l-141 -170l-172 133l158 170z" />
<glyph unicode="+" horiz-adv-x="1009" d="M168 563l47 256h281l47 268h307l-47 -268h282l-47 -256h-282l-47 -270h-308l48 270h-281z" />
<glyph unicode="," horiz-adv-x="450" d="M-59 -225l200 471h334l-258 -471h-276z" />
<glyph unicode="-" horiz-adv-x="958" d="M168 563l47 256h819l-47 -256h-819z" />
<glyph unicode="." horiz-adv-x="432" d="M61 186q13 76 78 131.5t142 55.5t122.5 -55.5t32.5 -131.5t-78.5 -131t-142.5 -55t-122 55t-32 131z" />
<glyph unicode="/" horiz-adv-x="686" d="M8 0l615 1434h307l-615 -1434h-307z" />
<glyph unicode="0" horiz-adv-x="1103" d="M155 402.5q-1 73.5 6 142t21 149.5l6 43q21 116 48 209t76 189t113 160.5t161.5 105.5t218.5 41q87 0 155 -21t112 -57t73 -89.5t42 -112.5t14.5 -132.5t-6 -143t-21.5 -149.5l-7 -43q-20 -115 -47.5 -208.5t-76.5 -188.5t-113.5 -159.5t-162 -105t-218.5 -40.5 q-87 0 -154.5 21t-111.5 56.5t-72.5 89t-41.5 112t-14 132zM475 481q-1 -33 0.5 -70t10 -62.5t22 -47t36 -32.5t52.5 -11q34 0 63.5 15.5t51.5 38.5t41.5 62.5t32.5 74.5t26 87.5t20 88t17 90.5q8 47 13 78.5t11 78t6.5 78.5t-1 70t-10 63t-21.5 47t-35.5 33t-52.5 11 q-40 0 -73 -19t-57.5 -56t-43.5 -77t-34 -99t-24 -102.5t-20 -105.5q-8 -45 -13.5 -78.5t-11 -78t-6.5 -77.5z" />
<glyph unicode="1" horiz-adv-x="817" d="M231 920l50 280q218 83 397 234h240l-252 -1434h-314l191 1075q-66 -57 -150 -98.5t-162 -56.5z" />
<glyph unicode="2" horiz-adv-x="989" d="M61 0l43 246q18 104 64 189.5t105 142.5t126.5 104.5t133.5 85.5t121.5 75t94.5 83t48 100q9 48 -0.5 79t-36 45t-54 19t-67.5 5q-111 0 -301 -56l-41 225q101 49 221.5 74t229.5 25q213 0 307.5 -97.5t60.5 -287.5q-17 -98 -61.5 -179.5t-103 -137.5t-126 -104 t-133.5 -88.5t-121.5 -80t-95 -89t-49.5 -106.5v-8h537l-48 -264h-854z" />
<glyph unicode="3" horiz-adv-x="1003" d="M66 90l116 225q161 -53 285 -53q101 0 161 38t79 142q4 21 5 41.5t-5.5 49t-22 49.5t-50 36t-85.5 15h-164l45 250h164q53 0 92.5 15t60.5 40t31.5 48t14.5 48q7 42 -3.5 71t-36 42.5t-52.5 18.5t-62 5q-122 0 -305 -53l-35 225q96 48 208 72.5t202 24.5 q236 0 335.5 -90.5t65.5 -280.5q-43 -244 -231 -315q74 -17 118.5 -109t18.5 -239q-37 -208 -187 -310t-389 -102q-89 0 -189.5 24t-184.5 72z" />
<glyph unicode="4" horiz-adv-x="1001" d="M76 264l24 139l693 1031h288l-159 -910h143l-45 -260h-143l-48 -264h-313l47 264h-487zM467 524h162l61 344z" />
<glyph unicode="5" horiz-adv-x="997" d="M74 80l116 235q171 -55 267 -55q210 0 248 201q10 55 0 93.5t-38 59t-63 29t-82 8.5h-301l25 144l139 639h748l-46 -260h-454l-60 -277h15q80 0 143.5 -9t119 -29t91.5 -53t61 -80.5t27 -111t-10 -145.5q-28 -160 -110.5 -268.5t-202.5 -158.5t-275 -50q-209 0 -358 88z " />
<glyph unicode="6" horiz-adv-x="1040" d="M137.5 340.5q-1.5 38.5 5.5 103.5t13 103.5t18 107.5q14 78 22 119.5t26 118t34 121.5t45 110.5t60.5 104.5t77.5 84.5t99.5 70t124 41.5t152.5 17q110 0 209 -26t162 -70l-117 -226q-45 25 -132.5 39.5t-148.5 14.5q-57 0 -103 -22t-74.5 -55t-50.5 -83t-33.5 -94 t-20.5 -99q37 74 113.5 108t144.5 34q88 0 152 -28t98.5 -73t51 -107t16 -125t-12.5 -132l-8 -43q-13 -70 -36 -132t-66.5 -124.5t-101.5 -106.5t-146 -72t-195 -28q-74 0 -132.5 13t-100 32.5t-69.5 56.5t-45 68.5t-23.5 85.5t-8 92.5zM457 475q-20 -110 7 -168.5 t101 -58.5q151 0 193 227q42 230 -111 230q-148 0 -190 -230z" />
<glyph unicode="7" horiz-adv-x="948" d="M182 0l574 1169h-520l45 265h890l-20 -125l-633 -1309h-336z" />
<glyph unicode="8" horiz-adv-x="1069" d="M133 414q10 56 29.5 108t50.5 100.5t77 82.5t101 45q-42 10 -71 41t-41 73t-14.5 92t7.5 97q30 173 167 281t347 108t311.5 -107.5t71.5 -277.5q-19 -107 -80 -197.5t-149 -109.5q51 -11 85.5 -45.5t48 -81.5t16.5 -103t-9 -110q-33 -192 -177 -305t-372 -113t-330.5 113 t-68.5 309zM446 440q-33 -184 132 -184t198 184q4 23 5.5 41t-3 45t-17.5 45t-43.5 31.5t-76.5 13.5t-81 -13.5t-54 -31t-33 -45.5t-18.5 -45t-8.5 -41zM575.5 977.5q-1.5 -24.5 4.5 -38.5t17 -31.5t34 -25.5t55 -8q143 0 170 168q11 63 -19.5 98.5t-97.5 35.5 q-66 0 -106 -35t-51 -99q-3 -21 -4 -30.5t-2.5 -34z" />
<glyph unicode="9" horiz-adv-x="1040" d="M109 88l114 225q46 -25 133 -39t148 -14q57 0 103 22t74.5 55t51 83t34 93t21.5 99q-38 -74 -114 -107.5t-144 -33.5q-88 0 -152 28t-98.5 73t-51 107t-16 125t12.5 132l6 43q13 70 36 132t66.5 124.5t101.5 106.5t146 72t195 28q83 0 147 -14.5t105.5 -45.5t70 -64.5 t39.5 -89t16 -99t-2 -114t-13.5 -116t-20.5 -121.5q-14 -78 -22 -119.5t-25.5 -118t-34 -121t-45.5 -110t-60.5 -104.5t-77.5 -84.5t-99.5 -70t-124 -41.5t-152.5 -17q-110 0 -207.5 26t-160.5 70zM537 958q-42 -229 110 -229q149 0 191 229q19 110 -9 169t-102 59 q-151 0 -190 -228z" />
<glyph unicode=":" horiz-adv-x="514" d="M102 186q14 76 79 131.5t141 55.5q77 0 122.5 -55.5t32.5 -131.5t-78.5 -131t-142.5 -55t-122 55t-32 131zM231 920q13 76 78 131t142 55t122.5 -55t32.5 -131t-78.5 -131.5t-142.5 -55.5t-122 55.5t-32 131.5z" />
<glyph unicode=";" horiz-adv-x="514" d="M-57 -225l200 471h334l-258 -471h-276zM231 920q13 76 78 131t142 55t122.5 -55t32.5 -131t-78.5 -131.5t-142.5 -55.5t-122 55.5t-32 131.5z" />
<glyph unicode="&#x3c;" horiz-adv-x="882" d="M168 559l20 115l848 588l-61 -349l-434 -299l329 -295l-61 -348z" />
<glyph unicode="=" horiz-adv-x="983" d="M168 371l45 256h778l-45 -256h-778zM236 754l45 256h778l-45 -256h-778z" />
<glyph unicode="&#x3e;" horiz-adv-x="882" d="M66 -29l61 348l432 295l-328 299l62 349l639 -588l-21 -115z" />
<glyph unicode="?" horiz-adv-x="921" d="M287 1343q101 49 211 74t202 25q203 0 292.5 -98.5t58.5 -274.5q-10 -56 -32 -103t-50.5 -80.5t-61 -64.5t-65 -63t-61 -67.5t-51.5 -86.5t-34 -112l-6 -41h-315l6 41q14 80 40 147.5t56.5 113t64 83t65.5 65.5t59 52.5t45.5 51.5t23.5 56q10 53 -21 81.5t-93 28.5 q-122 0 -302 -53zM305 170q12 77 67.5 122.5t141.5 45.5q85 0 124.5 -45t27.5 -123q-14 -78 -70 -124t-141 -46t-124.5 46t-25.5 124z" />
<glyph unicode="@" horiz-adv-x="1507" d="M131 323.5q-2 118.5 21 258.5q23 129 67 241t117 211t167.5 169t224 110.5t282.5 40.5q125 0 223 -27t163.5 -76.5t109 -117t61.5 -152t17 -177t-19 -196.5q-7 -42 -16 -81t-26 -89t-37.5 -91.5t-52.5 -83t-70 -70t-90.5 -46.5t-113.5 -18q-33 0 -63.5 5t-63 18t-55.5 41 t-29 67q-62 -121 -221 -121q-62 0 -109 19t-75 52.5t-45 75t-21.5 92t-2.5 98t11 97.5q12 65 29 122.5t49.5 120.5t74 107.5t105.5 73.5t142 29q151 0 168 -98l24 90h191q-88 115 -297 115q-105 0 -192.5 -30.5t-149.5 -81t-109 -122.5t-75 -150t-44 -167q-15 -96 -16 -179 t25 -150t74.5 -114.5t132.5 -73.5t200 -26q101 0 203 6l-41 -225q-102 -6 -203 -6q-167 0 -290.5 35t-198 101t-114.5 160.5t-42 213zM732.5 459q1.5 -33 11 -54t31.5 -36t56 -15q60 0 109 37l68 383q-37 37 -97 37q-24 0 -44 -6t-35.5 -19t-27.5 -25.5t-21.5 -35t-15 -36.5 t-11.5 -41t-8 -38t-7 -37q-5 -33 -7.5 -57t-1 -57zM1194 401q-10 -55 23 -55q56 0 100 262q43 238 -23 367z" />
<glyph unicode="A" horiz-adv-x="1056" d="M8 0l578 1434h385l78 -1434h-340v266h-267l-94 -266h-340zM530 512h177l-2 492z" />
<glyph unicode="B" horiz-adv-x="1005" d="M70 0l252 1434h393q211 0 306 -99q71 -73 70 -198q0 -43 -8 -93q-18 -97 -71 -172.5t-135 -111.5q95 -28 141 -118q31 -61 31 -134q0 -35 -7 -74q-39 -221 -185 -327.5t-382 -106.5h-405zM428 260h68q122 0 171.5 42t65.5 134q4 29 4 54q0 21 -3 39q-7 38 -50 58.5 t-127 20.5h-68zM537 868h55q153 0 180 164q3 19 3 36q0 106 -132 106h-53z" />
<glyph unicode="C" horiz-adv-x="1001" d="M152 487q2 105 24 230t57.5 230t92.5 198t131.5 157.5t178 102t228.5 37.5q96 0 181 -19t122 -38l37 -19l-110 -233q-115 38 -252 38q-63 0 -115 -27t-86 -68.5t-61.5 -104t-43 -121.5t-28.5 -133q-11 -61 -16 -111t-5 -104.5t11.5 -95.5t32.5 -74.5t59.5 -51.5t91.5 -18 q61 0 127 10t101 20l36 9l29 -233q-6 -3 -17.5 -8t-49.5 -18.5t-78 -23.5t-101 -18t-121 -8q-125 0 -215 37.5t-142 102.5q-53 64 -77 157q-23 86 -22 182v16z" />
<glyph unicode="D" horiz-adv-x="1040" d="M70 0l252 1434h288q204 0 325 -47t168 -137t49 -222q0 -5 -1 -11q0 -128 -33 -292q-18 -107 -38 -186t-50.5 -158.5t-69.5 -135t-95.5 -104.5t-128.5 -78.5t-167.5 -46t-214.5 -16.5h-284zM428 260h14q44 0 80 7t65 17.5t53 31t41 40t32.5 54t26 62t21 74.5t17.5 82 t17 93q16 89 22.5 134.5t10.5 108.5q1 15 0 28q0 42 -8 65q-12 30 -36 61.5t-69 43.5t-111 12h-14z" />
<glyph unicode="E" horiz-adv-x="878" d="M70 0l252 1434h759l-45 -260h-446l-53 -306h358l-47 -260h-359l-61 -348h446l-45 -260h-759z" />
<glyph unicode="F" horiz-adv-x="884" d="M70 0l252 1434h765l-45 -260h-452l-58 -328h371l-45 -258h-371l-104 -588h-313z" />
<glyph unicode="G" horiz-adv-x="1081" d="M146 311q-1 21 -1 44q0 37 3 80q6 70 14.5 135.5t23.5 146.5q22 127 54.5 230t87.5 197.5t127 158.5t176.5 101.5t234.5 37.5q95 0 191.5 -19t146.5 -38l49 -19l-112 -236q-176 41 -295 41q-50 0 -91.5 -14.5t-71.5 -36.5t-55.5 -59.5t-41.5 -72t-31.5 -86.5t-23.5 -90.5 t-19 -94.5q-31 -185 -31 -270v-18q6 -159 125 -167h12q73 0 130 39l53 307h-197l45 246h510l-151 -854h-279v145q-23 -36 -41 -57.5t-50 -46.5t-78 -37t-107 -12q-65 0 -115 14.5t-84.5 43t-58 65.5t-34.5 89.5t-15 106.5z" />
<glyph unicode="H" horiz-adv-x="1052" d="M80 0l252 1434h313l-98 -566h266l98 566h314l-252 -1434h-314l107 608h-266l-107 -608h-313z" />
<glyph unicode="I" horiz-adv-x="534" d="M111 0l251 1434h314l-252 -1434h-313z" />
<glyph unicode="J" horiz-adv-x="806" d="M31 68l102 221q42 -19 109 -33t98 -14q105 0 127 114l145 832h-215l43 246h529l-187 -1059q-34 -192 -155 -287.5t-301 -95.5q-68 0 -159 20t-136 56z" />
<glyph unicode="K" horiz-adv-x="1019" d="M70 0l252 1434h313l-252 -1434h-313zM510 717l414 717h327l-424 -717l185 -717h-328z" />
<glyph unicode="L" horiz-adv-x="808" d="M70 0l252 1434h313l-207 -1174h397l-45 -260h-710z" />
<glyph unicode="M" horiz-adv-x="1282" d="M80 0l252 1434h348l53 -906l373 906h348l-252 -1434h-313l115 645l-271 -645h-184l-41 645l-115 -645h-313z" />
<glyph unicode="N" horiz-adv-x="1083" d="M80 0l252 1434h291l188 -752l131 752h313l-251 -1434h-293l-185 752l-133 -752h-313z" />
<glyph unicode="O" horiz-adv-x="1114" d="M158 437q4 67 10.5 126t19.5 131l7 43q15 84 31 150t42 142t57.5 133t78.5 112t103.5 90t134 56.5t169.5 21.5q91 0 160.5 -21.5t114 -56.5t72.5 -89.5t40 -112.5q11 -56 11 -127v-6q0 -75 -8 -142.5t-23 -149.5l-7 -43q-14 -82 -30 -149.5t-42.5 -142t-58.5 -132 t-79 -111.5t-104 -89.5t-134 -56.5t-168 -21q-81 0 -144.5 15.5t-107 45.5t-74 68t-45.5 91q-16 54 -23 106q-5 35 -5 76q1 21 2 43zM488 413q1 -37 9 -62t21 -46.5t35 -32t51 -10.5q26 0 49.5 9.5t41.5 23.5t35 40t29 48.5t24.5 59.5t20 63.5t17 70t14.5 69t13 69.5 q8 49 13 78.5t11 77t7 77.5q0 15 0.5 32.5t-0.5 37.5q-1 38 -9 61.5t-20.5 46t-34.5 33t-51 10.5q-39 0 -71 -18.5t-56 -55.5t-41.5 -75.5t-32.5 -98t-23.5 -101.5t-19.5 -105q-8 -46 -13.5 -78.5t-11.5 -77.5t-7 -77v-33.5v-35.5z" />
<glyph unicode="P" horiz-adv-x="978" d="M70 0l252 1434h434q212 0 310 -106q73 -78 73 -210q0 -47 -9 -100q-37 -204 -174.5 -317t-347.5 -113h-121l-104 -588h-313zM532 846h93q93 0 138 46.5t60 129.5q4 24 4 43q-1 45 -21 71q-30 38 -124 38h-92z" />
<glyph unicode="Q" horiz-adv-x="1157" d="M161 365q-2 29 -2 57q0 47 5 95q6 77 24 177l7 43q15 81 32 149.5t45 142.5t62 132.5t83 112.5t107.5 90t136.5 57t170 21q91 0 162 -21t117.5 -57t77 -89.5t44 -112.5t15.5 -132v-33q0 -56 -5 -111q-7 -69 -21 -149l-7 -43q-15 -83 -38.5 -158t-58.5 -149t-87.5 -133 t-116.5 -94l246 -58l-47 -268l-623 158q-84 21 -145.5 55t-99.5 82.5t-58.5 104.5t-24.5 131zM489 482.5q0 -31.5 1.5 -68.5t11.5 -61.5t25 -46t40 -32t58 -10.5q37 0 69.5 15.5t55 37.5t43.5 62t33.5 72.5t25.5 86.5t20 87t17 90q8 48 13 78.5t11 77.5t6 77.5t-2 69 t-11.5 62.5t-24 46t-39.5 32.5t-58 10.5q-38 0 -70.5 -15.5t-55.5 -38t-43.5 -62t-33 -73.5t-25.5 -87t-19.5 -87.5t-16.5 -90.5q-9 -47 -14 -78t-11 -77t-6 -77.5z" />
<glyph unicode="R" horiz-adv-x="989" d="M70 0l252 1434h434q212 0 310 -106q73 -78 73 -210q0 -47 -9 -100q-25 -139 -106 -242.5t-195 -140.5l160 -635h-344l-113 588h-36l-113 -588h-313zM532 846h93q93 0 138 46.5t60 129.5q4 24 4 43q-1 45 -21 71q-30 38 -124 38h-92z" />
<glyph unicode="S" horiz-adv-x="970" d="M55 94l117 225q152 -57 289 -57q199 0 223 139q3 18 3 34q0 23 -6 43q-10 34 -39 60.5t-55 43t-71 39.5q-27 15 -49.5 28t-48.5 29t-45.5 31.5t-41.5 34t-36.5 37t-30 41t-23 44.5t-15 49t-5 54t5.5 59q39 224 172 319t375 95q88 0 191.5 -25.5t189.5 -73.5l-117 -225 q-170 56 -288 56q-178 0 -199 -115q-2 -15 -2 -29q0 -22 5 -40q9 -30 37.5 -56t54 -42t73.5 -42q36 -20 58.5 -33t54 -33t51 -35.5t43.5 -38.5t37 -44t26.5 -49.5t18.5 -58t5 -66t-7 -76.5q-38 -221 -183.5 -322.5t-388.5 -101.5q-91 0 -192.5 25t-186.5 77z" />
<glyph unicode="T" horiz-adv-x="946" d="M225 1174l45 260h910l-45 -260h-299l-207 -1174h-314l207 1174h-297z" />
<glyph unicode="U" horiz-adv-x="1124" d="M160 324q0 12 -1 25q-1 53 5 105q6 64 22 146l146 834h315l-153 -871q-7 -42 -10.5 -67t-6.5 -61t-0.5 -57.5t10 -46t22.5 -38t39.5 -22.5t57.5 -9q39 0 70 11t53 34t37.5 47.5t27.5 64.5t19 71t16 79l152 865h315l-145 -834q-20 -116 -46 -201t-71 -165.5t-107 -131 t-155.5 -80.5t-214.5 -30q-87 0 -154 15.5t-112 42.5t-73.5 70t-42 90.5t-15.5 113.5z" />
<glyph unicode="V" horiz-adv-x="1056" d="M260 1434h340l4 -1004l357 1004h339l-581 -1434h-385z" />
<glyph unicode="W" horiz-adv-x="1488" d="M274 0l7 1434h329l-22 -766l274 766h266l7 -766l247 766h330l-498 -1434h-290l-25 874l-334 -874h-291z" />
<glyph unicode="X" horiz-adv-x="1058" d="M8 0l422 717l-170 717h340l98 -482l265 482h340l-418 -717l166 -717h-340l-95 481l-268 -481h-340z" />
<glyph unicode="Y" horiz-adv-x="1058" d="M260 1434h338l98 -498l269 498h338l-523 -883l-96 -551h-313l96 551z" />
<glyph unicode="Z" horiz-adv-x="968" d="M49 0l29 162l649 1012h-471l45 260h870l-28 -162l-647 -1012h469l-45 -260h-871z" />
<glyph unicode="[" horiz-adv-x="698" d="M82 -164l295 1680h538l-45 -261h-225l-205 -1159h226l-45 -260h-539z" />
<glyph unicode="\" horiz-adv-x="182" d="M8 1434h307l111 -1434h-307z" />
<glyph unicode="]" horiz-adv-x="698" d="M20 -164l46 260h225l205 1159h-226l45 261h539l-295 -1680h-539z" />
<glyph unicode="^" horiz-adv-x="968" d="M201 860l401 574h268l201 -574h-332l-59 244l-148 -244h-331z" />
<glyph unicode="_" horiz-adv-x="999" d="M-16 -258l45 258h942l-45 -258h-942z" />
<glyph unicode="`" horiz-adv-x="509" d="M252 1434h328l88 -492h-287z" />
<glyph unicode="a" horiz-adv-x="907" d="M86 319q51 291 365 340l204 33l7 35q3 18 3 32q-1 33 -15 48q-20 22 -95 22q-127 0 -272 -49l-39 205q76 38 192 63t199 25q206 0 284 -87q54 -61 55 -172q0 -49 -11 -107l-125 -707h-279l2 119q-35 -63 -102.5 -95t-143.5 -32q-133 0 -195 90q-43 62 -42 152q0 40 8 85z M399 330q-2 -15 -2 -28q0 -64 64 -64q49 0 121 41l28 163l-108 -20q-48 -9 -72 -30t-31 -62z" />
<glyph unicode="b" horiz-adv-x="976" d="M70 0l252 1434h305l-72 -416q78 55 193 55q63 0 113 -17t91.5 -56t61.5 -103q22 -63 26 -157q1 -15 0 -31q0 -83 -20 -189q-46 -261 -159.5 -394.5t-274.5 -133.5q-88 0 -144 36t-61 91l-33 -119h-278zM422 272q43 -34 96 -34q146 0 195 284q14 80 14 138q0 63 -17 99 q-32 68 -118 68q-36 0 -72 -8z" />
<glyph unicode="c" horiz-adv-x="880" d="M132 284q-4 36 -4 77q0 76 15 171q49 278 193.5 409.5t353.5 131.5q82 0 172.5 -20.5t155.5 -59.5l-105 -202q-47 18 -107.5 27t-98.5 9q-204 0 -252 -284q-10 -60 -11 -108q0 -73 24 -119q38 -78 138 -78q110 0 217 36l31 -204q-77 -39 -173.5 -58.5t-180.5 -19.5 q-101 0 -176 29.5t-127.5 95t-64.5 167.5z" />
<glyph unicode="d" horiz-adv-x="976" d="M141 520q22 123 57.5 219t79.5 158t98.5 102.5t110.5 57t119 16.5q113 0 176 -55l72 416h305l-252 -1434h-278l8 119q-24 -55 -93 -91t-157 -36q-161 0 -227 134q-38 78 -38 200q0 86 19 194zM435 374q0 -63 26.5 -99.5t79.5 -36.5q57 0 108 34l99 547q-36 8 -72 8 q-86 0 -142 -68t-85 -237q-14 -85 -14 -148z" />
<glyph unicode="e" horiz-adv-x="894" d="M123 320q0 74 12 169l10 62q26 145 74.5 248.5t115 162t143 85t169.5 26.5q73 0 129 -13t101.5 -43t68.5 -79q22 -48 30 -120q2 -20 3 -42q0 -56 -14 -125q-17 -99 -56 -231h-481q-1 -18 -1 -34q-1 -74 25 -110q32 -44 103 -43q90 0 262 41l33 -204q-78 -39 -180.5 -58.5 t-190.5 -19.5q-65 0 -117.5 10.5t-97.5 34t-74 61.5t-48 93t-19 129zM469 645h211l2 21q9 45 9 76q0 36 -11 56q-20 38 -74 38q-43 0 -81.5 -51.5t-55.5 -139.5z" />
<glyph unicode="f" horiz-adv-x="690" d="M156 840l41 225h159l2 14q34 189 128 282t262 93q83 0 144.5 -17t84.5 -42l-86 -197q-48 25 -107 25q-56 0 -81 -33t-37 -100l-4 -25h200l-41 -225h-200l-148 -840h-305l147 840h-159z" />
<glyph unicode="g" horiz-adv-x="978" d="M49 -344l115 207q103 -47 244 -47q42 0 69 7t55 30.5t48 73t34 128.5l7 41q-24 -40 -79 -72t-139 -32q-172 0 -241 134q-40 79 -40 205q0 86 19 193q21 120 59.5 217.5t95.5 173t138 117t180 41.5q138 0 170 -115l35 107h279l-183 -1026q-26 -138 -74 -232.5t-117.5 -145 t-148 -71t-180.5 -20.5q-83 0 -182.5 23.5t-163.5 62.5zM448 317q21 -79 89 -79q59 0 114 34l92 521q-43 34 -102 34q-41 0 -74 -24.5t-54.5 -70t-36 -95t-25.5 -113.5q-13 -68 -13 -123q0 -47 10 -84z" />
<glyph unicode="h" horiz-adv-x="948" d="M70 0l252 1434h305l-80 -459q107 98 268 98q121 0 175 -68q34 -44 35 -127q0 -47 -11 -106l-135 -772h-306l136 764q7 42 -2.5 54.5t-36.5 12.5q-83 0 -156 -40l-139 -791h-305z" />
<glyph unicode="i" horiz-adv-x="528" d="M111 0l188 1065h307l-188 -1065h-307zM315 1317q14 77 70 122.5t141 45.5q84 0 124 -45q29 -33 29 -84q0 -18 -3 -39q-12 -77 -68 -123.5t-141 -46.5t-125 46q-30 35 -30 89q0 17 3 35z" />
<glyph unicode="j" horiz-adv-x="528" d="M-207 -236l90 197q53 -27 133 -27q83 0 107 134l176 997h307l-176 -997q-34 -184 -133 -279.5t-256 -95.5q-69 0 -137 18t-111 53zM315 1317q14 77 70 122.5t141 45.5t124 -45q30 -33 30 -84q0 -19 -4 -39q-12 -77 -68 -123.5t-141 -46.5t-125 46q-30 35 -30 89 q0 17 3 35z" />
<glyph unicode="k" horiz-adv-x="952" d="M70 0l252 1434h305l-252 -1434h-305zM469 532l334 533h319l-346 -533l168 -532h-317z" />
<glyph unicode="l" horiz-adv-x="487" d="M90 0l252 1434h307l-252 -1434h-307z" />
<glyph unicode="m" horiz-adv-x="1349" d="M70 0l188 1065h272l2 -127q91 135 259 135q89 0 126 -35t44 -100q34 51 109.5 93t154.5 42q105 0 153 -38q48 -37 50 -107v-12q0 -66 -15 -156l-133 -760h-305l129 729q4 27 4.5 48.5t-9.5 34.5t-30 13q-41 0 -106 -37q0 -20 -7 -51l-129 -737h-305l129 729q5 23 5 42 q0 14 -2 26q-6 28 -38 28q-38 0 -102 -41l-139 -784h-305z" />
<glyph unicode="n" horiz-adv-x="948" d="M70 0l188 1065h272v-107q110 115 285 115q121 0 175 -68q34 -44 35 -127q0 -47 -11 -106l-135 -772h-306l136 764q7 42 -2.5 54.5t-36.5 12.5q-83 0 -156 -40l-139 -791h-305z" />
<glyph unicode="o" horiz-adv-x="960" d="M122 311q-3 25 -3 53q0 67 16 148l8 41q25 140 77 243t123.5 162t151.5 87t171 28q72 0 132 -17t110.5 -55t79.5 -99q28 -60 38 -147q3 -26 3 -55q0 -67 -15 -147l-8 -41q-25 -139 -78.5 -242t-126 -162.5t-154 -87.5t-172.5 -28q-72 0 -131.5 17.5t-108.5 55.5 t-76.5 98.5t-36.5 147.5zM440 512q-14 -78 -14 -135q0 -144 92 -144q132 0 182 279l9 41q12 73 12 127q0 151 -96 151q-129 0 -176 -278z" />
<glyph unicode="p" horiz-adv-x="976" d="M-2 -410l260 1475h272l7 -107q89 115 225 115q95 0 158.5 -42t89.5 -116t30 -174v-27q0 -88 -20 -190q-46 -258 -167.5 -395t-281.5 -137q-150 0 -180 104l-88 -506h-305zM422 272q43 -34 94 -34q73 0 124 77t73 209q12 80 15 147v13q0 59 -24 98q-26 45 -83 45 q-52 0 -107 -34z" />
<glyph unicode="q" horiz-adv-x="976" d="M141 524q21 121 57 217.5t90 172.5t131.5 117.5t172.5 41.5q137 0 188 -115l43 107h273l-260 -1475h-306l88 506q-64 -104 -217 -104q-160 0 -233 136q-45 84 -45 214q0 82 18 182zM448 317q23 -79 95 -79q55 0 106 34l92 521q-38 34 -94 34q-43 0 -77.5 -24.5t-57.5 -70 t-37.5 -95t-25.5 -113.5q-12 -65 -12 -118q0 -50 11 -89z" />
<glyph unicode="r" horiz-adv-x="655" d="M70 0l188 1065h270l4 -109q32 49 124 84q87 33 161 33h8l-47 -274q-43 6 -83 6q-101 0 -185 -39l-135 -766h-305z" />
<glyph unicode="s" horiz-adv-x="835" d="M55 96l121 193q52 -22 122.5 -36.5t117.5 -14.5t83.5 16t41.5 51q3 19 -4 38t-15.5 30.5t-31 28t-30.5 21t-34 19.5q-8 5 -12 7q-108 59 -147 92q-87 74 -87 175q0 21 4 44q56 313 406 313q103 0 207.5 -25.5t167.5 -74.5l-117 -201q-148 55 -254 55q-38 0 -67 -12 t-33 -37q-2 -14 1.5 -27.5t15 -26t21.5 -22t29.5 -21t28 -16.5t29 -15t22.5 -11q113 -55 172 -133q44 -59 44 -138q0 -27 -5 -57q-16 -88 -57 -151.5t-101 -99t-128 -52t-148 -16.5q-101 0 -201.5 25.5t-161.5 78.5z" />
<glyph unicode="t" horiz-adv-x="741" d="M156 840l41 225h159l6 41l89 252h262l-51 -293h200l-41 -225h-200l-82 -471q-4 -22 -4 -40q0 -87 88 -87q52 0 108 28l21 -207q-95 -71 -252 -71q-278 0 -278 264q0 52 11 113l82 471h-159z" />
<glyph unicode="u" horiz-adv-x="948" d="M121 293l137 772h305l-135 -764q-7 -42 3 -55t36 -13q81 0 156 41l139 791h305l-188 -1065h-273v106q-109 -114 -287 -114q-123 0 -175 68q-34 44 -33 128q0 46 10 105z" />
<glyph unicode="v" horiz-adv-x="956" d="M197 1065h319l23 -733l278 733h320l-484 -1065h-348z" />
<glyph unicode="w" horiz-adv-x="1378" d="M217 1065h315l9 -641l233 641h205l4 -641l238 641h317l-432 -1065h-295l-18 580l-224 -580h-295z" />
<glyph unicode="x" horiz-adv-x="966" d="M8 0l348 532l-159 533h340l67 -379l203 379h340l-346 -533l157 -532h-340l-67 381l-203 -381h-340z" />
<glyph unicode="y" horiz-adv-x="985" d="M135 -365l227 453l-165 977h317l74 -559l260 559h317l-723 -1430h-307z" />
<glyph unicode="z" horiz-adv-x="872" d="M49 0l27 145l508 678h-389l43 242h774l-27 -145l-508 -678h389l-43 -242h-774z" />
<glyph unicode="{" horiz-adv-x="778" d="M168 563l41 225q98 7 141.5 57t57.5 132l34 192q31 176 119.5 261.5t278.5 85.5h155l-45 -261h-86q-53 0 -77 -23t-33 -77l-33 -197q-17 -94 -74 -173.5t-147 -108.5q84 -29 111 -106t10 -177l-37 -205q-8 -49 8 -70.5t67 -21.5h86l-45 -260h-155q-130 0 -199 40.5 t-83 117t5 186.5l33 197q8 34 5.5 66t-13.5 57.5t-42.5 42.5t-82.5 20z" />
<glyph unicode="|" horiz-adv-x="618" d="M123 -164l295 1680h315l-295 -1680h-315z" />
<glyph unicode="}" horiz-adv-x="778" d="M20 -164l46 260h86q51 0 75.5 22t32.5 70l37 205q17 99 71.5 176.5t147.5 106.5q-79 29 -107.5 108.5t-11.5 173.5l33 197q9 54 -6.5 77t-67.5 23h-86l45 261h156q130 0 199.5 -41.5t83.5 -118.5t-4 -187l-35 -192q-8 -34 -5.5 -67t14 -58.5t43 -42.5t81.5 -21l-41 -225 q-51 -3 -88 -19t-59 -43.5t-33.5 -57t-18.5 -66.5l-33 -197q-15 -86 -41.5 -147t-72.5 -106.5t-116.5 -68t-168.5 -22.5h-156z" />
<glyph unicode="~" horiz-adv-x="1005" d="M150 565q1 6 4 17t15.5 43t29 60.5t46 64t65 60.5t88 42.5t112.5 17.5q51 0 90.5 -16t59 -35t45.5 -35t53 -16q21 0 38 25.5t24 50.5l7 26l273 -55q-1 -6 -4.5 -17t-16 -42.5t-29.5 -60t-47 -63.5t-65.5 -60.5t-88.5 -42.5t-114 -17q-44 0 -77 10.5t-51.5 25t-34.5 29 t-36.5 25t-46.5 10.5q-21 0 -39 -25.5t-26 -50.5l-8 -26z" />
<glyph unicode="&#xa1;" horiz-adv-x="501" d="M96 -369l197 983h278l-151 -983h-324zM301 895q14 78 70 124t141 46t124.5 -46t25.5 -124t-69 -123t-140 -45t-125.5 45.5t-26.5 122.5z" />
<glyph unicode="&#xa2;" horiz-adv-x="880" d="M143 532q40 226 144.5 355.5t257.5 167.5l45 256h313l-45 -256q90 -19 160 -62l-105 -202q-47 18 -107.5 27t-98.5 9q-204 0 -252 -284q-26 -148 12.5 -226.5t138.5 -78.5q110 0 217 36l31 -204q-72 -39 -180 -60l-45 -256h-314l45 256q-140 38 -198.5 167t-18.5 355z " />
<glyph unicode="&#xa3;" horiz-adv-x="999" d="M29 0l45 260h125l94 533q18 101 31.5 164.5t37 140t50 122t68 92.5t94.5 72t125.5 40.5t164.5 15.5q55 0 110.5 -10t95.5 -24t72.5 -28.5t49.5 -24.5l16 -10l-118 -233q-155 59 -261 59q-25 0 -47 -5t-38 -12t-30.5 -21t-24 -25.5t-18.5 -31.5t-14 -34t-10.5 -38t-8 -38 t-7 -39.5t-6.5 -37.5l-11 -58h359l-45 -260h-359l-55 -309h467l-45 -260h-907z" />
<glyph unicode="&#xa4;" horiz-adv-x="1128" d="M137 369l125 100q-33 92 -13.5 197.5t83.5 197.5l-90 111l217 186l88 -112q102 51 209 51q105 0 182 -51l129 110l164 -184l-135 -111q32 -91 13.5 -196.5t-81.5 -196.5l92 -113l-221 -182l-92 109q-87 -47 -201 -47q-113 0 -190 47l-135 -111zM508 668 q-11 -70 29.5 -121t111.5 -51t129.5 51t69.5 121q14 71 -26.5 121.5t-112.5 50.5q-71 0 -129 -50.5t-72 -121.5z" />
<glyph unicode="&#xa5;" horiz-adv-x="1058" d="M168 240l39 225h246l18 106h-246l41 226h152l-158 637h338l98 -498l269 498h338l-381 -637h153l-41 -226h-250l-18 -106h250l-39 -225h-250l-43 -240h-313l43 240h-246z" />
<glyph unicode="&#xa6;" horiz-adv-x="618" d="M123 -164l115 653h315l-115 -653h-315zM324 981l116 657h316l-117 -657h-315z" />
<glyph unicode="&#xa7;" horiz-adv-x="860" d="M57 90l127 209q55 -24 128.5 -39.5t121.5 -15.5q107 0 115 49q4 24 -20 48.5t-54 40.5t-73 36.5t-56 27.5q-19 11 -28 16t-29 18t-30 22t-26.5 25t-25 30.5t-18 35.5t-13 43t-3.5 49.5t5 57.5q13 76 58.5 130.5t105.5 66.5q-52 15 -76.5 69t-11.5 132q54 299 430 299 q93 0 201 -25t172 -72l-127 -208q-57 24 -130 39.5t-124 15.5q-105 0 -115 -49q-5 -31 29 -59.5t99 -58.5t75 -36q4 -3 27 -16.5t30.5 -19t28.5 -20.5t29.5 -25.5t23.5 -28.5t21 -36t12 -41t5.5 -50t-5.5 -58q-14 -77 -59.5 -131t-108.5 -67q54 -18 78.5 -70.5t11.5 -130.5 q-52 -299 -430 -299q-95 0 -202 24.5t-169 71.5zM479 754q-4 -21 3 -39t26.5 -34t34.5 -25.5t43 -24.5q42 17 47 53q7 37 -22.5 64.5t-84.5 54.5q-41 -11 -47 -49z" />
<glyph unicode="&#xa8;" horiz-adv-x="899" d="M293 1264q14 77 68.5 123.5t132.5 46.5q77 0 115.5 -47t25.5 -123q-13 -78 -68.5 -125t-132.5 -47q-78 0 -116.5 47t-24.5 125zM711 1264q14 77 68 123.5t132 46.5q77 0 116 -47t26 -123q-13 -78 -68.5 -125t-132.5 -47q-78 0 -116.5 47t-24.5 125z" />
<glyph unicode="&#xa9;" horiz-adv-x="1269" d="M156 488q1 108 20 229q27 154 83.5 282.5t142.5 229t211 157t276 56.5q102 0 183 -26t136.5 -73.5t92 -113t52 -147.5t14.5 -173t-19 -192q-28 -154 -84.5 -282.5t-143 -229t-211.5 -157t-276 -56.5q-122 0 -214.5 37t-147 103t-85.5 157t-30 199zM376.5 513.5 q3.5 -94.5 30 -164.5t93 -110t170.5 -40t184 39t133.5 112t87 162.5t53.5 204.5q22 109 18.5 203.5t-30.5 164.5t-93.5 110t-170.5 40t-184 -39t-133 -112t-86.5 -162.5t-53.5 -204.5q-22 -109 -18.5 -203.5zM445.5 625q2.5 45 11.5 92q10 58 26 111.5t49 115.5t76 106.5 t111 74.5t151 30q127 0 195 -68l-72 -155q-42 24 -121 24q-47 0 -84 -24t-58.5 -63.5t-33.5 -76t-18 -75.5q-6 -30 -7.5 -59t3.5 -63.5t18 -60t42 -42.5t71 -17q58 0 113 23l16 -154q-40 -33 -101 -50.5t-124 -17.5q-68 0 -118.5 20.5t-79 56.5t-45.5 79t-20 95.5t-0.5 97.5 z" />
<glyph unicode="&#xaa;" horiz-adv-x="624" d="M199 963q28 174 204 211l152 30l2 10q5 30 -3.5 40t-41.5 10q-89 0 -182 -27l-37 145q125 60 260 60q133 0 185 -56t32 -172l-82 -460h-186l2 65q-50 -71 -148 -71q-96 0 -134 65.5t-23 149.5zM417 940.5q4 -10.5 21 -10.5q38 0 70 16l14 78l-53 -8q-46 -8 -51 -45 q-5 -20 -1 -30.5z" />
<glyph unicode="&#xab;" horiz-adv-x="1472" d="M168 559l20 115l848 588l-61 -349l-434 -299l329 -295l-61 -348zM758 559l20 115l848 588l-61 -349l-435 -299l330 -295l-61 -348z" />
<glyph unicode="&#xac;" horiz-adv-x="958" d="M168 563l47 256h819l-82 -461h-307l35 205h-512z" />
<glyph unicode="&#xad;" horiz-adv-x="958" d="M168 563l47 256h819l-47 -256h-819z" />
<glyph unicode="&#xae;" horiz-adv-x="1269" d="M156 488q1 108 20 229q27 154 83.5 282.5t142.5 229t211 157t276 56.5q102 0 183 -26t136.5 -73.5t92 -113t52 -147.5t14.5 -173t-19 -192q-28 -154 -84.5 -282.5t-143 -229t-211.5 -157t-276 -56.5q-122 0 -214.5 37t-147 103t-85.5 157t-30 199zM376.5 513.5 q3.5 -94.5 30 -164.5t93 -110t170.5 -40q159 0 266 96h-170l-45 344h-10l-62 -344h-188l151 850h228q123 0 178.5 -67t36.5 -177q-30 -170 -164 -225l59 -369q130 130 178 410q22 109 18.5 203.5t-30.5 164.5t-93.5 110t-170.5 40t-184 -39t-133 -112t-86.5 -162.5 t-53.5 -204.5q-22 -109 -18.5 -203.5zM739 803h23q49 0 74 24t34 78q15 86 -75 86h-23z" />
<glyph unicode="&#xaf;" horiz-adv-x="999" d="M293 1493l45 258h942l-45 -258h-942z" />
<glyph unicode="&#xb0;" horiz-adv-x="655" d="M225.5 1022q-9.5 50 3.5 117q11 65 37.5 117t61.5 86t78.5 57t87 33t88.5 10q56 0 103.5 -16.5t86 -50.5t54 -95t1.5 -141t-51 -140.5t-87.5 -94t-104 -50t-109.5 -16.5q-45 0 -85 10t-75.5 32t-57.5 57t-31.5 85zM430 1141q-19 -113 80 -113q100 0 119 113 q11 64 -11.5 86t-68.5 22q-45 0 -76.5 -22t-42.5 -86z" />
<glyph unicode="&#xb1;" horiz-adv-x="1118" d="M168 0l45 256h870l-45 -256h-870zM279 625l45 256h280l47 268h307l-47 -268h283l-45 -256h-283l-47 -271h-307l47 271h-280z" />
<glyph unicode="&#xb2;" horiz-adv-x="628" d="M186 662l27 153q13 72 53 130.5t88 94.5t95 65.5t81 58.5t39 59q3 15 -10.5 23.5t-44.5 8.5q-75 0 -195 -38l-16 161q142 64 254 64q126 0 187 -49.5t42 -161.5q-11 -65 -45 -116t-77 -83.5t-86 -59t-81.5 -56.5t-54.5 -62h271l-35 -192h-492z" />
<glyph unicode="&#xb3;" horiz-adv-x="634" d="M176 723l80 162q105 -31 174 -31q43 0 63 16.5t27 59.5q4 28 -14.5 41.5t-54.5 13.5h-101l29 164h100q70 0 78 51q3 19 -10 33t-43 14q-109 0 -180 -16l-23 170q77 25 127.5 33t122.5 8q267 0 227 -228q-8 -44 -39 -83.5t-77 -57.5q44 -15 64 -60t9 -102 q-21 -121 -103 -187.5t-224 -66.5q-115 0 -232 66z" />
<glyph unicode="&#xb4;" horiz-adv-x="559" d="M258 1188l207 409h328l-248 -409h-287z" />
<glyph unicode="&#xb6;" horiz-adv-x="1314" d="M225 1004q22 122 66.5 207.5t110 133.5t142.5 68.5t175 20.5h778l-252 -1434h-266l207 1178h-142l-206 -1178h-267l107 606q-67 -18 -135 -18q-186 0 -271.5 96.5t-46.5 319.5z" />
<glyph unicode="&#xb7;" horiz-adv-x="743" d="M258 649q17 94 96 159.5t176 65.5q93 0 147.5 -66t37.5 -159q-17 -96 -94 -162.5t-170 -66.5q-97 0 -153.5 66.5t-39.5 162.5z" />
<glyph unicode="&#xb8;" horiz-adv-x="714" d="M-57 -485l100 155q96 -35 172 -35q71 0 123.5 17t58.5 51q4 22 -18.5 28.5t-79.5 6.5h-227l32 110l191 242h246l-142 -176q44 0 77.5 -3.5t64.5 -13t49.5 -25.5t33 -40t15 -57.5t-5.5 -77.5q-11 -60 -42 -106.5t-71.5 -74t-94 -45t-103 -24t-103.5 -6.5q-176 0 -276 74z " />
<glyph unicode="&#xb9;" horiz-adv-x="563" d="M225 1110l35 199q195 62 258 125h166l-135 -777h-217l90 521q-25 -19 -88 -40.5t-109 -27.5z" />
<glyph unicode="&#xba;" horiz-adv-x="692" d="M233.5 891q-1.5 48 2 89t12.5 89q10 55 25 103t43 99.5t65 87.5t93 59.5t124 23.5q292 0 219 -398q-10 -54 -25 -102.5t-43.5 -99.5t-66 -87.5t-94 -59.5t-125.5 -23q-61 0 -106 17t-69.5 48.5t-38.5 68.5t-15.5 85zM467 1057q-33 -195 29 -195q22 0 41 22.5t31 58 t19 62.5t11 52q33 194 -33 194q-64 0 -98 -194z" />
<glyph unicode="&#xbb;" horiz-adv-x="1472" d="M66 -29l61 348l432 295l-328 299l62 349l639 -588l-21 -115zM655 -29l62 348l432 295l-328 299l62 349l639 -588l-21 -115z" />
<glyph unicode="&#xbc;" horiz-adv-x="1257" d="M225 1110l35 199q195 62 258 125h166l-121 -695h-217l76 439q-25 -19 -88 -40.5t-109 -27.5zM315 0l615 1434h246l-615 -1434h-246zM715 131l18 96l377 547h182l-88 -495h74l-27 -148h-73l-23 -131h-215l23 131h-248zM940 279h70l28 159z" />
<glyph unicode="&#xbd;" horiz-adv-x="1359" d="M225 1110l35 199q195 62 258 125h166l-121 -695h-217l76 439q-25 -19 -88 -40.5t-109 -27.5zM315 0l615 1434h246l-615 -1434h-246zM801 0l26 154q13 72 53 130.5t88.5 94t95.5 65t81 58.5t39 59q3 16 -11 24.5t-45 8.5q-71 0 -194 -39l-16 162q140 63 253 63 q126 0 187.5 -49.5t42.5 -161.5q-11 -65 -45 -116t-77 -83t-86 -58.5t-81.5 -56.5t-54.5 -62h270l-35 -193h-491z" />
<glyph unicode="&#xbe;" horiz-adv-x="1359" d="M176 723l80 162q105 -31 174 -31q43 0 63 16.5t27 59.5q4 28 -14.5 41.5t-54.5 13.5h-101l29 164h100q70 0 78 51q3 19 -10 33t-43 14q-109 0 -180 -16l-23 170q77 25 127.5 33t122.5 8q267 0 227 -228q-8 -44 -39 -83.5t-77 -57.5q44 -15 64 -60t9 -102 q-21 -121 -103 -187.5t-224 -66.5q-115 0 -232 66zM418 0l614 1434h246l-614 -1434h-246zM817 131l19 96l376 547h183l-88 -495h73l-26 -148h-74l-23 -131h-215l23 131h-248zM1042 279h70l29 159z" />
<glyph unicode="&#xbf;" horiz-adv-x="921" d="M59 -4q11 65 39.5 118.5t62 87.5t73.5 73.5t74 75.5t63 93.5t41 128.5l8 41h315l-8 -41q-19 -110 -60.5 -195.5t-87 -135t-89.5 -88t-77 -75t-40 -75.5q-9 -53 23 -81.5t93 -28.5q119 0 299 53l35 -226q-206 -98 -413 -98q-203 0 -292.5 98.5t-58.5 274.5zM444 895 q14 78 70 124t141 46t124.5 -46t25.5 -124t-69 -123t-140 -45t-125.5 45.5t-26.5 122.5z" />
<glyph unicode="&#xc0;" horiz-adv-x="1056" d="M8 0l578 1434h385l78 -1434h-340v266h-267l-94 -266h-340zM530 512h177l-2 492zM567 1966h328l61 -410h-286z" />
<glyph unicode="&#xc1;" horiz-adv-x="1171" d="M8 0l578 1434h385l78 -1434h-340v266h-267l-94 -266h-340zM530 512h177l-2 492zM631 1556l205 410h327l-245 -410h-287z" />
<glyph unicode="&#xc2;" horiz-adv-x="1169" d="M8 0l578 1434h385l78 -1434h-340v266h-267l-94 -266h-340zM444 1556l295 410h271l151 -410h-287l-40 175l-103 -175h-287zM530 512h177l-2 492z" />
<glyph unicode="&#xc3;" horiz-adv-x="1249" d="M8 0l578 1434h385l78 -1434h-340v266h-267l-94 -266h-340zM418 1597q1 6 3.5 15.5t13 37t23.5 52.5t37.5 55.5t52.5 52.5t70.5 37t90.5 15q53 0 98.5 -20.5t80 -41t60.5 -20.5q17 0 31 20.5t19 41.5l6 20l237 -64q-1 -5 -3.5 -14t-13 -34t-24 -48t-37.5 -51.5 t-52.5 -48.5t-71 -34t-91.5 -14q-43 0 -79.5 13t-57.5 28t-48 28t-52 13q-16 0 -31 -20.5t-22 -41.5l-7 -20zM530 512h177l-2 492z" />
<glyph unicode="&#xc4;" horiz-adv-x="1216" d="M8 0l578 1434h385l78 -1434h-340v266h-267l-94 -266h-340zM444 1708q14 77 69.5 123.5t133.5 46.5q76 0 114.5 -46.5t24.5 -123.5q-13 -78 -68 -125t-132 -47q-78 0 -117 47t-25 125zM530 512h177l-2 492zM862 1708q14 77 69.5 123.5t133.5 46.5q76 0 114.5 -46.5 t24.5 -123.5q-13 -78 -68 -125t-132 -47q-78 0 -117 47t-25 125z" />
<glyph unicode="&#xc5;" horiz-adv-x="1107" d="M8 0l557 1382q-67 73 -45 193q21 121 116.5 198.5t215.5 77.5t191.5 -78t50.5 -198q-22 -120 -119 -195l74 -1380h-340v266h-267l-94 -266h-340zM530 512h177l-2 492zM715 1575q-6 -37 13.5 -62.5t59.5 -25.5q41 0 73 26t38 62q7 43 -14.5 67.5t-63.5 24.5t-70.5 -24 t-35.5 -68z" />
<glyph unicode="&#xc6;" horiz-adv-x="1593" d="M8 0l1028 1434h760l-45 -260h-446l-54 -306h359l-47 -260h-359l-61 -348h446l-45 -260h-760l47 266h-290l-189 -266h-344zM713 512h161l56 307z" />
<glyph unicode="&#xc7;" horiz-adv-x="1001" d="M153 465q-4 120 23 252q22 125 57.5 230t92.5 198t131.5 157.5t178 102t228.5 37.5q96 0 181 -19t122 -38l37 -19l-110 -233q-115 38 -252 38q-63 0 -115 -27t-86 -68.5t-61.5 -104t-43 -121.5t-28.5 -133q-11 -61 -16 -111t-5 -104.5t11.5 -95.5t32.5 -74.5t59.5 -51.5 t91.5 -18q61 0 127 10t101 20l36 9l29 -233q-104 -52 -262 -70l-68 -84q44 0 77.5 -3.5t64.5 -13t49.5 -25.5t33 -40t15 -57.5t-5.5 -77.5q-11 -60 -42 -106.5t-71.5 -74t-94 -45t-103 -24t-103.5 -6.5q-177 0 -277 74l101 155q96 -35 172 -35q71 0 123.5 17t58.5 51 q4 22 -18.5 28.5t-79.5 6.5h-228l33 110l123 156q-111 23 -184 88t-102.5 159t-33.5 214z" />
<glyph unicode="&#xc8;" horiz-adv-x="878" d="M70 0l252 1434h759l-45 -260h-446l-53 -306h358l-47 -260h-359l-61 -348h446l-45 -260h-759zM526 1966h328l61 -410h-286z" />
<glyph unicode="&#xc9;" horiz-adv-x="907" d="M70 0l252 1434h759l-45 -260h-446l-53 -306h358l-47 -260h-359l-61 -348h446l-45 -260h-759zM578 1556l204 410h328l-246 -410h-286z" />
<glyph unicode="&#xca;" horiz-adv-x="888" d="M70 0l252 1434h759l-45 -260h-446l-53 -306h358l-47 -260h-359l-61 -348h446l-45 -260h-759zM375 1556l295 410h270l152 -410h-287l-41 175l-102 -175h-287z" />
<glyph unicode="&#xcb;" horiz-adv-x="931" d="M70 0l252 1434h759l-45 -260h-446l-53 -306h358l-47 -260h-359l-61 -348h446l-45 -260h-759zM371 1708q14 77 69 123.5t133 46.5q77 0 115.5 -47t24.5 -123q-13 -78 -68.5 -125t-132.5 -47q-78 0 -116.5 47t-24.5 125zM788 1708q14 77 69.5 123.5t133.5 46.5 q76 0 114.5 -46.5t24.5 -123.5q-13 -78 -68 -125t-132 -47q-78 0 -117 47t-25 125z" />
<glyph unicode="&#xcc;" horiz-adv-x="534" d="M111 0l251 1434h314l-252 -1434h-313zM295 1966h328l61 -410h-287z" />
<glyph unicode="&#xcd;" horiz-adv-x="534" d="M111 0l251 1434h314l-252 -1434h-313zM395 1556l205 410h328l-246 -410h-287z" />
<glyph unicode="&#xce;" horiz-adv-x="534" d="M111 0l251 1434h314l-252 -1434h-313zM184 1556l295 410h271l151 -410h-287l-41 175l-102 -175h-287z" />
<glyph unicode="&#xcf;" horiz-adv-x="534" d="M111 0l251 1434h314l-252 -1434h-313zM188 1708q14 77 69.5 123.5t133.5 46.5q76 0 114.5 -46.5t24.5 -123.5q-13 -78 -68 -125t-132 -47q-78 0 -117 47t-25 125zM606 1708q14 77 69.5 123.5t133.5 46.5q76 0 114.5 -46.5t24.5 -123.5q-13 -78 -68 -125t-132 -47 q-78 0 -117 47t-25 125z" />
<glyph unicode="&#xd0;" horiz-adv-x="1116" d="M104 598l46 246h145l102 590h289q204 0 325 -47t168 -137t48.5 -222t-33.5 -303q-18 -107 -38 -186t-50.5 -158.5t-69.5 -135t-95.5 -104.5t-128.5 -78.5t-167.5 -46t-214.5 -16.5h-285l105 598h-146zM504 260h14q44 0 80 7t64.5 17t52.5 31t41.5 40.5t33 54t25.5 62 t20.5 74.5t17.5 82t17 93q14 77 20 116.5t11.5 97.5t0 86t-18.5 63.5t-39 51t-66.5 27t-97.5 11.5h-14l-58 -330h146l-45 -246h-146z" />
<glyph unicode="&#xd1;" horiz-adv-x="1083" d="M80 0l252 1434h291l188 -752l131 752h313l-251 -1434h-293l-185 752l-133 -752h-313zM430 1597q1 6 3.5 15.5t13 37t23.5 52.5t37.5 55.5t52.5 52.5t70.5 37t90.5 15q42 0 80 -13t61.5 -28t50.5 -28t48 -13q17 0 31 20.5t19 41.5l5 20l237 -64q-2 -10 -7 -26.5 t-27.5 -58.5t-52 -74t-84 -58.5t-121.5 -26.5q-43 0 -79.5 13t-58 28t-48.5 28t-52 13q-16 0 -31 -20.5t-22 -41.5l-6 -20z" />
<glyph unicode="&#xd2;" horiz-adv-x="1114" d="M157.5 437q3.5 67 10.5 126t20 131l7 43q15 84 31 150t42 142t57.5 133t78.5 112t103.5 90t134 56.5t169.5 21.5q91 0 160.5 -21.5t114 -56.5t72.5 -89.5t39.5 -112.5t11 -133t-8 -142.5t-22.5 -149.5l-7 -43q-14 -82 -30 -149.5t-42.5 -142t-58.5 -132t-79 -111.5 t-104 -89.5t-134 -56.5t-168 -21q-81 0 -144.5 15.5t-107 45.5t-74 68t-46 91t-22.5 105.5t-3.5 119.5zM488 413q1 -37 9 -62t21 -46.5t35 -32t51 -10.5q26 0 49.5 9.5t41.5 23.5t35 40t29 48.5t24.5 59.5t20 63.5t17 70t14.5 69t13 69.5q8 49 13 78.5t11 77t7 78t0 69 t-9 62t-20.5 46t-34.5 33t-51 10.5q-39 0 -71 -18.5t-56 -55.5t-41.5 -75.5t-32.5 -98t-23.5 -101.5t-19.5 -105q-8 -46 -13.5 -78.5t-11.5 -77.5t-7 -77t0 -69zM629 1966h327l62 -410h-287z" />
<glyph unicode="&#xd3;" horiz-adv-x="1114" d="M157.5 437q3.5 67 10.5 126t20 131l7 43q15 84 31 150t42 142t57.5 133t78.5 112t103.5 90t134 56.5t169.5 21.5q91 0 160.5 -21.5t114 -56.5t72.5 -89.5t39.5 -112.5t11 -133t-8 -142.5t-22.5 -149.5l-7 -43q-14 -82 -30 -149.5t-42.5 -142t-58.5 -132t-79 -111.5 t-104 -89.5t-134 -56.5t-168 -21q-81 0 -144.5 15.5t-107 45.5t-74 68t-46 91t-22.5 105.5t-3.5 119.5zM488 413q1 -37 9 -62t21 -46.5t35 -32t51 -10.5q26 0 49.5 9.5t41.5 23.5t35 40t29 48.5t24.5 59.5t20 63.5t17 70t14.5 69t13 69.5q8 49 13 78.5t11 77t7 78t0 69 t-9 62t-20.5 46t-34.5 33t-51 10.5q-39 0 -71 -18.5t-56 -55.5t-41.5 -75.5t-32.5 -98t-23.5 -101.5t-19.5 -105q-8 -46 -13.5 -78.5t-11.5 -77.5t-7 -77t0 -69zM700 1556l205 410h328l-246 -410h-287z" />
<glyph unicode="&#xd4;" horiz-adv-x="1114" d="M157.5 437q3.5 67 10.5 126t20 131l7 43q15 84 31 150t42 142t57.5 133t78.5 112t103.5 90t134 56.5t169.5 21.5q91 0 160.5 -21.5t114 -56.5t72.5 -89.5t39.5 -112.5t11 -133t-8 -142.5t-22.5 -149.5l-7 -43q-14 -82 -30 -149.5t-42.5 -142t-58.5 -132t-79 -111.5 t-104 -89.5t-134 -56.5t-168 -21q-81 0 -144.5 15.5t-107 45.5t-74 68t-46 91t-22.5 105.5t-3.5 119.5zM473 1556l295 410h270l152 -410h-287l-41 175l-102 -175h-287zM488 413q1 -37 9 -62t21 -46.5t35 -32t51 -10.5q26 0 49.5 9.5t41.5 23.5t35 40t29 48.5t24.5 59.5 t20 63.5t17 70t14.5 69t13 69.5q8 49 13 78.5t11 77t7 78t0 69t-9 62t-20.5 46t-34.5 33t-51 10.5q-39 0 -71 -18.5t-56 -55.5t-41.5 -75.5t-32.5 -98t-23.5 -101.5t-19.5 -105q-8 -46 -13.5 -78.5t-11.5 -77.5t-7 -77t0 -69z" />
<glyph unicode="&#xd5;" horiz-adv-x="1114" d="M157.5 437q3.5 67 10.5 126t20 131l7 43q15 84 31 150t42 142t57.5 133t78.5 112t103.5 90t134 56.5t169.5 21.5q91 0 160.5 -21.5t114 -56.5t72.5 -89.5t39.5 -112.5t11 -133t-8 -142.5t-22.5 -149.5l-7 -43q-14 -82 -30 -149.5t-42.5 -142t-58.5 -132t-79 -111.5 t-104 -89.5t-134 -56.5t-168 -21q-81 0 -144.5 15.5t-107 45.5t-74 68t-46 91t-22.5 105.5t-3.5 119.5zM446 1597q1 6 3.5 15.5t13 37t23.5 52.5t37.5 55.5t52.5 52.5t70.5 37t90.5 15q42 0 80 -13t61.5 -28t50.5 -28t48 -13q17 0 31 20.5t19 41.5l5 20l238 -64 q-1 -5 -3.5 -14t-13 -34t-24 -48t-37.5 -51.5t-52.5 -48.5t-71 -34t-91.5 -14q-43 0 -79.5 13t-58 28t-48.5 28t-52 13q-16 0 -31 -20.5t-22 -41.5l-6 -20zM488 413q1 -37 9 -62t21 -46.5t35 -32t51 -10.5q26 0 49.5 9.5t41.5 23.5t35 40t29 48.5t24.5 59.5t20 63.5t17 70 t14.5 69t13 69.5q8 49 13 78.5t11 77t7 78t0 69t-9 62t-20.5 46t-34.5 33t-51 10.5q-39 0 -71 -18.5t-56 -55.5t-41.5 -75.5t-32.5 -98t-23.5 -101.5t-19.5 -105q-8 -46 -13.5 -78.5t-11.5 -77.5t-7 -77t0 -69z" />
<glyph unicode="&#xd6;" horiz-adv-x="1114" d="M157.5 437q3.5 67 10.5 126t20 131l7 43q15 84 31 150t42 142t57.5 133t78.5 112t103.5 90t134 56.5t169.5 21.5q91 0 160.5 -21.5t114 -56.5t72.5 -89.5t39.5 -112.5t11 -133t-8 -142.5t-22.5 -149.5l-7 -43q-14 -82 -30 -149.5t-42.5 -142t-58.5 -132t-79 -111.5 t-104 -89.5t-134 -56.5t-168 -21q-81 0 -144.5 15.5t-107 45.5t-74 68t-46 91t-22.5 105.5t-3.5 119.5zM479 1708q14 77 69.5 123.5t133.5 46.5q76 0 114.5 -46.5t24.5 -123.5q-13 -78 -68 -125t-132 -47q-78 0 -117 47t-25 125zM488 413q1 -37 9 -62t21 -46.5t35 -32 t51 -10.5q26 0 49.5 9.5t41.5 23.5t35 40t29 48.5t24.5 59.5t20 63.5t17 70t14.5 69t13 69.5q8 49 13 78.5t11 77t7 78t0 69t-9 62t-20.5 46t-34.5 33t-51 10.5q-39 0 -71 -18.5t-56 -55.5t-41.5 -75.5t-32.5 -98t-23.5 -101.5t-19.5 -105q-8 -46 -13.5 -78.5t-11.5 -77.5 t-7 -77t0 -69zM897 1708q14 77 69.5 123.5t133.5 46.5q76 0 114.5 -46.5t24.5 -123.5q-13 -78 -68.5 -125t-132.5 -47q-78 0 -116.5 47t-24.5 125z" />
<glyph unicode="&#xd7;" horiz-adv-x="913" d="M156 489l233 201l-162 201l219 186l166 -198l236 198l153 -186l-237 -201l166 -201l-219 -186l-166 201l-236 -201z" />
<glyph unicode="&#xd8;" horiz-adv-x="1114" d="M157.5 437q3.5 67 10.5 126t20 131l7 43q15 84 31 150t42 142t57.5 133t78.5 112t103.5 90t134 56.5t169.5 21.5q91 0 160.5 -21.5t114 -56.5t72.5 -89.5t39.5 -112.5t11 -133t-8 -142.5t-22.5 -149.5l-7 -43q-14 -82 -30 -149.5t-42.5 -142t-58.5 -132t-79 -111.5 t-104 -89.5t-134 -56.5t-168 -21q-81 0 -144.5 15.5t-107 45.5t-74 68t-46 91t-22.5 105.5t-3.5 119.5zM487 436l312 727q-12 6 -35 6q-39 0 -71 -18.5t-56 -55.5t-41.5 -75.5t-32.5 -98t-23.5 -101.5t-19.5 -105q-35 -200 -33 -279zM573 266q20 -4 31 -4q26 0 49.5 9.5 t41.5 23.5t35 40t29 48.5t24.5 59.5t20 63.5t17 70t14.5 69t13 69.5q31 190 31 264z" />
<glyph unicode="&#xd9;" horiz-adv-x="1124" d="M159.5 324.5q-1.5 65.5 5 129.5t21.5 146l146 834h315l-153 -871q-7 -42 -10.5 -67t-6.5 -61t-0.5 -57.5t10 -46t22.5 -38t39.5 -22.5t57.5 -9q39 0 70 11t53 34t37.5 47.5t27.5 64.5t19 71t16 79l152 865h315l-145 -834q-20 -116 -46 -201t-71 -165.5t-107 -131 t-155.5 -80.5t-214.5 -30q-87 0 -154 15.5t-112 42.5t-73.5 70t-42.5 91t-15.5 113.5zM649 1966h328l61 -410h-286z" />
<glyph unicode="&#xda;" horiz-adv-x="1124" d="M159.5 324.5q-1.5 65.5 5 129.5t21.5 146l146 834h315l-153 -871q-7 -42 -10.5 -67t-6.5 -61t-0.5 -57.5t10 -46t22.5 -38t39.5 -22.5t57.5 -9q39 0 70 11t53 34t37.5 47.5t27.5 64.5t19 71t16 79l152 865h315l-145 -834q-20 -116 -46 -201t-71 -165.5t-107 -131 t-155.5 -80.5t-214.5 -30q-87 0 -154 15.5t-112 42.5t-73.5 70t-42.5 91t-15.5 113.5zM700 1556l205 410h328l-246 -410h-287z" />
<glyph unicode="&#xdb;" horiz-adv-x="1124" d="M159.5 324.5q-1.5 65.5 5 129.5t21.5 146l146 834h315l-153 -871q-7 -42 -10.5 -67t-6.5 -61t-0.5 -57.5t10 -46t22.5 -38t39.5 -22.5t57.5 -9q39 0 70 11t53 34t37.5 47.5t27.5 64.5t19 71t16 79l152 865h315l-145 -834q-20 -116 -46 -201t-71 -165.5t-107 -131 t-155.5 -80.5t-214.5 -30q-87 0 -154 15.5t-112 42.5t-73.5 70t-42.5 91t-15.5 113.5zM479 1556l295 410h270l152 -410h-287l-41 175l-102 -175h-287z" />
<glyph unicode="&#xdc;" horiz-adv-x="1124" d="M159.5 324.5q-1.5 65.5 5 129.5t21.5 146l146 834h315l-153 -871q-7 -42 -10.5 -67t-6.5 -61t-0.5 -57.5t10 -46t22.5 -38t39.5 -22.5t57.5 -9q39 0 70 11t53 34t37.5 47.5t27.5 64.5t19 71t16 79l152 865h315l-145 -834q-20 -116 -46 -201t-71 -165.5t-107 -131 t-155.5 -80.5t-214.5 -30q-87 0 -154 15.5t-112 42.5t-73.5 70t-42.5 91t-15.5 113.5zM496 1708q14 77 69 123.5t133 46.5q76 0 114.5 -47t25.5 -123q-13 -78 -68.5 -125t-132.5 -47q-78 0 -116.5 47t-24.5 125zM913 1708q14 77 69.5 123.5t133.5 46.5q76 0 114.5 -46.5 t24.5 -123.5q-13 -78 -68 -125t-132 -47q-78 0 -117 47t-25 125z" />
<glyph unicode="&#xdd;" horiz-adv-x="1058" d="M260 1434h338l98 -498l269 498h338l-523 -883l-96 -551h-313l96 551zM659 1556l205 410h328l-246 -410h-287z" />
<glyph unicode="&#xde;" horiz-adv-x="925" d="M70 0l252 1434h313l-51 -301h121q212 0 310 -106t62 -310q-37 -204 -174.5 -317t-347.5 -113h-121l-51 -287h-313zM479 545h92q93 0 138.5 46.5t60.5 129.5q13 77 -16.5 114t-124.5 37h-92z" />
<glyph unicode="&#xdf;" horiz-adv-x="1064" d="M80 0l180 1026q37 205 156 310.5t344 105.5q89 0 157 -16t109.5 -46t67.5 -66t34.5 -82t8 -88.5t-8.5 -90.5l-8 -45q-15 -81 -60.5 -147t-125.5 -97q94 -35 141.5 -122.5t24.5 -219.5q-19 -109 -69.5 -193t-122.5 -135t-158 -76.5t-181 -25.5q-59 0 -108 8l45 252 q40 -6 80 -6q79 0 131 41t71 141q10 61 -2 103.5t-44 64.5t-73 31.5t-96 9.5l41 233q101 0 141 28t52 101l8 41q5 32 5 55.5t-7 47.5t-29.5 36.5t-58.5 12.5q-71 0 -105 -46t-49 -138l-178 -1008h-313z" />
<glyph unicode="&#xe0;" horiz-adv-x="907" d="M86 319q51 291 365 340l204 33l7 35q9 58 -11.5 80t-95.5 22q-127 0 -272 -49l-39 205q76 38 192 63t199 25q206 0 284 -87t44 -279l-125 -707h-279l2 119q-35 -63 -102.5 -95t-143.5 -32q-133 0 -194.5 89.5t-34.5 237.5zM399 330q-15 -92 62 -92q49 0 121 41l28 163 l-108 -20q-48 -9 -72 -30t-31 -62zM524 1597h328l59 -409h-286z" />
<glyph unicode="&#xe1;" horiz-adv-x="907" d="M86 319q51 291 365 340l204 33l7 35q9 58 -11.5 80t-95.5 22q-127 0 -272 -49l-39 205q76 38 192 63t199 25q206 0 284 -87t44 -279l-125 -707h-279l2 119q-35 -63 -102.5 -95t-143.5 -32q-133 0 -194.5 89.5t-34.5 237.5zM399 330q-15 -92 62 -92q49 0 121 41l28 163 l-108 -20q-48 -9 -72 -30t-31 -62zM545 1188l207 409h327l-248 -409h-286z" />
<glyph unicode="&#xe2;" horiz-adv-x="907" d="M86 319q51 291 365 340l204 33l7 35q9 58 -11.5 80t-95.5 22q-127 0 -272 -49l-39 205q76 38 192 63t199 25q206 0 284 -87t44 -279l-125 -707h-279l2 119q-35 -63 -102.5 -95t-143.5 -32q-133 0 -194.5 89.5t-34.5 237.5zM317 1188l297 409h271l149 -409h-286l-41 174 l-103 -174h-287zM399 330q-15 -92 62 -92q49 0 121 41l28 163l-108 -20q-48 -9 -72 -30t-31 -62z" />
<glyph unicode="&#xe3;" horiz-adv-x="907" d="M86 319q51 291 365 340l204 33l7 35q9 58 -11.5 80t-95.5 22q-127 0 -272 -49l-39 205q76 38 192 63t199 25q206 0 284 -87t44 -279l-125 -707h-279l2 119q-35 -63 -102.5 -95t-143.5 -32q-133 0 -194.5 89.5t-34.5 237.5zM291 1231q1 6 3.5 15.5t13 36.5t24 52t38 55.5 t53 52.5t71 37t90.5 15q53 0 98.5 -20.5t80 -41t60.5 -20.5q17 0 31 20.5t20 40.5l5 21l235 -63q-1 -5 -3.5 -14t-13 -34t-24 -48t-37.5 -51.5t-52.5 -48.5t-71 -34t-91.5 -14q-43 0 -79.5 13t-57.5 28t-48 28t-52 13q-16 0 -31 -20.5t-22 -41.5l-7 -20zM399 330 q-15 -92 62 -92q49 0 121 41l28 163l-108 -20q-48 -9 -72 -30t-31 -62z" />
<glyph unicode="&#xe4;" horiz-adv-x="907" d="M86 319q51 291 365 340l204 33l7 35q9 58 -11.5 80t-95.5 22q-127 0 -272 -49l-39 205q76 38 192 63t199 25q206 0 284 -87t44 -279l-125 -707h-279l2 119q-35 -63 -102.5 -95t-143.5 -32q-133 0 -194.5 89.5t-34.5 237.5zM330 1339q14 77 69 123.5t133 46.5 q76 0 114.5 -46.5t25.5 -123.5q-13 -78 -67.5 -125t-131.5 -47q-78 0 -117 47t-26 125zM399 330q-15 -92 62 -92q49 0 121 41l28 163l-108 -20q-48 -9 -72 -30t-31 -62zM748 1339q14 77 69 123.5t133 46.5q76 0 115 -46.5t25 -123.5q-13 -78 -67.5 -125t-131.5 -47 q-78 0 -117 47t-26 125z" />
<glyph unicode="&#xe5;" horiz-adv-x="907" d="M86 319q51 291 365 340l204 33l7 35q9 58 -11.5 80t-95.5 22q-127 0 -272 -49l-39 205q76 38 192 63t199 25q206 0 284 -87t44 -279l-125 -707h-279l2 119q-35 -63 -102.5 -95t-143.5 -32q-133 0 -194.5 89.5t-34.5 237.5zM399 330q-15 -92 62 -92q49 0 121 41l28 163 l-108 -20q-48 -9 -72 -30t-31 -62zM502 1417q20 109 106 178.5t193 69.5q108 0 172.5 -70t44.5 -178q-20 -109 -107.5 -179.5t-195.5 -70.5t-170.5 71t-42.5 179zM686 1417q-6 -34 9.5 -52.5t49.5 -18.5q35 0 60 19t31 52t-13 53.5t-53 20.5q-33 0 -55.5 -20t-28.5 -54z" />
<glyph unicode="&#xe6;" horiz-adv-x="1378" d="M86 319q51 291 365 340l204 33l7 35q9 58 -11.5 80t-95.5 22q-127 0 -272 -49l-39 205q76 38 192 63t199 25q193 0 244 -110q41 53 111 81.5t140 28.5q73 0 129 -13t101.5 -43t68.5 -78.5t30.5 -120t-11.5 -167.5q-18 -107 -55 -231h-482q-7 -100 24.5 -143.5 t102.5 -43.5q90 0 262 41l33 -204q-78 -39 -180 -58.5t-190 -19.5q-236 0 -306 123q-29 -40 -74 -67t-94.5 -38t-81.5 -14.5t-61 -3.5q-155 0 -221 88.5t-39 238.5zM399 330q-15 -92 62 -92q42 0 147 49q-9 60 2 155l-108 -20q-48 -9 -72 -30t-31 -62zM952 645h211l2 21 q18 94 -1.5 132t-73.5 38q-43 0 -82 -51.5t-56 -139.5z" />
<glyph unicode="&#xe7;" horiz-adv-x="946" d="M127 -485l100 155q96 -35 172 -35q71 0 124 17t59 51q4 22 -19 28.5t-80 6.5h-227l33 110l129 164q-134 42 -191.5 170t-17.5 350q49 278 193.5 409.5t353.5 131.5q82 0 172 -20.5t155 -59.5l-104 -202q-47 18 -108 27t-99 9q-204 0 -252 -284q-26 -148 13 -226.5 t139 -78.5q110 0 217 36l31 -204q-120 -60 -271 -74l-65 -82q137 0 196 -45.5t37 -171.5q-11 -60 -42 -106.5t-71.5 -74t-94 -45t-103 -24t-103.5 -6.5q-176 0 -276 74z" />
<glyph unicode="&#xe8;" horiz-adv-x="894" d="M123 320q0 74 12 169l10 62q26 145 74.5 248.5t115 162t143 85t169.5 26.5q73 0 129 -13t101.5 -43t68.5 -78.5t30.5 -120t-11.5 -167.5q-17 -99 -56 -231h-481q-7 -100 24.5 -143.5t102.5 -43.5q90 0 262 41l33 -204q-78 -39 -180.5 -58.5t-190.5 -19.5 q-65 0 -117.5 10.5t-97.5 34t-74 61.5t-48 93t-19 129zM469 645h211l2 21q18 94 -2 132t-74 38q-43 0 -81.5 -51.5t-55.5 -139.5zM504 1597h327l60 -409h-287z" />
<glyph unicode="&#xe9;" horiz-adv-x="894" d="M123 320q0 74 12 169l10 62q26 145 74.5 248.5t115 162t143 85t169.5 26.5q73 0 129 -13t101.5 -43t68.5 -78.5t30.5 -120t-11.5 -167.5q-17 -99 -56 -231h-481q-7 -100 24.5 -143.5t102.5 -43.5q90 0 262 41l33 -204q-78 -39 -180.5 -58.5t-190.5 -19.5 q-65 0 -117.5 10.5t-97.5 34t-74 61.5t-48 93t-19 129zM469 645h211l2 21q18 94 -2 132t-74 38q-43 0 -81.5 -51.5t-55.5 -139.5zM522 1188l207 409h328l-248 -409h-287z" />
<glyph unicode="&#xea;" horiz-adv-x="894" d="M123 320q0 74 12 169l10 62q26 145 74.5 248.5t115 162t143 85t169.5 26.5q73 0 129 -13t101.5 -43t68.5 -78.5t30.5 -120t-11.5 -167.5q-17 -99 -56 -231h-481q-7 -100 24.5 -143.5t102.5 -43.5q90 0 262 41l33 -204q-78 -39 -180.5 -58.5t-190.5 -19.5 q-65 0 -117.5 10.5t-97.5 34t-74 61.5t-48 93t-19 129zM309 1188l297 409h271l149 -409h-287l-41 174l-102 -174h-287zM469 645h211l2 21q18 94 -2 132t-74 38q-43 0 -81.5 -51.5t-55.5 -139.5z" />
<glyph unicode="&#xeb;" horiz-adv-x="894" d="M123 320q0 74 12 169l10 62q26 145 74.5 248.5t115 162t143 85t169.5 26.5q73 0 129 -13t101.5 -43t68.5 -78.5t30.5 -120t-11.5 -167.5q-17 -99 -56 -231h-481q-7 -100 24.5 -143.5t102.5 -43.5q90 0 262 41l33 -204q-78 -39 -180.5 -58.5t-190.5 -19.5 q-65 0 -117.5 10.5t-97.5 34t-74 61.5t-48 93t-19 129zM326 1339q14 77 69 123.5t133 46.5q76 0 115 -46.5t25 -123.5q-13 -78 -67.5 -125t-131.5 -47q-78 0 -117 47t-26 125zM469 645h211l2 21q18 94 -2 132t-74 38q-43 0 -81.5 -51.5t-55.5 -139.5zM743 1339 q14 77 69.5 123.5t133.5 46.5q76 0 114.5 -46.5t24.5 -123.5q-14 -78 -68 -125t-130 -47q-78 0 -117.5 47t-26.5 125z" />
<glyph unicode="&#xec;" horiz-adv-x="528" d="M111 0l188 1065h307l-188 -1065h-307zM231 1597h328l59 -409h-286z" />
<glyph unicode="&#xed;" horiz-adv-x="528" d="M111 0l188 1065h307l-188 -1065h-307zM332 1188l207 409h327l-248 -409h-286z" />
<glyph unicode="&#xee;" horiz-adv-x="528" d="M111 0l188 1065h307l-188 -1065h-307zM115 1188l297 409h270l149 -409h-286l-41 174l-103 -174h-286z" />
<glyph unicode="&#xef;" horiz-adv-x="528" d="M111 0l188 1065h307l-188 -1065h-307zM121 1339q14 77 69.5 123.5t133.5 46.5q76 0 114.5 -46.5t24.5 -123.5q-13 -78 -67.5 -125t-131.5 -47q-78 0 -117 47t-26 125zM539 1339q14 77 69 123.5t133 46.5q77 0 115 -46.5t25 -123.5q-13 -78 -67.5 -125t-131.5 -47 q-78 0 -117 47t-26 125z" />
<glyph unicode="&#xf0;" horiz-adv-x="1019" d="M125 335.5q2 43.5 10 90.5l6 43q12 64 35.5 124.5t59.5 114.5t80.5 94t102.5 63.5t122 23.5q29 0 54 -4.5t35 -9.5l11 -5l-51 140h-293l37 204h190l-63 179h336l63 -179h258l-37 -204h-153q22 -59 34 -92.5t30.5 -91t27.5 -100.5t17.5 -96.5t7.5 -104t-9 -99.5 q-12 -68 -34 -126.5t-63.5 -116t-98 -98.5t-141.5 -66t-189 -25q-76 0 -136.5 13t-102.5 35.5t-72 55t-46 69.5t-23 81t-5 87.5zM438 446q-19 -107 9 -158.5t106 -51.5q75 0 119 51t63 159q20 109 -5.5 161t-100.5 52q-78 0 -124.5 -52t-66.5 -161z" />
<glyph unicode="&#xf1;" horiz-adv-x="948" d="M70 0l188 1065h272v-107q110 115 285 115q122 0 175.5 -68t23.5 -233l-135 -772h-306l136 764q7 42 -2.5 54.5t-36.5 12.5q-83 0 -156 -40l-139 -791h-305zM297 1231q1 6 3.5 15.5t13 36.5t24 52t38 55.5t53 52.5t71 37t90.5 15q53 0 98.5 -20.5t80 -41t60.5 -20.5 q17 0 31 20.5t20 40.5l5 21l235 -63q-1 -5 -3.5 -14t-13 -34t-24 -48t-37.5 -51.5t-52.5 -48.5t-71 -34t-91.5 -14q-43 0 -79.5 13t-57.5 28t-48 28t-52 13q-16 0 -31 -20.5t-22 -41.5l-7 -20z" />
<glyph unicode="&#xf2;" horiz-adv-x="960" d="M122 311q-9 87 13 201l8 41q25 140 77 243t123.5 162t151.5 87t171 28q72 0 132 -17t110.5 -55t79.5 -98.5t38.5 -147.5t-12.5 -202l-8 -41q-25 -139 -78.5 -242t-126 -162.5t-154 -87.5t-172.5 -28q-72 0 -131.5 17.5t-108.5 55.5t-76.5 98.5t-36.5 147.5zM440 512 q-50 -279 78 -279q132 0 182 279l9 41q47 278 -84 278q-129 0 -176 -278zM502 1597h327l60 -409h-287z" />
<glyph unicode="&#xf3;" horiz-adv-x="960" d="M122 311q-9 87 13 201l8 41q25 140 77 243t123.5 162t151.5 87t171 28q72 0 132 -17t110.5 -55t79.5 -98.5t38.5 -147.5t-12.5 -202l-8 -41q-25 -139 -78.5 -242t-126 -162.5t-154 -87.5t-172.5 -28q-72 0 -131.5 17.5t-108.5 55.5t-76.5 98.5t-36.5 147.5zM440 512 q-50 -279 78 -279q132 0 182 279l9 41q47 278 -84 278q-129 0 -176 -278zM551 1188l207 409h327l-247 -409h-287z" />
<glyph unicode="&#xf4;" horiz-adv-x="960" d="M122 311q-9 87 13 201l8 41q25 140 77 243t123.5 162t151.5 87t171 28q72 0 132 -17t110.5 -55t79.5 -98.5t38.5 -147.5t-12.5 -202l-8 -41q-25 -139 -78.5 -242t-126 -162.5t-154 -87.5t-172.5 -28q-72 0 -131.5 17.5t-108.5 55.5t-76.5 98.5t-36.5 147.5zM332 1188 l297 409h270l150 -409h-287l-41 174l-103 -174h-286zM440 512q-50 -279 78 -279q132 0 182 279l9 41q47 278 -84 278q-129 0 -176 -278z" />
<glyph unicode="&#xf5;" horiz-adv-x="960" d="M122 311q-9 87 13 201l8 41q25 140 77 243t123.5 162t151.5 87t171 28q72 0 132 -17t110.5 -55t79.5 -98.5t38.5 -147.5t-12.5 -202l-8 -41q-25 -139 -78.5 -242t-126 -162.5t-154 -87.5t-172.5 -28q-72 0 -131.5 17.5t-108.5 55.5t-76.5 98.5t-36.5 147.5zM303 1231 q1 6 3.5 15.5t13 36.5t24 52t38 55.5t53 52.5t71 37t90.5 15q42 0 80 -13t61.5 -28t50.5 -28t48 -13q17 0 31 20.5t19 40.5l5 21l235 -63q-2 -10 -7 -26.5t-27.5 -58.5t-52 -74t-84 -58.5t-121.5 -26.5q-43 0 -79.5 13t-58 28t-48.5 28t-52 13q-16 0 -31 -20.5t-21 -41.5 l-7 -20zM440 512q-50 -279 78 -279q132 0 182 279l9 41q47 278 -84 278q-129 0 -176 -278z" />
<glyph unicode="&#xf6;" horiz-adv-x="960" d="M122 311q-9 87 13 201l8 41q25 140 77 243t123.5 162t151.5 87t171 28q72 0 132 -17t110.5 -55t79.5 -98.5t38.5 -147.5t-12.5 -202l-8 -41q-25 -139 -78.5 -242t-126 -162.5t-154 -87.5t-172.5 -28q-72 0 -131.5 17.5t-108.5 55.5t-76.5 98.5t-36.5 147.5zM338 1339 q14 77 69.5 123.5t133.5 46.5q76 0 114.5 -46.5t24.5 -123.5q-13 -78 -67.5 -125t-131.5 -47q-78 0 -117 47t-26 125zM440 512q-50 -279 78 -279q132 0 182 279l9 41q47 278 -84 278q-129 0 -176 -278zM756 1339q14 77 69 123.5t133 46.5q76 0 115 -46.5t25 -123.5 q-13 -78 -67.5 -125t-131.5 -47q-78 0 -117 47t-26 125z" />
<glyph unicode="&#xf7;" horiz-adv-x="958" d="M168 563l47 256h819l-47 -256h-819zM375 354q10 69 68.5 118.5t127.5 49.5t111 -49.5t31 -118.5q-12 -69 -72 -118.5t-129 -49.5t-109 49.5t-28 118.5zM494 1028q10 69 68.5 118.5t127.5 49.5t110.5 -49.5t30.5 -118.5q-12 -69 -71.5 -118.5t-128.5 -49.5t-109 49.5 t-28 118.5z" />
<glyph unicode="&#xf8;" horiz-adv-x="960" d="M122 311q-9 87 13 201l8 41q25 140 77 243t123.5 162t151.5 87t171 28q72 0 132 -17t110.5 -55t79.5 -98.5t38.5 -147.5t-12.5 -202l-8 -41q-25 -139 -78.5 -242t-126 -162.5t-154 -87.5t-172.5 -28q-72 0 -131.5 17.5t-108.5 55.5t-76.5 98.5t-36.5 147.5zM428 387 l193 444h-7q-62 0 -101 -66t-64 -212l-9 -41q-12 -74 -12 -125zM522 233q30 0 55.5 13.5t43.5 38.5t31.5 51t23 62t14.5 59.5t10 54.5l9 41q11 77 8 137z" />
<glyph unicode="&#xf9;" horiz-adv-x="948" d="M121 293l137 772h305l-135 -764q-7 -42 3 -55t36 -13q81 0 156 41l139 791h305l-188 -1065h-273v106q-109 -114 -287 -114q-122 0 -174.5 68t-23.5 233zM502 1597h327l60 -409h-287z" />
<glyph unicode="&#xfa;" horiz-adv-x="948" d="M121 293l137 772h305l-135 -764q-7 -42 3 -55t36 -13q81 0 156 41l139 791h305l-188 -1065h-273v106q-109 -114 -287 -114q-122 0 -174.5 68t-23.5 233zM530 1188l207 409h328l-248 -409h-287z" />
<glyph unicode="&#xfb;" horiz-adv-x="948" d="M121 293l137 772h305l-135 -764q-7 -42 3 -55t36 -13q81 0 156 41l139 791h305l-188 -1065h-273v106q-109 -114 -287 -114q-122 0 -174.5 68t-23.5 233zM326 1188l297 409h270l149 -409h-286l-41 174l-103 -174h-286z" />
<glyph unicode="&#xfc;" horiz-adv-x="948" d="M121 293l137 772h305l-135 -764q-7 -42 3 -55t36 -13q81 0 156 41l139 791h305l-188 -1065h-273v106q-109 -114 -287 -114q-122 0 -174.5 68t-23.5 233zM334 1339q14 77 69.5 123.5t133.5 46.5q76 0 114.5 -46.5t24.5 -123.5q-13 -78 -67.5 -125t-131.5 -47 q-78 0 -117 47t-26 125zM752 1339q14 77 69 123.5t133 46.5q76 0 115 -46.5t25 -123.5q-13 -78 -67.5 -125t-131.5 -47q-78 0 -117 47t-26 125z" />
<glyph unicode="&#xfd;" horiz-adv-x="985" d="M135 -365l227 453l-165 977h317l74 -559l260 559h317l-723 -1430h-307zM555 1188l207 409h328l-248 -409h-287z" />
<glyph unicode="&#xfe;" horiz-adv-x="976" d="M-2 -410l324 1844h305l-80 -463q83 102 215 102q95 0 158.5 -42t89.5 -116t29.5 -174t-19.5 -217q-46 -258 -167.5 -395t-281.5 -137q-150 0 -180 104l-88 -506h-305zM422 272q43 -34 94 -34q73 0 124 77t73 209q12 80 15 147t-23.5 111.5t-83.5 44.5q-52 0 -107 -34z " />
<glyph unicode="&#xff;" horiz-adv-x="985" d="M135 -365l227 453l-165 977h317l74 -559l260 559h317l-723 -1430h-307zM369 1339q14 77 69 123.5t133 46.5q77 0 115 -46.5t25 -123.5q-13 -78 -67.5 -125t-131.5 -47q-78 0 -117 47t-26 125zM786 1339q14 77 69.5 123.5t133.5 46.5q76 0 114.5 -46.5t24.5 -123.5 q-14 -78 -68 -125t-130 -47q-78 0 -117.5 47t-26.5 125z" />
<glyph unicode="&#x110;" horiz-adv-x="1116" d="M104 598l46 246h145l102 590h289q204 0 325 -47t168 -137t48.5 -222t-33.5 -303q-18 -107 -38 -186t-50.5 -158.5t-69.5 -135t-95.5 -104.5t-128.5 -78.5t-167.5 -46t-214.5 -16.5h-285l105 598h-146zM504 260h14q44 0 80 7t64.5 17t52.5 31t41.5 40.5t33 54t25.5 62 t20.5 74.5t17.5 82t17 93q14 77 20 116.5t11.5 97.5t0 86t-18.5 63.5t-39 51t-66.5 27t-97.5 11.5h-14l-58 -330h146l-45 -246h-146z" />
<glyph unicode="&#x111;" horiz-adv-x="1036" d="M141 520q22 123 57.5 219t79.5 158t98.5 102.5t110.5 57t119 16.5q113 0 176 -55l23 129h-305l35 205h305l26 143h305l-26 -143h121l-35 -205h-121l-203 -1147h-278l8 119q-24 -55 -93 -91t-157 -36q-161 0 -226.5 133.5t-19.5 394.5zM435 374q0 -63 26.5 -99.5 t79.5 -36.5q57 0 108 34l99 547q-36 8 -72 8q-86 0 -142 -68t-85 -237q-14 -85 -14 -148z" />
<glyph unicode="&#x131;" horiz-adv-x="528" d="M111 0l188 1065h307l-188 -1065h-307z" />
<glyph unicode="&#x141;" horiz-adv-x="919" d="M121 637l35 205h172l104 592h313l-104 -592h225l-35 -205h-225l-67 -377h397l-45 -260h-711l113 637h-172z" />
<glyph unicode="&#x142;" horiz-adv-x="808" d="M121 637l35 205h239l105 592h313l-104 -592h239l-35 -205h-239l-113 -637h-313l112 637h-239z" />
<glyph unicode="&#x152;" horiz-adv-x="1529" d="M157.5 437q3.5 67 10.5 126t20 131l7 43q15 84 31 150t42 142t57.5 133t78.5 112t103.5 90t134 56.5t169.5 21.5q63 0 104 -8h818l-45 -260h-494q24 -120 4 -306h348l-47 -260h-346q-43 -217 -119 -348h492l-45 -260h-815q-47 -8 -111 -8q-81 0 -144.5 15.5t-107 45.5 t-74 68t-46 91t-22.5 105.5t-3.5 119.5zM488 413q1 -37 9 -62t21 -46.5t35 -32t51 -10.5q26 0 49.5 9.5t41.5 23.5t35 40t29 48.5t24.5 59.5t20 63.5t17 70t14.5 69t13 69.5q8 49 13 78.5t11 77t7 78t0 69t-9 62t-20.5 46t-34.5 33t-51 10.5q-39 0 -71 -18.5t-56 -55.5 t-41.5 -75.5t-32.5 -98t-23.5 -101.5t-19.5 -105q-8 -46 -13.5 -78.5t-11.5 -77.5t-7 -77t0 -69z" />
<glyph unicode="&#x153;" horiz-adv-x="1456" d="M122 311q-9 87 13 201l8 41q25 140 77 243t123.5 162t151.5 87t171 28q206 0 252 -127q85 127 290 127q73 0 129 -13t101.5 -43t68.5 -78.5t30.5 -120t-11.5 -167.5q-17 -99 -56 -231h-481q-7 -100 24.5 -143.5t102.5 -43.5q90 0 262 41l33 -204q-78 -39 -180.5 -58.5 t-190.5 -19.5q-91 0 -164.5 34t-101.5 95q-51 -59 -135 -94t-164 -35q-72 0 -131.5 17.5t-108.5 55.5t-76.5 98.5t-36.5 147.5zM440 512q-50 -279 78 -279q132 0 182 279l9 41q47 278 -84 278q-129 0 -176 -278zM1030 645h211l2 21q18 94 -2 132t-74 38q-43 0 -81.5 -51.5 t-55.5 -139.5z" />
<glyph unicode="&#x160;" horiz-adv-x="1005" d="M55 94l117 225q152 -57 289 -57q199 0 223 139q7 43 -3 77t-39 60.5t-55 43t-71 39.5q-27 15 -49.5 28t-48.5 29t-45.5 31.5t-41.5 34t-36.5 37t-30 41t-23 44.5t-15 49t-5 54t5.5 59q39 224 172 319t375 95q88 0 191.5 -25.5t189.5 -73.5l-117 -225q-170 56 -288 56 q-178 0 -199 -115q-6 -38 3 -68.5t37.5 -56.5t54 -42t73.5 -42q36 -20 58.5 -33t54 -33t51 -35.5t43.5 -38.5t37 -44t26.5 -49.5t18.5 -58t5 -66t-7 -76.5q-38 -221 -183.5 -322.5t-388.5 -101.5q-91 0 -192.5 25t-186.5 77zM473 1966h287l41 -174l102 174h287l-295 -410 h-270z" />
<glyph unicode="&#x161;" horiz-adv-x="950" d="M55 96l121 193q52 -22 122.5 -36.5t117.5 -14.5t83.5 16t41.5 51q3 19 -4 38t-15.5 30.5t-31 28t-30.5 21t-34 19.5q-8 5 -12 7q-108 59 -147 92q-105 90 -83 219q56 313 406 313q103 0 207.5 -25.5t167.5 -74.5l-117 -201q-148 55 -254 55q-38 0 -67 -12t-33 -37 q-2 -14 1.5 -27.5t15 -26t21.5 -22t29.5 -21t28 -16.5t29 -15t22.5 -11q113 -54 172 -132.5t39 -195.5q-16 -88 -57 -151.5t-101 -99t-128 -52t-148 -16.5q-101 0 -201.5 25.5t-161.5 78.5zM362 1597h287l41 -174l103 174h286l-297 -409h-270z" />
<glyph unicode="&#x178;" horiz-adv-x="1058" d="M260 1434h338l98 -498l269 498h338l-523 -883l-96 -551h-313l96 551zM457 1708q14 77 69 123.5t133 46.5q77 0 115 -47t25 -123q-13 -78 -68.5 -125t-132.5 -47q-78 0 -116.5 47t-24.5 125zM874 1708q14 77 69.5 123.5t133.5 46.5q77 0 115 -47t25 -123 q-13 -78 -68.5 -125t-132.5 -47q-78 0 -117 47t-25 125z" />
<glyph unicode="&#x17d;" horiz-adv-x="987" d="M49 0l29 162l649 1012h-471l45 260h870l-28 -162l-647 -1012h469l-45 -260h-871zM473 1966h287l41 -174l102 174h287l-295 -410h-270z" />
<glyph unicode="&#x17e;" horiz-adv-x="937" d="M49 0l27 145l508 678h-389l43 242h774l-27 -145l-508 -678h389l-43 -242h-774zM360 1597h287l41 -174l103 174h286l-297 -409h-270z" />
<glyph unicode="&#x192;" horiz-adv-x="821" d="M8 51l86 197q48 -25 107 -25q56 0 82.5 33.5t38.5 99.5l84 484h-160l41 225h159l3 14q34 189 128 282t261 93q83 0 144.5 -17t84.5 -42l-86 -197q-48 25 -107 25q-56 0 -81 -33t-37 -100l-4 -25h200l-41 -225h-200l-82 -473q-36 -190 -130 -282.5t-261 -92.5 q-83 0 -144 17t-86 42z" />
<glyph unicode="&#x2c6;" horiz-adv-x="815" d="M258 1188l297 409h270l150 -409h-287l-41 174l-102 -174h-287z" />
<glyph unicode="&#x2c7;" horiz-adv-x="815" d="M332 1597h286l41 -174l103 174h287l-297 -409h-271z" />
<glyph unicode="&#x2d8;" horiz-adv-x="813" d="M297 1305.5q-9 66.5 8 142.5h291q-12 -64 -3 -88.5t46 -24.5t57.5 25.5t32.5 87.5h291q-30 -165 -134 -264t-292 -99q-97 0 -162.5 28t-95.5 77t-39 115.5z" />
<glyph unicode="&#x2d9;" horiz-adv-x="440" d="M272 1264q14 77 68.5 123.5t132.5 46.5q77 0 115.5 -47t25.5 -123q-13 -78 -68 -125t-132 -47q-78 0 -117 47t-25 125z" />
<glyph unicode="&#x2da;" horiz-adv-x="614" d="M299 1417q20 109 106 178.5t193 69.5q108 0 172.5 -70t44.5 -178q-20 -109 -107.5 -179.5t-195.5 -70.5t-170.5 71t-42.5 179zM483 1417q-6 -34 10 -52.5t50 -18.5t59 19t31 52t-13 53.5t-53 20.5q-33 0 -55.5 -20t-28.5 -54z" />
<glyph unicode="&#x2db;" horiz-adv-x="573" />
<glyph unicode="&#x2dc;" horiz-adv-x="886" d="M266 1231q1 6 3.5 15.5t13 36.5t24 52t38 55.5t53 52.5t71 37t90.5 15q42 0 80 -13t61.5 -28t50.5 -28t48 -13q17 0 31 20.5t19 40.5l5 21l236 -63q-1 -5 -3.5 -14t-13 -34t-24 -48t-37.5 -51.5t-52.5 -48.5t-71 -34t-91.5 -14q-43 0 -79.5 13t-58 28t-48.5 28t-52 13 q-16 0 -31 -20.5t-22 -41.5l-6 -20z" />
<glyph unicode="&#x2dd;" horiz-adv-x="927" d="M195 942l260 492h307l-301 -492h-266zM584 942l260 492h307l-301 -492h-266z" />
<glyph unicode="&#x3bc;" horiz-adv-x="1060" d="M111 -410l260 1475h305l-135 -764q-7 -41 11.5 -54.5t49.5 -13.5q58 0 133 41l139 791h306l-189 -1065h-272v106q-60 -114 -156 -114q-57 0 -71 31l-76 -433h-305z" />
<glyph unicode="&#xe01;" horiz-adv-x="1069" d="M104 0l66 367q35 205 233 264l-223 49l19 115q31 174 176.5 287.5t349.5 113.5q97 0 169 -17t126 -54t81 -96t34 -144t-15 -197l-121 -688h-315l123 698q24 135 -7 189.5t-120 54.5q-60 0 -113 -47t-65 -115l192 -43l-18 -106q-154 -47 -189 -244l-67 -387h-316z" />
<glyph unicode="&#xe02;" horiz-adv-x="1044" d="M164.5 288q0.5 60 13.5 134l17 88q11 66 38.5 124.5t59 99t62 74.5t53 63.5t26.5 52.5q3 20 -10 28.5t-39 8.5q-41 0 -104 -21l-45 197q143 57 280 57q113 0 176 -52t43 -169q-11 -60 -45 -124.5t-69 -111t-68 -107t-43 -114.5l-16 -94q-18 -106 -1 -142t85 -36 q69 0 103 37t52 141l135 766h316l-135 -766q-18 -103 -52 -179t-78 -124t-106 -76.5t-128.5 -39.5t-152.5 -11q-60 0 -108 5.5t-91 18.5t-73 35t-53 55t-33 77.5t-9.5 104.5z" />
<glyph unicode="&#xe03;" horiz-adv-x="1091" d="M213.5 288q0.5 60 13.5 134l17 88q10 59 34 113.5t61.5 103.5t62 76.5t65.5 68.5q-52 -24 -98 -24q-56 0 -92.5 23.5t-50 60.5t-13 83.5t11.5 90t29 82.5h240q-9 -20 -15.5 -40.5t-10.5 -42.5t2.5 -36t23.5 -14q41 0 60.5 33.5t29.5 99.5h241l-24 -146 q-14 -76 -50.5 -152t-73.5 -128t-72 -119t-46 -127l-16 -94q-18 -104 0 -141t84 -37q67 0 101 37.5t52 140.5l135 766h316l-135 -766q-22 -128 -66.5 -214t-113 -132.5t-147.5 -65t-187 -18.5q-60 0 -108 5.5t-91 18.5t-73.5 35t-53 55t-33 77.5t-10 104.5z" />
<glyph unicode="&#xe04;" horiz-adv-x="1093" d="M70 0l120 680q21 117 58.5 206t87 147.5t116.5 95t141 52t165 15.5q76 0 135.5 -10.5t110.5 -35t83.5 -63.5t53.5 -96.5t20 -134.5t-16 -176l-121 -680h-315l120 680q27 154 1 208t-117 54q-89 0 -134.5 -54t-72.5 -208l-27 -143q30 47 79.5 76.5t94.5 29.5h78l-43 -252 h-78q-60 0 -114 -34.5t-62 -75.5l-49 -281h-315z" />
<glyph unicode="&#xe05;" horiz-adv-x="1095" d="M70 0l147 840q16 85 39 148.5t60 115.5t92.5 79t128.5 27q188 0 198 -143q62 143 250 143q97 0 147 -48.5t55 -131t-13 -190.5l-148 -840h-315l149 852q10 29 6.5 59.5t-30.5 30.5q-18 0 -30 -13.5t-16.5 -28t-9.5 -40.5h-164q4 20 5 31t0 24.5t-8.5 20t-22.5 6.5 q-35 0 -49 -63q-1 -4 -6 -27l-56 -315q30 47 79.5 76.5t94.5 29.5h78l-43 -252h-78q-60 0 -114 -34.5t-62 -75.5l-49 -281h-315z" />
<glyph unicode="&#xe06;" horiz-adv-x="1114" d="M154 0l90 510q6 35 17.5 68t30.5 64.5t34 54.5t42.5 53.5t40 44t43 43t35.5 34.5q-52 -24 -120 -24q-69 0 -107.5 35t-44 89.5t5 110t33.5 105.5h260q-9 -20 -15.5 -40.5t-10.5 -42.5t2.5 -36t23.5 -14q41 0 60.5 33.5t29.5 99.5h242l-25 -146q-11 -63 -39.5 -123.5 t-61.5 -108.5t-66 -94.5t-59.5 -98t-35.5 -101.5l-31 -178q53 -86 162 -86q36 0 64 26t34 62l150 848h315l-151 -858q-16 -88 -50 -155t-80.5 -106t-98.5 -58t-109 -19q-41 0 -78.5 7t-78 23.5t-73 49.5t-51.5 80l-47 -152h-282z" />
<glyph unicode="&#xe07;" horiz-adv-x="1056" d="M227 1188h324l86 -918q62 105 120 250.5t77 253.5q28 170 -78 170q-14 0 -31 -2t-27 -4l-10 -2l-20 221q7 4 21.5 10.5t65 17.5t107.5 11q171 0 246.5 -100.5t38.5 -311.5q-15 -86 -47.5 -177t-67.5 -162t-90 -160.5t-92.5 -144t-99.5 -140.5h-373z" />
<glyph unicode="&#xe08;" horiz-adv-x="980" d="M154 471l43 246h225q60 0 98.5 -29.5t44.5 -81.5l35 -313q53 94 98.5 222.5t61.5 219.5q12 53 7.5 90t-14 60.5t-33 36.5t-48.5 17.5t-60 4.5q-138 0 -321 -55l-58 217q88 40 214.5 65t228.5 25q93 0 163 -14t124.5 -45.5t83 -82.5t38.5 -125.5t-10 -174.5 q-61 -344 -377 -754h-342l-51 451q-3 20 -22 20h-129z" />
<glyph unicode="&#xe09;" horiz-adv-x="1038" d="M135 330l62 346h315l-59 -336q-6 -36 13.5 -62t55.5 -26q109 0 191 86l67 383q9 48 10 83.5t-6.5 60t-19.5 40.5t-33 24.5t-43.5 11.5t-54.5 3q-72 0 -163 -15t-151 -40l-55 217q88 40 213.5 65t222.5 25q74 0 132.5 -9t111 -30.5t85.5 -57t56.5 -88.5t24 -124.5 t-13.5 -165.5l-127 -721h-283l6 152q-120 -160 -338 -160q-121 0 -185 83t-34 255z" />
<glyph unicode="&#xe0a;" horiz-adv-x="1044" d="M164.5 288q0.5 60 13.5 134l17 88q11 66 38.5 124.5t59 99t62 74.5t53 63.5t26.5 52.5q3 20 -10 28.5t-39 8.5q-41 0 -104 -21l-45 197q143 57 280 57q113 0 176 -52t43 -169q-11 -60 -45 -124.5t-69 -111t-68 -107t-43 -114.5l-16 -94q-18 -106 -1 -142t85 -36 q69 0 103 37t52 141l29 158q5 35 6 70.5t-12 68t-39 47.5l24 137q207 75 181 316h301q9 -131 -47 -235t-181 -157q115 -56 80 -254l-26 -151q-18 -103 -52 -179t-78 -124t-106 -76.5t-128.5 -39.5t-152.5 -11q-60 0 -108 5.5t-91 18.5t-73 35t-53 55t-33 77.5t-9.5 104.5z " />
<glyph unicode="&#xe0b;" horiz-adv-x="1091" d="M213.5 288q0.5 60 13.5 134l17 88q10 59 34 113.5t61.5 103.5t62 76.5t65.5 68.5q-52 -24 -98 -24q-56 0 -92.5 23.5t-50 60.5t-13 83.5t11.5 90t29 82.5h240q-9 -20 -15.5 -40.5t-10.5 -42.5t2.5 -36t23.5 -14q41 0 60.5 33.5t29.5 99.5h241l-24 -146 q-14 -76 -50.5 -152t-73.5 -128t-72 -119t-46 -127l-16 -94q-18 -104 0 -141t84 -37q67 0 101 37.5t52 140.5l29 158q5 35 6 70.5t-12 68t-39 47.5l24 137q207 75 181 316h301q9 -131 -47 -235t-181 -157q115 -56 80 -254l-26 -151q-22 -128 -66.5 -214t-113 -132.5 t-147.5 -65t-187 -18.5q-60 0 -108 5.5t-91 18.5t-73.5 35t-53 55t-33 77.5t-10 104.5z" />
<glyph unicode="&#xe0c;" horiz-adv-x="1568" d="M141 326l4 20q35 203 258 285l-223 49l19 115q31 175 172 288t344 113q244 0 339.5 -117t45.5 -391l-62 -350q25 -41 54.5 -63.5t72.5 -22.5q33 0 52 20.5t26 67.5l150 848h315l-152 -858q-31 -175 -116.5 -256.5t-210.5 -81.5q-171 0 -236 160l-47 -152h-282l122 698 q24 138 -2 191t-114 53q-59 0 -107.5 -46.5t-60.5 -115.5l192 -43l-18 -106q-94 -29 -143 -87t-64 -153l-2 -8q-14 -80 15.5 -110t127.5 -21l-43 -246q-55 -6 -108 -6q-82 0 -145 18t-108.5 55.5t-63 101.5t-1.5 151z" />
<glyph unicode="&#xe0d;" horiz-adv-x="1576" d="M141 326l4 20q35 203 258 285l-223 49l19 115q31 175 172 288t344 113q244 0 339.5 -117t45.5 -391l-43 -244q-18 -111 -12 -143q11 -55 83 -55q31 0 53.5 10t36.5 24t24.5 43t15.5 53t12 68l131 744h315l-125 -715q-15 -87 -32.5 -150t-44.5 -119.5t-63.5 -93.5 t-88.5 -64.5t-120.5 -39.5t-158.5 -12q-176 0 -259.5 51.5t-94 157.5t18.5 270l38 225q24 138 -2 191t-114 53q-59 0 -107.5 -46.5t-60.5 -115.5l192 -43l-18 -106q-94 -29 -143 -87t-64 -153l-2 -8q-14 -80 15.5 -110t127.5 -21l-43 -246q-55 -6 -108 -6q-82 0 -145 18 t-108.5 55.5t-63 101.5t-1.5 151zM655 -51h287q-9 -27 -13.5 -43t-5.5 -35.5t6.5 -29.5t25 -17.5t46.5 -7.5h455l-39 -226h-467q-220 0 -290.5 82t-4.5 277z" />
<glyph unicode="&#xe0e;" horiz-adv-x="1071" d="M18 -410q-9 172 93 268.5t270 96.5q98 0 176.5 -31t101.5 -74l150 848q24 135 -7 189.5t-120 54.5q-60 0 -113 -47t-65 -115l192 -43l-18 -106q-21 -6 -37.5 -13.5t-29.5 -18.5t-22.5 -19t-17 -25t-12 -25t-9 -30.5t-6.5 -31.5t-6 -38t-6 -39l-12 -63q-17 -98 -48.5 -164 t-77.5 -102t-99.5 -51t-124.5 -15q-62 0 -150 10l43 246q17 -3 28.5 -3.5t28 -0.5t28.5 4.5t24.5 13t20.5 24.5t12 38l10 55q11 58 20.5 89.5t30 64t53.5 53.5t87 41l-224 49l19 115q31 174 176.5 287.5t349.5 113.5q97 0 169 -17t126 -54t81 -96t34 -144t-15 -197 l-192 -1098h-305q-85 138 -189 138q-39 0 -65 -16t-33.5 -38t-10.5 -45.5t3 -38.5h-312z" />
<glyph unicode="&#xe0f;" horiz-adv-x="1071" d="M-12 -406l43 246q38 -7 79.5 -5.5t79.5 10t74.5 36t63.5 72.5h176q3 -63 32.5 -97t63.5 -34q25 0 43.5 20.5t24.5 55.5l141 800q24 135 -7 189.5t-120 54.5q-60 0 -113 -47t-65 -115l192 -43l-18 -106q-21 -6 -37.5 -13.5t-29.5 -18.5t-22.5 -19t-17 -25t-12 -25 t-9 -30.5t-6.5 -31.5t-6 -38t-6 -39l-12 -63q-17 -98 -48.5 -164t-77.5 -102t-99.5 -51t-124.5 -15q-62 0 -150 10l43 246q17 -3 28.5 -3.5t28 -0.5t28.5 4.5t24.5 13t20.5 24.5t12 38l10 55q11 58 20.5 89.5t30 64t53.5 53.5t87 41l-224 49l19 115q31 174 176.5 287.5 t349.5 113.5q97 0 169 -17t126 -54t81 -96t34 -144t-15 -197l-139 -790q-27 -156 -125 -236t-237 -80q-90 0 -156 33.5t-84 103.5q-100 -133 -283 -133q-36 0 -110 8z" />
<glyph unicode="&#xe10;" horiz-adv-x="1003" d="M-27 -453l43 246q38 -7 79.5 -5.5t79.5 10t74.5 36t63.5 72.5h176q6 -131 95 -131q25 0 43 15t26 60l15 76h274l-14 -76q-54 -315 -322 -315q-90 0 -155.5 33.5t-83.5 103.5q-100 -133 -283 -133q-37 0 -111 8zM154 471l43 246h225q60 0 98.5 -29.5t44.5 -81.5l35 -313 q54 96 100.5 221t61.5 213q20 119 -24 168t-136 49q-69 0 -157.5 -20t-157.5 -47l-58 219q178 77 428 108l613 82l-43 -242l-232 -30q55 -30 75.5 -102t2.5 -164q-60 -340 -375 -748h-342l-51 451q-3 20 -22 20h-129z" />
<glyph unicode="&#xe11;" horiz-adv-x="1243" d="M215.5 972.5q-5.5 54.5 5 110t33.5 105.5h240q-9 -20 -15.5 -40.5t-10.5 -42.5t2.5 -36t23.5 -14q41 0 60.5 33.5t29.5 99.5h221l-17 -92q163 100 281 100q142 0 214.5 -80.5t45.5 -236.5l-155 -879h-316l154 870q6 33 -11 49.5t-49 16.5q-75 0 -141.5 -56t-85.5 -157 l-127 -723h-315l104 592q27 166 123 282q-80 -26 -143 -26q-69 0 -107.5 35t-44 89.5z" />
<glyph unicode="&#xe12;" horiz-adv-x="1607" d="M140.5 346q-0.5 102 23.5 238q38 213 65 303q97 323 308 323q188 0 198 -143q62 143 246 143q73 0 118.5 -27t63.5 -79t18 -115.5t-16 -148.5l-88 -502q25 -41 54.5 -63.5t72.5 -22.5q33 0 52 20.5t26 67.5l150 848h315l-152 -858q-31 -175 -116.5 -256.5t-210.5 -81.5 q-171 0 -236 160l-47 -152h-283l150 852q10 29 8 59.5t-29 30.5q-16 0 -27 -13.5t-15 -27.5t-9 -41h-164q4 20 5 31t0 24.5t-8.5 20t-22.5 6.5q-17 0 -31.5 -22.5t-29 -80.5t-22 -96.5t-23.5 -130.5q-3 -19 -5 -28q-16 -92 -19 -153.5t6.5 -98t31 -53.5t54.5 -21t77 0 l-45 -254q-57 -8 -121 -8q-78 0 -135 16.5t-101 57.5t-65 107.5t-21.5 168.5z" />
<glyph unicode="&#xe13;" horiz-adv-x="1568" d="M141 326l4 20q35 203 258 285l-223 49l19 115q31 175 172 288t344 113q244 0 339.5 -117t45.5 -391l-62 -348q-7 -47 4.5 -67.5t44.5 -20.5q74 0 156 86l150 850h315l-209 -1188h-282l6 152q-120 -160 -293 -160q-126 0 -183 81.5t-26 256.5l65 368q24 138 -2 191 t-114 53q-59 0 -107.5 -46.5t-60.5 -115.5l192 -43l-18 -106q-94 -29 -143 -87t-64 -153l-2 -8q-14 -80 15.5 -110t127.5 -21l-43 -246q-55 -6 -108 -6q-82 0 -145 18t-108.5 55.5t-63 101.5t-1.5 151z" />
<glyph unicode="&#xe14;" horiz-adv-x="1079" d="M138.5 346q-0.5 102 23.5 238q13 76 28 136t39 125.5t54 115t74 95.5t98.5 75.5t128 47t161.5 17.5q76 0 136 -10.5t110.5 -35t82.5 -63.5t52.5 -96.5t19.5 -134.5t-16 -176l-120 -680h-316l121 680q21 103 12 161.5t-38 79.5t-89 21q-26 0 -48.5 -7t-40 -18t-33 -29.5 t-26.5 -35.5t-21 -43.5t-16 -45t-13 -48.5t-10 -46t-8 -45.5t-7 -39.5q-16 -92 -19 -153.5t6.5 -98t31 -53.5t54.5 -21t77 0l-45 -254q-57 -8 -121 -8q-78 0 -135 16.5t-101 57.5t-65 107.5t-21.5 168.5z" />
<glyph unicode="&#xe15;" horiz-adv-x="1087" d="M140.5 346q-0.5 102 23.5 238q38 213 65 303q97 323 308 323q188 0 198 -143q62 143 246 143q73 0 118.5 -27t63.5 -79t18 -115.5t-16 -148.5l-147 -840h-316l150 852q10 29 8 59.5t-29 30.5q-16 0 -27 -13.5t-15 -27.5t-9 -41h-164q4 20 5 31t0 24.5t-8.5 20t-22.5 6.5 q-17 0 -31.5 -22.5t-29 -80.5t-22 -96.5t-23.5 -130.5q-3 -19 -5 -28q-16 -92 -19 -153.5t6.5 -98t31 -53.5t54.5 -21t77 0l-45 -254q-57 -8 -121 -8q-78 0 -135 16.5t-101 57.5t-65 107.5t-21.5 168.5z" />
<glyph unicode="&#xe16;" horiz-adv-x="1069" d="M141 326l4 20q35 203 258 285l-223 49l19 115q31 174 176.5 287.5t349.5 113.5q97 0 169 -17t126 -54t81 -96t34 -144t-15 -197l-121 -688h-315l123 698q24 135 -7 189.5t-120 54.5q-60 0 -113 -47t-65 -115l192 -43l-18 -106q-94 -29 -143 -87t-64 -153l-2 -8 q-14 -80 15.5 -110t127.5 -21l-43 -246q-55 -6 -108 -6q-82 0 -145 18t-108.5 55.5t-63 101.5t-1.5 151z" />
<glyph unicode="&#xe17;" horiz-adv-x="1030" d="M70 0l209 1188h282l-6 -152q122 160 338 160q121 0 185 -83t34 -255l-151 -858h-316l150 848q6 36 -13 62t-55 26q-110 0 -192 -86l-150 -850h-315z" />
<glyph unicode="&#xe18;" horiz-adv-x="1028" d="M140 193q-18 98 7 243l19 107h315l-16 -88q-9 -48 -12 -75.5t-1.5 -56.5t12.5 -43.5t34 -24t59 -9.5q47 0 75.5 9t46 36t25.5 55.5t19 89.5l2 19q6 19 3 42.5t-11 43.5t-31 37t-59 24l-437 88l13 68q18 105 55.5 183t86 126t116.5 77.5t139 40.5t162 11q96 0 212.5 -25 t188.5 -65l-131 -217q-167 55 -293 55q-43 0 -69.5 -2.5t-55 -10.5t-45 -26t-22.5 -47l194 -41q109 -22 176.5 -57.5t96 -82.5t34 -107.5t-9.5 -133.5l-4 -18q-20 -113 -53.5 -189t-93 -130.5t-151 -79.5t-224.5 -25q-174 0 -264 50.5t-108 148.5z" />
<glyph unicode="&#xe19;" horiz-adv-x="1030" d="M127 330l152 858h315l-150 -848q-6 -36 14 -62t56 -26q109 0 191 86l149 850h315l-208 -1188h-283l6 152q-120 -160 -338 -160q-121 0 -185 83t-34 255z" />
<glyph unicode="&#xe1a;" horiz-adv-x="1044" d="M144.5 202.5q-19.5 106.5 9.5 270.5l125 715h315l-123 -694q-12 -76 -14 -131.5t23.5 -87t84.5 -31.5q45 0 76 17t51 53t31 76.5t22 103.5l123 694h316l-125 -715q-22 -128 -58.5 -214.5t-99 -148.5t-155.5 -90t-226 -28q-176 0 -266 52t-109.5 158.5z" />
<glyph unicode="&#xe1b;" horiz-adv-x="1064" d="M147 202.5q-22 106.5 7 270.5l125 715h315l-123 -694q-12 -76 -11.5 -131.5t28.5 -87t87 -31.5q86 0 128 63t63 187l184 1042h316l-187 -1063q-22 -127 -60 -214t-102 -148.5t-159 -90t-228 -28.5q-176 0 -268.5 52t-114.5 158.5z" />
<glyph unicode="&#xe1c;" horiz-adv-x="1081" d="M70 0l149 844q17 98 54 167.5t91 107.5t115.5 54.5t138.5 16.5q70 0 127 -8l-43 -246q-86 11 -122.5 -13.5t-53.5 -117.5l-67 -391l137 303h143l31 -303l135 774h316l-209 -1188h-330l-53 496l-230 -496h-329z" />
<glyph unicode="&#xe1d;" horiz-adv-x="1081" d="M70 0l149 844q17 98 54 167.5t91 107.5t115.5 54.5t138.5 16.5q70 0 127 -8l-43 -246q-86 11 -122.5 -13.5t-53.5 -117.5l-67 -391l137 303h143l31 -303l197 1122h315l-270 -1536h-330l-53 496l-230 -496h-329z" />
<glyph unicode="&#xe1e;" horiz-adv-x="1253" d="M193 0l45 1188h311l-49 -656l207 525h215l22 -525l178 656h312l-373 -1188h-262l-58 655l-286 -655h-262z" />
<glyph unicode="&#xe1f;" horiz-adv-x="1251" d="M193 0l45 1188h311l-49 -656l207 525h215l22 -525l283 1004h311l-477 -1536h-262l-58 655l-286 -655h-262z" />
<glyph unicode="&#xe20;" horiz-adv-x="1071" d="M20 6l43 246q17 -3 28.5 -3.5t28 -0.5t28.5 4.5t24.5 13t20.5 24.5t12 38l10 55q11 58 20.5 89.5t30 64t53.5 53.5t87 41l-224 49l19 115q31 174 176.5 287.5t349.5 113.5q97 0 169 -17t126 -54t81 -96t34 -144t-15 -197l-121 -688h-315l123 698q24 135 -7 189.5 t-120 54.5q-60 0 -113 -47t-65 -115l192 -43l-18 -106q-21 -6 -37.5 -13.5t-29.5 -18.5t-22.5 -19t-17 -25t-12 -25t-9 -30.5t-6.5 -31.5t-6 -38t-6 -39l-12 -63q-17 -98 -48.5 -164t-77.5 -102t-99.5 -51t-124.5 -15q-62 0 -150 10z" />
<glyph unicode="&#xe21;" horiz-adv-x="1030" d="M70 0l209 1188h315l-150 -850q53 -86 162 -86q36 0 64.5 26t34.5 62l149 848h315l-151 -858q-16 -88 -50 -155t-80.5 -106t-98.5 -58t-109 -19q-41 0 -78.5 7t-78 23.5t-73 49.5t-51.5 80l-47 -152h-282z" />
<glyph unicode="&#xe22;" horiz-adv-x="1032" d="M121 344l8 53q15 85 71.5 152.5t149.5 89.5q-56 15 -90 60.5t-43 95.5t0 96q53 301 406 301q67 0 145 -10l-45 -254q-35 14 -86 14q-99 0 -109 -63q-11 -59 27 -93t137 -34l-37 -205q-103 0 -151 -33t-60 -108l-8 -50q-9 -48 16.5 -80t100.5 -32q80 0 116 40t52 132 l135 772h315l-139 -791q-36 -208 -158.5 -306.5t-365.5 -98.5q-115 0 -199 29t-127.5 79t-58.5 111.5t-2 132.5z" />
<glyph unicode="&#xe23;" horiz-adv-x="878" d="M45 96l131 203q48 -21 119.5 -37t130.5 -16q147 0 162 88q4 26 -1 45t-41 52.5t-108 70.5q-146 76 -202 159.5t-37 190.5q32 182 145.5 263t337.5 81q104 0 203 -30t153 -70l-127 -207q-134 55 -256 55q-127 0 -139 -70q0 -12 -2 -22.5t6 -26t23 -32.5t48 -40.5t81 -50.5 q37 -20 65 -38t56 -40t46.5 -43.5t35.5 -48.5t23 -54.5t9 -62.5t-6 -73q-31 -181 -153 -265.5t-347 -84.5q-104 0 -201.5 30.5t-154.5 73.5z" />
<glyph unicode="&#xe24;" horiz-adv-x="1069" d="M141 326l4 20q35 203 258 285l-223 49l19 115q31 174 176.5 287.5t349.5 113.5q97 0 169 -17t126 -54t81 -96t34 -144t-15 -197l-192 -1098h-316l195 1108q24 135 -7 189.5t-120 54.5q-60 0 -113 -47t-65 -115l192 -43l-18 -106q-94 -29 -143 -87t-64 -153l-2 -8 q-14 -80 15.5 -110t127.5 -21l-43 -246q-55 -6 -108 -6q-82 0 -145 18t-108.5 55.5t-63 101.5t-1.5 151z" />
<glyph unicode="&#xe25;" horiz-adv-x="1026" d="M98 340q30 170 148.5 258t367.5 133l160 29l2 4q7 39 7.5 67.5t-5.5 48t-16 32t-28 19t-38.5 9t-50.5 2.5q-110 0 -317 -53l-60 215q90 39 219 65.5t228 26.5q86 0 151.5 -14t117 -46t78.5 -84t36 -127.5t-11 -176.5l-131 -748h-315l90 516l-86 -16q-118 -23 -162.5 -51 t-54.5 -95q-8 -43 2 -70.5t33 -37t55 -12t68 3.5l-39 -224q-51 -22 -150 -22q-173 0 -250.5 88.5t-48.5 259.5z" />
<glyph unicode="&#xe26;" horiz-adv-x="1071" d="M20 6l43 246q17 -3 28.5 -3.5t28 -0.5t28.5 4.5t24.5 13t20.5 24.5t12 38l10 55q11 58 20.5 89.5t30 64t53.5 53.5t87 41l-224 49l19 115q31 174 176.5 287.5t349.5 113.5q97 0 169 -17t126 -54t81 -96t34 -144t-15 -197l-192 -1098h-316l195 1108q24 135 -7 189.5 t-120 54.5q-60 0 -113 -47t-65 -115l192 -43l-18 -106q-21 -6 -37.5 -13.5t-29.5 -18.5t-22.5 -19t-17 -25t-12 -25t-9 -30.5t-6.5 -31.5t-6 -38t-6 -39l-12 -63q-17 -98 -48.5 -164t-77.5 -102t-99.5 -51t-124.5 -15q-62 0 -150 10z" />
<glyph unicode="&#xe27;" horiz-adv-x="915" d="M43 78l119 201q122 -31 215 -31q227 0 287 330l6 32q58 332 -168 332q-100 0 -226 -37l-51 205q66 37 167 61.5t196 24.5q110 0 193 -33.5t140 -105t73 -182.5t-9 -265l-6 -32q-27 -151 -84.5 -265t-138 -183t-176 -103.5t-205.5 -34.5q-95 0 -187.5 24.5t-144.5 61.5z " />
<glyph unicode="&#xe28;" horiz-adv-x="1103" d="M70 0l120 680q21 117 54.5 202t75.5 141t105 92.5t130 55t162 31.5l624 84l-43 -242l-251 -32q142 -79 98 -332l-121 -680h-315l120 680q12 79 13.5 130t-15.5 80t-44 40.5t-72 11.5q-89 0 -133.5 -54t-71.5 -208l-27 -143q30 47 79.5 76.5t94.5 29.5h78l-43 -252h-78 q-60 0 -114 -34.5t-62 -75.5l-49 -281h-315z" />
<glyph unicode="&#xe29;" horiz-adv-x="1085" d="M147 202.5q-22 106.5 7 270.5l125 715h315l-123 -694q-12 -76 -11.5 -131.5t28.5 -87t87 -31.5q86 0 128 63t63 187l2 4h-2q-178 0 -220 80t27 278h226q-2 -9 -7 -25q-8 -30 -11.5 -44t-4.5 -32t6 -25t23 -7h2l82 465h315l-82 -465h103l-39 -225h-103l-4 -25 q-22 -127 -60 -214t-102 -148.5t-159 -90t-228 -28.5q-176 0 -268.5 52t-114.5 158.5z" />
<glyph unicode="&#xe2a;" horiz-adv-x="1042" d="M98 340q30 170 148.5 258t367.5 133l160 29l2 6q17 100 -23.5 137t-123.5 37q-131 0 -301 -70l-64 224q204 82 406 110l612 82l-43 -242l-252 -32q73 -46 93 -125t-3 -205l-121 -682h-315l90 516l-86 -16q-118 -23 -162.5 -51t-54.5 -95q-8 -43 2 -70.5t33 -37t55 -12 t68 3.5l-39 -224q-51 -22 -150 -22q-173 0 -250.5 88.5t-48.5 259.5z" />
<glyph unicode="&#xe2b;" horiz-adv-x="1046" d="M70 0l213 1206h315l-76 -432l35 2q71 4 115.5 16.5t73 42t44 62.5t33.5 94l66 209h315l-65 -223q-64 -217 -232 -299q65 -24 97.5 -97.5t27.5 -179.5l-24 -401h-316l25 401q1 27 -2 48.5t-11.5 43t-28.5 32t-50 7.5l-148 -14l-92 -518h-315z" />
<glyph unicode="&#xe2c;" horiz-adv-x="1245" d="M193 0l45 1188h311l-49 -656l207 525h215l22 -525l64 238q8 28 13 50.5t7 48t-2 43.5t-16 33t-33 22l29 163q123 28 163.5 75t44.5 171h287q5 -118 -53 -210t-182 -130q39 -20 52.5 -67.5t9 -89.5t-16.5 -84l-250 -795h-262l-58 655l-286 -655h-262z" />
<glyph unicode="&#xe2d;" horiz-adv-x="1015" d="M126 263.5q-9 74.5 11 174.5q22 132 92 295h408l-43 -246h-145l-5 -22q-21 -117 5 -169t102 -52q45 0 76 19t57 75.5t43 155.5l31 170q12 69 12 118.5t-10.5 80.5t-33.5 49.5t-51.5 25t-70.5 6.5q-64 0 -134.5 -14t-109.5 -28l-38 -13l-56 217q6 4 18 10t52 21.5 t84.5 27.5t114.5 21.5t143 9.5q65 0 118 -7.5t100.5 -24.5t82.5 -45t61 -69.5t38 -96.5t11.5 -127.5t-16.5 -161.5l-31 -170q-21 -122 -60 -212t-86.5 -144.5t-112.5 -87.5t-129 -44.5t-144 -11.5q-87 0 -152.5 14t-117 46t-78.5 83.5t-36 126z" />
<glyph unicode="&#xe2e;" horiz-adv-x="1052" d="M126 263.5q-9 74.5 11 174.5q22 132 92 295h408l-43 -246h-145l-5 -22q-21 -117 5 -169t102 -52q45 0 76 19t57 75.5t43 155.5l31 170q12 69 12 118.5t-9.5 80.5t-31 49.5t-48 25t-63.5 6.5q-44 0 -90.5 -6.5t-81.5 -15t-63 -17.5t-43 -15.5t-14 -6.5l-58 221 q170 75 361 98l663 84l-43 -239l-258 -33q71 -51 89 -135.5t-7 -214.5l-31 -170q-21 -122 -60 -212t-86.5 -144.5t-112.5 -87.5t-129 -44.5t-144 -11.5q-87 0 -152.5 14t-117 46t-78.5 83.5t-36 126z" />
<glyph unicode="&#xe2f;" horiz-adv-x="958" d="M188 683q-9 69 7 144q62 361 413 361q48 0 101 -6l-45 -254q-24 6 -46 6q-90 0 -108 -111q-8 -50 11.5 -83t70.5 -33q75 0 129 77l70 404h307l-209 -1188h-307l90 506q-71 -60 -203 -60q-91 0 -153.5 31.5t-90.5 84t-37 121.5z" />
<glyph unicode="&#xe30;" horiz-adv-x="692" d="M134 176q-61 84 3 283h305q0 -1 -5.5 -19.5t-6 -23t-2.5 -20t1.5 -21t9 -14.5t18 -12t30.5 -3h228l-45 -254h-246q-229 0 -290 84zM237.5 764q-60.5 84 4.5 283h305q-1 -2 -4.5 -13.5t-4.5 -15.5t-4 -15t-3 -15.5v-13.5t2.5 -13.5t6.5 -10.5t11 -9t16.5 -5t22.5 -2h227 l-43 -254h-246q-230 0 -290.5 84z" />
<glyph unicode="&#xe31;" d="M-494 1686h289q-17 -74 -12 -100q9 -50 76 -50h411l-39 -225h-405q-234 0 -304.5 81t-15.5 294z" />
<glyph unicode="&#xe32;" horiz-adv-x="858" d="M203 1104q75 37 178.5 64.5t196.5 27.5q84 0 146 -13.5t109.5 -44.5t71.5 -80.5t31 -122t-12 -169.5l-136 -766h-315l135 766q10 45 7.5 76.5t-7.5 50.5t-21.5 29.5t-34 14t-44.5 3.5q-116 0 -244 -51z" />
<glyph unicode="&#xe33;" horiz-adv-x="708" d="M-315 1507q20 107 108.5 176.5t194.5 69.5t171.5 -70t47.5 -176q-18 -102 -108 -169.5t-197 -67.5t-171 67.5t-46 169.5zM-129 1507q-5 -30 12 -48.5t49 -18.5q31 0 57.5 19t30.5 48q6 34 -12.5 54t-50.5 20q-33 0 -56.5 -19.5t-29.5 -54.5zM203 1104q75 37 178.5 64.5 t196.5 27.5q84 0 146 -13.5t109.5 -44.5t71.5 -80.5t31 -122t-12 -169.5l-136 -766h-315l135 766q10 45 7.5 76.5t-7.5 50.5t-21.5 29.5t-34 14t-44.5 3.5q-116 0 -244 -51z" />
<glyph unicode="&#xe34;" d="M-731 1311l39 225h893l-39 -225h-893z" />
<glyph unicode="&#xe35;" d="M-731 1311l39 225h590l30 170h303l-69 -395h-893z" />
<glyph unicode="&#xe36;" d="M-731 1311l39 225h467q22 87 90 137.5t168 50.5q103 0 152 -55.5t34 -150.5q-17 -95 -86 -151t-172 -56h-692zM-70 1518q-6 -31 9.5 -49.5t46.5 -18.5t52.5 18.5t27.5 49.5q4 31 -11.5 49t-46.5 18t-52.5 -18t-25.5 -49z" />
<glyph unicode="&#xe37;" d="M-731 1311l39 225h346l31 170h233l-31 -170h80l31 170h233l-69 -395h-893z" />
<glyph unicode="&#xe38;" d="M-580 -315l33 192h451l-72 -409h-276l38 217h-174z" />
<glyph unicode="&#xe39;" d="M-827 -315l32 192h365l-33 -192q-8 -47 33 -47t49 47l33 192h256l-33 -188q-12 -69 -45 -119.5t-80.5 -78.5t-100.5 -41t-114 -13q-126 0 -195 56t-49 173l4 19h-122z" />
<glyph unicode="&#xe3a;" d="M-518 -319q15 83 81.5 139.5t149.5 56.5t129 -56.5t31 -139.5q-14 -83 -79 -140t-148 -57t-130.5 57t-33.5 140z" />
<glyph unicode="&#xe3f;" horiz-adv-x="1005" d="M70 0l252 1434h253l46 245h313l-47 -266q248 -72 196 -369q-18 -97 -71 -172.5t-135 -111.5q96 -28 141.5 -118t23.5 -208q-62 -356 -403 -420l-45 -260h-313l43 246h-254zM428 260h68q122 0 171.5 42t65.5 134q8 55 1 93t-50 58.5t-127 20.5h-68zM537 868h55 q153 0 180 164q24 142 -129 142h-53z" />
<glyph unicode="&#xe40;" horiz-adv-x="583" d="M145.5 206q-9.5 59 6.5 140l147 842h315l-143 -811q-9 -51 -5 -79.5t22 -41.5t49.5 -14.5t78.5 2.5l-41 -238q-60 -8 -129 -8q-63 0 -112.5 10.5t-91.5 34.5t-64.5 64t-32 99z" />
<glyph unicode="&#xe41;" horiz-adv-x="1114" d="M145.5 206q-9.5 59 6.5 140l147 842h315l-143 -811q-9 -51 -5 -79.5t22 -41.5t49.5 -14.5t78.5 2.5l-41 -238q-60 -8 -129 -8q-63 0 -112.5 10.5t-91.5 34.5t-64.5 64t-32 99zM675.5 206q-9.5 59 6.5 140l147 842h316l-144 -811q-9 -51 -4.5 -79.5t22 -41.5t49.5 -14.5 t79 2.5l-41 -238q-60 -8 -129 -8q-63 0 -112.5 10.5t-92 34.5t-65 64t-32 99z" />
<glyph unicode="&#xe42;" horiz-adv-x="673" d="M201 1325l6 33q15 88 43.5 148.5t79.5 105.5t131 66.5t194 21.5h346l-38 -225h-359q-69 0 -76 -37l-2 -4q47 -9 81 -26.5t53 -44t29.5 -56.5t11 -71t-3.5 -79t-13 -90l-123 -690q-9 -51 -4.5 -79.5t22 -41.5t49.5 -14.5t79 2.5l-41 -238q-60 -8 -129 -8 q-63 0 -112.5 10.5t-92 34.5t-65 64t-32 99t6.5 140l133 762q9 57 6 100t-46 73t-134 44z" />
<glyph unicode="&#xe43;" horiz-adv-x="692" d="M248 1589q6 5 18 12t51.5 26.5t81.5 34t105.5 26.5t126.5 12q172 0 252.5 -83.5t54.5 -230.5q-9 -54 -36 -102.5t-60 -84.5t-65.5 -69t-57.5 -69t-31 -72l-108 -612q-9 -51 -5 -79.5t22 -41.5t49.5 -14.5t78.5 2.5l-41 -238q-60 -8 -129 -8q-63 0 -112.5 10.5t-92 34.5 t-65 64t-32 99t6.5 140l119 678q8 45 35 87t61 75t67.5 64.5t59.5 67.5t33 71q4 29 -14 45t-74 16q-49 0 -107 -20t-92 -40l-33 -20z" />
<glyph unicode="&#xe44;" horiz-adv-x="649" d="M210.5 206q-9.5 59 6.5 140l143 819q15 90 85 179.5t182 130.5h-400l39 225h715l-31 -176q-86 -50 -134 -89t-84 -101t-52 -152l-143 -805q-9 -51 -5 -79.5t22 -41.5t49.5 -14.5t78.5 2.5l-41 -238q-60 -8 -129 -8q-63 0 -112.5 10.5t-92 34.5t-65 64t-32 99z" />
<glyph unicode="&#xe45;" horiz-adv-x="858" d="M203 1104q75 37 178.5 64.5t196.5 27.5q84 0 146 -13.5t109.5 -44.5t71.5 -80.5t31 -122t-12 -169.5l-207 -1176h-316l207 1176q10 45 7.5 76.5t-7.5 50.5t-21.5 29.5t-34 14t-44.5 3.5q-116 0 -244 -51z" />
<glyph unicode="&#xe46;" horiz-adv-x="1030" d="M162.5 572.5q1.5 47.5 9.5 107.5q25 150 60 223q79 170 262 170q78 0 130.5 -30t61.5 -85q23 56 82.5 85.5t144.5 29.5q54 0 92 -12t59 -37.5t31.5 -55t9.5 -76.5t-6 -88t-16 -102l-159 -907h-310l166 932q14 80 -16 80q-17 0 -24.5 -17.5t-16.5 -64.5q-1 -8 -2 -12h-160 q12 47 10 71.5t-30 24.5q-10 0 -18.5 -5t-15 -15t-11.5 -20t-8.5 -24.5t-6 -24t-5 -24t-3.5 -18.5q-10 -58 6.5 -85t52.5 -28.5t86 2.5l-43 -237q-51 -4 -94 -3.5t-86.5 5.5t-76.5 16.5t-63.5 30t-48.5 46t-31.5 64t-12 84z" />
<glyph unicode="&#xe47;" d="M-576 1505q1 36 7 82q26 153 120 214t256 61h418l-35 -205h-411q-60 0 -86.5 -16t-32.5 -54q-13 -71 53 -71q39 0 61 23t31 77h158q-19 -109 84 -109q31 0 76 9l-35 -205q-55 -4 -104 -3.5t-87.5 28t-46.5 81.5q-33 -56 -81 -81t-119 -25q-20 0 -38.5 2t-42 7t-42.5 14 t-39 23.5t-32 35t-22.5 48.5t-9.5 64z" />
<glyph unicode="&#xe48;" d="M-141 1311l86 489h295l-86 -489h-295z" />
<glyph unicode="&#xe49;" d="M-494 1311l23 129q141 50 158 135q8 57 -56 57q-35 0 -73 -14l-11 158q88 39 201 39q118 0 170.5 -42.5t38.5 -121.5q-17 -100 -131 -154q113 39 219 39h184l-39 -225h-684z" />
<glyph unicode="&#xe4a;" d="M-664.5 1414q-12.5 47 0.5 118q42 240 232 240q60 0 88.5 -22t42.5 -64q25 42 60.5 64t103.5 22q34 0 58.5 -6.5t40 -16t24 -28t12 -35t1.5 -45t-5 -49.5t-10 -56l-7 -39q-7 -43 15 -43q23 0 37 53l73 275h205l-80 -295q-52 -184 -262 -184q-110 0 -158.5 46.5 t-31.5 137.5l4 24q8 31 5.5 48.5t-22.5 17.5t-28 -17.5t-13 -54.5h-114q7 31 4.5 51.5t-23.5 20.5q-13 0 -20 -7.5t-9 -15t-5 -24.5q-7 -41 8.5 -50.5t72.5 -9.5l-30 -163q-76 -3 -128 4.5t-90.5 31.5t-51 71z" />
<glyph unicode="&#xe4b;" d="M-449 1468l33 181h185l28 157h269l-29 -157h184l-33 -181h-184l-27 -157h-268l27 157h-185z" />
<glyph unicode="&#xe4c;" d="M-383 1311q8 140 48 219t130 117.5t248 38.5h213l-39 -226h-237q-21 0 -36.5 -6t-25 -20t-15.5 -24.5t-9.5 -33.5t-4 -32t-2.5 -33h-270z" />
<glyph unicode="&#xe4d;" d="M-315 1507q20 107 108.5 176.5t194.5 69.5t171.5 -70t47.5 -176q-18 -102 -108 -169.5t-197 -67.5t-171 67.5t-46 169.5zM-129 1507q-5 -30 12 -48.5t49 -18.5q31 0 57.5 19t30.5 48q6 34 -12.5 54t-50.5 20q-33 0 -56.5 -19.5t-29.5 -54.5z" />
<glyph unicode="&#xe4e;" />
<glyph unicode="&#xe4f;" horiz-adv-x="978" d="M176 649q31 177 178.5 303.5t325.5 126.5q116 0 204.5 -58t128 -157t19.5 -215q-32 -178 -179.5 -303t-324.5 -125q-179 0 -281.5 125t-70.5 303zM256 649q-26 -142 59 -245t228 -103q140 0 257.5 102.5t143.5 245.5q25 141 -57 240.5t-223 99.5q-143 0 -263 -99.5 t-145 -240.5zM346 649q19 108 107.5 182t195.5 74q105 0 166.5 -74t42.5 -182q-19 -106 -107 -182t-192 -76q-106 0 -169 76t-44 182zM422 649q-14 -75 30 -128.5t119 -53.5q77 0 136 53t73 129q14 77 -26.5 126.5t-118.5 49.5q-76 0 -138 -50t-75 -126z" />
<glyph unicode="&#xe50;" horiz-adv-x="978" d="M123 318q-9 89 14 206l8 41q25 145 78.5 251.5t126.5 167.5t155 89.5t177 28.5q76 0 137 -17.5t112.5 -56.5t79.5 -101.5t37 -152.5t-14 -209l-8 -41q-25 -143 -79 -248.5t-127 -166t-156.5 -89t-178.5 -28.5q-75 0 -136 17.5t-111.5 56.5t-78 101t-36.5 151zM442 524 q-50 -288 86 -288q141 0 191 288l8 41q25 154 3 221.5t-91 67.5q-139 0 -188 -289z" />
<glyph unicode="&#xe51;" horiz-adv-x="978" d="M152.5 509q-8.5 62 7.5 144q20 112 70.5 199t121 141t154 81.5t176.5 27.5q76 0 137 -17.5t112.5 -56.5t79.5 -101.5t37 -152.5t-14 -209l-24 -135q-95 -530 -633 -530q-59 0 -123 6l76 248q84 -6 142 2.5t106 38t78 87.5t46 148l25 135q29 154 11 221.5t-99 67.5 q-137 0 -170 -178q-28 -154 74 -154q29 0 53 6l-41 -233q-57 -14 -125 -14q-54 0 -99.5 12.5t-84.5 39.5t-62 70.5t-31.5 105.5z" />
<glyph unicode="&#xe52;" horiz-adv-x="1198" d="M154 473l168 961h305l-168 -961q-20 -106 34.5 -166.5t159.5 -60.5t182 60.5t97 166.5l49 285q12 67 -8 67q-27 0 -39 -84h-119q6 22 5.5 54t-17.5 32q-24 0 -41 -100q-9 -46 -3.5 -73t21 -34t36.5 -9t44 3l-29 -165q-64 -11 -98 -11q-121 0 -174 74.5t-27 214.5 q7 41 14 71t20.5 74.5t32 76t44 62t61.5 46.5t80 16q48 0 75.5 -11t38 -25.5t22.5 -45.5q25 31 40 45t47 25.5t80 11.5q79 0 124.5 -45t53.5 -121t-8 -176l-45 -258q-28 -160 -113 -269t-208.5 -159.5t-282.5 -50.5q-244 0 -369.5 121t-84.5 358z" />
<glyph unicode="&#xe53;" horiz-adv-x="1060" d="M131 401l57 328q65 370 320 373q75 1 129 -28.5t63 -74.5q22 46 84 74.5t140 28.5q75 0 123 -28.5t66.5 -78.5t20.5 -118t-14 -148l-129 -729h-311l131 739q8 29 7 62t-21 33q-29 0 -45 -95l-41 -229h-193l41 229q7 29 7 62t-19 33q-31 0 -45 -95l-53 -297 q-10 -53 -14 -82t-2.5 -53.5t8.5 -33t24.5 -14t40.5 -4.5t61 3q18 1 27 2l-43 -254q-57 -8 -121 -8q-372 0 -299 403z" />
<glyph unicode="&#xe54;" horiz-adv-x="962" d="M115 309l53 303q23 131 54.5 215t89 147.5t147.5 91.5t223 28h61q36 0 60.5 10t37.5 23t20.5 40.5t9 46.5t3.5 56h291q-8 -117 -31.5 -193t-76 -130t-139 -77.5t-218.5 -23.5h-61q-35 0 -60.5 -13t-40.5 -30t-28 -56t-19 -67t-16 -86l-49 -277q-6 -34 12 -50.5t54 -16.5 q17 0 67 10q10 77 14 102l54 300h407l-39 -226h-121l-14 -74q-11 -67 14.5 -89.5t118.5 -22.5l-45 -250q-128 0 -203 11t-116 46q-108 -65 -248 -65q-153 0 -224 79.5t-42 237.5z" />
<glyph unicode="&#xe55;" horiz-adv-x="962" d="M115 309l53 303q26 151 67.5 246.5t114.5 151.5q-31 56 -20 120q18 97 97 159.5t175 62.5q95 0 155 -63.5t42 -158.5l-6 -30q18 4 32 12t22 23t13 25t8 34.5t4 34.5t2 41h291q-8 -117 -31.5 -193t-76 -130t-139 -77.5t-218.5 -23.5h-61q-35 0 -60.5 -13t-40.5 -30 t-28 -56t-19 -67t-16 -86l-49 -277q-6 -34 12 -50.5t54 -16.5q17 0 67 10q10 77 14 102l54 300h407l-39 -226h-121l-14 -74q-11 -67 14.5 -89.5t118.5 -22.5l-45 -250q-128 0 -203 11t-116 46q-108 -65 -248 -65q-153 0 -224 79.5t-42 237.5zM496 1130q-4 -26 12 -42.5 t45 -16.5q28 0 51 16.5t27 42.5q6 31 -10.5 49.5t-45.5 18.5q-30 0 -51.5 -18t-27.5 -50z" />
<glyph unicode="&#xe56;" horiz-adv-x="1017" d="M131 222.5q-13 61.5 2 142.5q28 157 129 232t260 75q50 0 103 -6l-39 -226q-52 9 -58 9q-73 0 -86 -78q-21 -131 115 -131q48 0 79 17t57.5 68.5t43.5 145.5l25 139q4 26 6 38t5 37t3 38t-1.5 34t-6 32t-12.5 25.5t-20.5 22t-30 12.5t-39.5 5q-105 0 -150 -76h-237 l-15 553h311l-8 -309q27 30 87 55t155 25q86 0 144 -25.5t88 -67.5t40 -109t5 -135.5t-21 -162.5l-23 -131q-21 -117 -60 -203.5t-87 -138t-113 -82.5t-128 -42t-142 -11q-75 0 -137.5 12.5t-115 40t-84 71t-44.5 105z" />
<glyph unicode="&#xe57;" horiz-adv-x="1413" d="M131 401l57 328q65 370 320 373q75 1 129 -28.5t63 -74.5q22 46 84 74.5t140 28.5q61 0 102 -19t63 -50.5t29.5 -80.5t4.5 -101.5t-15 -121.5l-80 -450q-5 -37 27 -37q34 0 39 37l202 1155h299l-198 -1135q-16 -90 -52.5 -153t-89.5 -97t-112 -48.5t-133 -14.5 q-48 0 -87.5 6t-76 20t-61 37.5t-42 58t-18.5 82t8 109.5l78 440q8 29 7 62t-21 33q-29 0 -45 -95l-41 -229h-193l41 229q7 29 7 62t-19 33q-31 0 -45 -95l-53 -297q-10 -53 -14 -82t-2.5 -53.5t8.5 -33t24.5 -14t40.5 -4.5t61 3q18 1 27 2l-43 -254q-57 -8 -121 -8 q-372 0 -299 403z" />
<glyph unicode="&#xe58;" horiz-adv-x="1030" d="M105 192q-2 68 14 148l49 272q23 131 54.5 215t89 147.5t147.5 91.5t223 28h102q36 0 60.5 10t37.5 23t20.5 40.5t9 46.5t3.5 56h291q-8 -117 -31.5 -193t-76 -130t-139 -77.5t-218.5 -23.5h-102q-35 0 -60.5 -13t-40.5 -30t-28 -56t-19 -67t-16 -86l-47 -264 q-8 -29 -7 -61.5t21 -32.5q29 0 45 94l19 100h192l-18 -100q-7 -29 -7 -61.5t19 -32.5q31 0 45 94l2 12q10 54 14 82t2.5 53t-8 33.5t-24.5 14t-40.5 4.5t-60.5 -3q-18 -1 -28 -2l41 226q85 10 139 10q164 0 231.5 -86t32.5 -291l-8 -43q-15 -85 -36 -148t-55.5 -116 t-86.5 -80.5t-121 -28.5q-75 -1 -129 28.5t-63 74.5q-22 -46 -84 -74.5t-140 -28.5q-75 0 -123 28.5t-66.5 78.5t-20.5 118z" />
<glyph unicode="&#xe59;" horiz-adv-x="1073" d="M131 401l57 328q12 69 28 121.5t44.5 101.5t66.5 80.5t94.5 50.5t129.5 19q61 0 113 -21.5t75 -68.5q31 90 142 90q44 0 78 -22.5t34 -71.5l94 262h263l-220 -588h-198q1 50 -2.5 81t-13 43t-16.5 14.5t-21 2.5q-24 0 -36.5 -17.5t-6.5 -51.5l114 -754h-270l-121 791 q-6 32 -24 32q-20 0 -25 -28l-61 -353q-16 -77 -12.5 -119t33 -55t105.5 -8l-43 -254q-56 -6 -102 -6q-178 0 -257 99.5t-42 301.5z" />
<glyph unicode="&#xe5a;" horiz-adv-x="1392" d="M200 683q-9 69 7 144q62 361 414 361q47 0 100 -6l-45 -254q-24 6 -45 6q-43 0 -71.5 -28t-37.5 -83q-8 -50 11.5 -83t70.5 -33q75 0 129 77l70 404h307l-209 -1188h-307l90 506q-71 -60 -203 -60q-91 0 -153.5 31.5t-90.5 84t-37 121.5zM1004 0l208 1188h308l-209 -1188 h-307z" />
<glyph unicode="&#xe5b;" horiz-adv-x="1417" d="M145 503.5q3 53.5 13 108.5q74 424 370 424q49 0 84 -16.5t56 -37.5t30.5 -64t13 -71t-2 -85t-9.5 -80t-14 -80q-4 -24 -6 -35h-180q2 10 6.5 36t8 45t7 45.5t3 45t-3.5 36.5t-12.5 27t-23.5 9q-61 0 -95 -198l-3 -15q-44 -270 74 -270q231 0 340 641q3 15 4 22h227 l-14 -317l69 241h199q-4 -20 -5 -55t2 -76t17.5 -70.5t38.5 -29.5h170l-39 -221h-170q-144 0 -163 147l-144 -409h-157l18 317q-76 -200 -184.5 -304.5t-243.5 -104.5q-71 0 -124 22.5t-84 62.5t-49.5 89t-22.5 108t-1 112.5z" />
<glyph unicode="&#x2000;" horiz-adv-x="1148" />
<glyph unicode="&#x2001;" horiz-adv-x="2296" />
<glyph unicode="&#x2002;" horiz-adv-x="1148" />
<glyph unicode="&#x2003;" horiz-adv-x="2296" />
<glyph unicode="&#x2004;" horiz-adv-x="765" />
<glyph unicode="&#x2005;" horiz-adv-x="574" />
<glyph unicode="&#x2006;" horiz-adv-x="382" />
<glyph unicode="&#x2007;" horiz-adv-x="382" />
<glyph unicode="&#x2008;" horiz-adv-x="287" />
<glyph unicode="&#x2009;" horiz-adv-x="459" />
<glyph unicode="&#x200a;" horiz-adv-x="127" />
<glyph unicode="&#x2010;" horiz-adv-x="958" d="M168 563l47 256h819l-47 -256h-819z" />
<glyph unicode="&#x2011;" horiz-adv-x="958" d="M168 563l47 256h819l-47 -256h-819z" />
<glyph unicode="&#x2012;" horiz-adv-x="958" d="M168 563l47 256h819l-47 -256h-819z" />
<glyph unicode="&#x2013;" horiz-adv-x="958" d="M168 563l47 256h819l-47 -256h-819z" />
<glyph unicode="&#x2014;" horiz-adv-x="1081" d="M168 563l47 256h942l-47 -256h-942z" />
<glyph unicode="&#x2018;" horiz-adv-x="559" d="M195 942l301 492h286l-260 -492h-327z" />
<glyph unicode="&#x2019;" horiz-adv-x="559" d="M195 942l260 492h327l-301 -492h-286z" />
<glyph unicode="&#x201a;" horiz-adv-x="450" d="M-59 -225l200 471h334l-258 -471h-276z" />
<glyph unicode="&#x201c;" horiz-adv-x="927" d="M195 942l301 492h266l-260 -492h-307zM584 942l301 492h266l-260 -492h-307z" />
<glyph unicode="&#x201d;" horiz-adv-x="927" d="M195 942l260 492h307l-301 -492h-266zM584 942l260 492h307l-301 -492h-266z" />
<glyph unicode="&#x201e;" horiz-adv-x="819" d="M-59 -225l200 471h314l-258 -471h-256zM330 -225l200 471h314l-258 -471h-256z" />
<glyph unicode="&#x2020;" horiz-adv-x="952" d="M193 813l45 260h270l63 361h314l-64 -361h271l-45 -260h-271l-143 -813h-314l144 813h-270z" />
<glyph unicode="&#x2021;" horiz-adv-x="952" d="M113 360l47 265h270l33 188h-270l45 260h270l63 361h314l-64 -361h271l-45 -260h-271l-33 -188h271l-47 -265h-271l-63 -360h-314l64 360h-270z" />
<glyph unicode="&#x2022;" horiz-adv-x="706" d="M164 649q23 126 129.5 214.5t230.5 88.5q125 0 198 -88t50 -215q-22 -121 -126.5 -212t-227.5 -91q-124 0 -200.5 89t-53.5 214z" />
<glyph unicode="&#x2026;" horiz-adv-x="1304" d="M61 186q13 76 78 131.5t142 55.5t122.5 -55.5t32.5 -131.5t-78.5 -131t-142.5 -55t-122 55t-32 131zM498 186q14 77 78.5 132t140.5 55q77 0 122.5 -55.5t32.5 -131.5t-78.5 -131t-142.5 -55q-76 0 -121.5 54.5t-31.5 131.5zM934 186q14 77 78.5 132t140.5 55 q77 0 123 -55.5t33 -131.5t-79 -131t-143 -55q-76 0 -121.5 54.5t-31.5 131.5z" />
<glyph unicode="&#x202f;" horiz-adv-x="459" />
<glyph unicode="&#x2030;" horiz-adv-x="1859" d="M217 1073l6 25q58 342 330 342q269 0 211 -342l-6 -25q-59 -344 -330 -344q-270 0 -211 344zM242 0l786 1434h264l-788 -1434h-262zM447 981q2 -29 20 -29q38 0 61 123l4 25q20 117 -18 117q-18 0 -30 -27.5t-23 -89.5l-4 -25q-12 -65 -10 -94zM770 336l4 24 q62 345 332 345q126 0 183.5 -82.5t25.5 -262.5l-4 -24q-61 -342 -332 -342q-270 0 -209 342zM998 244.5q3 -29.5 22 -29.5q37 0 57 123l4 24q20 117 -16 117q-35 0 -55 -117l-4 -24q-11 -64 -8 -93.5zM1350 336l4 24q62 345 332 345q126 0 183 -82.5t25 -262.5l-4 -24 q-61 -342 -331 -342t-209 342zM1577 244.5q3 -29.5 22 -29.5q38 0 58 123l4 24q20 117 -16 117t-56 -117l-4 -24q-11 -64 -8 -93.5z" />
<glyph unicode="&#x2039;" horiz-adv-x="882" d="M168 559l20 115l848 588l-61 -349l-434 -299l329 -295l-61 -348z" />
<glyph unicode="&#x203a;" horiz-adv-x="882" d="M66 -29l61 348l432 295l-328 299l62 349l639 -588l-21 -115z" />
<glyph unicode="&#x2044;" horiz-adv-x="686" d="M8 0l615 1434h307l-615 -1434h-307z" />
<glyph unicode="&#x205f;" horiz-adv-x="574" />
<glyph unicode="&#x20ac;" horiz-adv-x="1083" d="M86 442l39 226h123q2 4 2 12l6 25q0 2 1 6t1 6q3 24 10 57h-123l39 225h152q174 443 610 443q96 0 181 -19t122 -38l37 -19l-110 -233q-115 38 -252 38q-159 0 -250 -172h319l-39 -225h-354q-7 -33 -10 -57q0 -2 -1 -6t-1 -6l-6 -25q0 -8 -2 -12h354l-39 -226h-322 q24 -180 191 -180q61 0 127 10t101 20l36 9l29 -233q-6 -3 -17.5 -8t-49.5 -18.5t-78 -23.5t-101 -18t-121 -8q-437 0 -454 450h-150z" />
<glyph unicode="&#x2122;" horiz-adv-x="1417" d="M225 1233l35 201h629l-35 -201h-197l-79 -455h-236l80 455h-197zM819 778l115 656h237l58 -355l174 355h237l-114 -656h-226l41 236l-110 -236h-117l-29 236l-41 -236h-225z" />
<glyph unicode="&#x2212;" horiz-adv-x="958" d="M168 563l47 256h819l-47 -256h-819z" />
<glyph unicode="&#x25cc;" horiz-adv-x="1132" d="M279 642q1 21 14 34q19 16 41 16q18 0 28 -10q13 -10 11 -31.5t-19 -34.5q-16 -16 -41 -16q-16 0 -24 8q-11 13 -10 34zM343 396q2 19 15 32q15 18 37 18q18 0 27 -12q15 -9 14 -29.5t-18 -33.5q-14 -17 -39 -17q-19 0 -27 8q-11 15 -9 34zM431 893q2 18 15 33 q15 18 37 18q18 0 27 -12q15 -12 13 -32.5t-19 -35.5q-11 -16 -33 -16q-23 0 -31 14q-11 13 -9 31zM574 284q2 19 16 33q19 19 43 19q14 0 22 -8q23 -32 -2 -68q-16 -16 -41 -16q-18 0 -26 10q-14 11 -12 30zM700 997.5q2 18.5 17 32.5q16 19 41 19q15 0 24 -9 q10 -14 9.5 -33.5t-11.5 -33.5q-24 -17 -43 -17q-15 0 -26 11q-13 12 -11 30.5zM842 396q3 19 18 32q15 18 37 18q15 0 27 -12q14 -9 14.5 -29t-16.5 -34q-17 -17 -43 -17q-18 0 -29 8q-11 15 -8 34zM930 893q3 18 18 33q15 18 35 18q17 0 29 -12q14 -12 13.5 -32.5 t-17.5 -35.5q-13 -16 -35 -16q-24 0 -35 14q-11 13 -8 31zM989 642q2 19 12 34q22 16 43 16q17 0 27 -10q12 -10 11 -31.5t-17 -34.5q-16 -16 -41 -16q-19 0 -27 8q-10 15 -8 34z" />
<glyph unicode="&#x25fc;" horiz-adv-x="1064" d="M0 0v1065h1065v-1065h-1065z" />
<glyph horiz-adv-x="1003" d="M154 471l43 246h225q60 0 98.5 -29.5t44.5 -81.5l35 -313q54 96 100.5 221t61.5 213q20 119 -24 168t-136 49q-69 0 -157.5 -20t-157.5 -47l-58 219q178 77 428 108l613 82l-43 -242l-232 -30q55 -30 75.5 -102t2.5 -164q-60 -340 -375 -748h-342l-51 451q-3 20 -22 20 h-129z" />
<glyph horiz-adv-x="1576" d="M141 326l4 20q35 203 258 285l-223 49l19 115q31 175 172 288t344 113q244 0 339.5 -117t45.5 -391l-43 -244q-18 -111 -12 -143q11 -55 83 -55q31 0 53.5 10t36.5 24t24.5 43t15.5 53t12 68l131 744h315l-125 -715q-15 -87 -32.5 -150t-44.5 -119.5t-63.5 -93.5 t-88.5 -64.5t-120.5 -39.5t-158.5 -12q-176 0 -259.5 51.5t-94 157.5t18.5 270l38 225q24 138 -2 191t-114 53q-59 0 -107.5 -46.5t-60.5 -115.5l192 -43l-18 -106q-94 -29 -143 -87t-64 -153l-2 -8q-14 -80 15.5 -110t127.5 -21l-43 -246q-55 -6 -108 -6q-82 0 -145 18 t-108.5 55.5t-63 101.5t-1.5 151z" />
<glyph d="M-313 1507q18 107 106 176.5t195 69.5q106 0 171.5 -70t47.5 -176q-18 -102 -108.5 -169.5t-196.5 -67.5t-169.5 67.5t-45.5 169.5zM-129 1507q-6 -29 11.5 -48t49.5 -19q31 0 56.5 19t31.5 48q6 34 -12.5 54t-50.5 20q-33 0 -56.5 -19.5t-29.5 -54.5zM-51 1823l76 430 h294l-75 -430h-295z" />
<glyph d="M-313 1507q18 107 106 176.5t195 69.5q106 0 171.5 -70t47.5 -176q-18 -102 -108.5 -169.5t-196.5 -67.5t-169.5 67.5t-45.5 169.5zM-291 1843l21 117q128 46 141 121q9 53 -49 53q-33 0 -68 -14l-8 141q80 35 182 35q106 0 152.5 -38t34.5 -110q-17 -88 -119 -137 q103 35 199 35h165l-34 -203h-617zM-129 1507q-6 -29 11.5 -48t49.5 -19q31 0 56.5 19t31.5 48q6 34 -12.5 54t-50.5 20q-33 0 -56.5 -19.5t-29.5 -54.5z" />
<glyph d="M-334 2009q37 215 207 215q97 0 121 -78q24 40 53.5 59t91.5 19q42 0 68.5 -11t39 -27.5t15 -47t-0.5 -56.5t-11 -69l-6 -35q-3 -15 -0.5 -27t14.5 -12q20 0 31 48l67 247h185l-74 -266q-43 -166 -234 -166q-99 0 -143 41.5t-31 124.5l4 23q8 28 6.5 43.5t-18.5 15.5 q-18 0 -26 -15.5t-13 -49.5h-102q7 28 5 46.5t-21 18.5q-11 0 -17.5 -6.5t-8.5 -14t-5 -22.5q-7 -36 7 -44.5t64 -8.5l-24 -148q-142 -7 -204 36t-40 167zM-313 1507q18 107 106 176.5t195 69.5q106 0 171.5 -70t47.5 -176q-18 -102 -108.5 -169.5t-196.5 -67.5t-169.5 67.5 t-45.5 169.5zM-129 1507q-6 -29 11.5 -48t49.5 -19q31 0 56.5 19t31.5 48q6 34 -12.5 54t-50.5 20q-33 0 -56.5 -19.5t-29.5 -54.5z" />
<glyph d="M-313 1507q18 107 106 176.5t195 69.5q106 0 171.5 -70t47.5 -176q-18 -102 -108.5 -169.5t-196.5 -67.5t-169.5 67.5t-45.5 169.5zM-190 1985l28 163h166l25 142h241l-24 -142h166l-29 -163h-166l-24 -142h-242l24 142h-165zM-129 1507q-6 -29 11.5 -48t49.5 -19 q31 0 56.5 19t31.5 48q6 34 -12.5 54t-50.5 20q-33 0 -56.5 -19.5t-29.5 -54.5z" />
<glyph d="M-391 1686h289q-16 -73 -13 -97q7 -53 76 -53h240l-39 -225h-234q-234 0 -304 81t-15 294z" />
<glyph d="M-567 1311l39 225h729l-39 -225h-729z" />
<glyph d="M-567 1311l39 225h426l30 170h303l-69 -395h-729z" />
<glyph d="M-567 1311l39 225h303q22 87 90 137.5t168 50.5q103 0 152 -55.5t34 -150.5q-17 -95 -86 -151t-172 -56h-528zM-70 1518q-6 -31 9.5 -49.5t46.5 -18.5t52.5 18.5t27.5 49.5q4 31 -11.5 49t-46.5 18t-52.5 -18t-25.5 -49z" />
<glyph d="M-567 1311l39 225h223l31 170h213l-31 -170h80l30 170h213l-69 -395h-729z" />
<glyph d="M-141 1311l86 489h295l-86 -489h-295z" />
<glyph d="M-420 1311l23 129q140 50 157 135q8 57 -55 57q-36 0 -74 -14l-10 158q88 39 201 39q118 0 170.5 -42.5t38.5 -121.5q-17 -100 -131 -154q113 39 219 39h82l-39 -225h-582z" />
<glyph d="M-367.5 1414q-12.5 47 0.5 118q42 240 232 240q60 0 88.5 -22t42.5 -64q25 42 60.5 64t103.5 22q34 0 58.5 -6.5t40 -16t24 -28t12 -35t1.5 -45t-5 -49.5t-10 -56l-7 -39q-7 -43 15 -43q23 0 37 53l73 275h205l-80 -295q-52 -184 -262 -184q-110 0 -158.5 46.5 t-31.5 137.5l4 24q8 31 5.5 48.5t-22.5 17.5t-28 -17.5t-13 -54.5h-114q7 31 4.5 51.5t-23.5 20.5q-13 0 -20.5 -7.5t-9.5 -15.5t-5 -24q-7 -40 9 -50t73 -10l-30 -163q-76 -3 -128 4.5t-90.5 31.5t-51 71z" />
<glyph d="M-221 1571l33 180h184l27 158h268l-27 -158h185l-33 -180h-185l-26 -158h-268l26 158h-184z" />
<glyph d="M-503 1505q1 36 7 82q26 153 120.5 214t256.5 61h418l-35 -205h-411q-60 0 -86.5 -16t-32.5 -54q-13 -71 53 -71q39 0 61 23t31 77h158q-19 -109 84 -109q31 0 76 9l-35 -205q-55 -4 -104 -3.5t-87.5 28t-46.5 81.5q-33 -56 -81 -81t-119 -25q-20 0 -39 2t-42 7t-42 14 t-39 23.5t-32.5 35t-23 48.5t-9.5 64z" />
<glyph d="M-141 1311l75 430h295l-75 -430h-295z" />
<glyph d="M-324 1311l21 116q128 46 141 121q9 54 -49 54q-27 0 -65 -15l-11 142q81 34 183 34q106 0 152 -37.5t34 -109.5q-13 -87 -119 -137q103 34 199 34h166l-35 -202h-617z" />
<glyph d="M-555 1509q37 215 207 215q55 0 82 -20t39 -57q24 40 53.5 58.5t91.5 18.5q42 0 68.5 -11t39 -27.5t15 -47t-0.5 -56.5t-11 -69l-6 -34q-3 -15 -0.5 -27t14.5 -12q21 0 31 47l67 248h184l-73 -267q-43 -165 -234 -165q-99 0 -143 41t-31 124l4 23q5 22 6 32.5t-3.5 18.5 t-16.5 8q-13 0 -20.5 -10t-10 -20.5t-6.5 -34.5h-102q3 17 4 26t0 19.5t-7 15t-16 4.5q-4 0 -7 -0.5t-5.5 -2.5t-4 -3t-3 -4.5t-2.5 -5t-2 -6t-1.5 -6.5t-1.5 -7.5t-1 -7.5q-7 -36 7 -44.5t64 -8.5l-26 -147q-141 -7 -202.5 35.5t-39.5 166.5z" />
<glyph d="M-244 1452l29 164h166l24 141h242l-24 -141h165l-28 -164h-166l-25 -141h-241l24 141h-166z" />
<glyph d="M-137 1434q9 140 49.5 218.5t130.5 117t248 38.5h213l-41 -225h-238q-14 0 -25.5 -2.5t-20 -9.5t-15 -12.5t-11.5 -18t-7.5 -19t-5 -22.5t-3.5 -21.5t-2.5 -23t-1.5 -20.5h-270z" />
<glyph d="M-313 1311q12 197 98.5 276.5t306.5 79.5h203l-39 -215h-225q-13 0 -24 -2.5t-19.5 -9t-14.5 -11.5t-10.5 -16.5t-7.5 -18t-5 -21.5t-3 -20t-2.5 -22t-1.5 -20h-256z" />
</font>
</defs>
</svg>
