<?xml version="1.0" standalone="no"?>
<!DOCTYPE svg PUBLIC "-//W3C//DTD SVG 1.1//EN" "http://www.w3.org/Graphics/SVG/1.1/DTD/svg11.dtd" >
<svg xmlns="http://www.w3.org/2000/svg" xmlns:xlink="http://www.w3.org/1999/xlink" version="1.1">
<metadata></metadata>
<defs>
<font id="fc_flexica_boldbold" horiz-adv-x="0" >
<font-face units-per-em="2048" ascent="1638" descent="-410" />
<missing-glyph horiz-adv-x="409" />
<glyph unicode="fi" horiz-adv-x="1218" d="M8 840v225h160v14q2 189 79.5 282t244.5 93q83 0 147 -17t92 -42l-51 -197q-52 25 -111 25q-56 0 -76 -33t-20 -100v-25h201v-225h-201v-840h-305v840h-160zM774 1317q0 77 47.5 122.5t132.5 45.5t133 -45.5t48 -122.5q0 -78 -48 -124t-133 -46t-132.5 46t-47.5 124z M801 0v1065h307v-1065h-307z" />
<glyph unicode="fl" horiz-adv-x="1177" d="M8 840v225h160v14q2 189 79.5 282t244.5 93q83 0 147 -17t92 -42l-51 -197q-52 25 -111 25q-56 0 -76 -33t-20 -100v-25h201v-225h-201v-840h-305v840h-160zM780 0v1434h307v-1434h-307z" />
<glyph unicode="&#xe24;&#xe32;" horiz-adv-x="1617" d="M59 680v115q0 174 125.5 287.5t329.5 113.5q190 0 303 -68q159 68 309 68q105 0 181 -22t131.5 -71.5t82.5 -133t27 -203.5v-1176h-315v1176q0 106 -31 140t-100 34q-64 0 -133 -16q30 -99 30 -236v-1098h-315v1108q0 136 -40.5 190t-129.5 54q-60 0 -104.5 -47 t-44.5 -115l200 -43v-106q-89 -29 -127.5 -86.5t-38.5 -153.5v-8q0 -80 35 -110t131 -21v-246q-55 -6 -108 -6q-81 0 -147 18t-117.5 55.5t-80 101.5t-28.5 151v20q0 204 209 285z" />
<glyph unicode="&#xe26;&#xe32;" horiz-adv-x="1619" d="M18 6v246q21 -3 35 -4t33.5 1t31.5 10t20.5 25.5t8.5 43.5v55q0 46 2.5 73.5t10.5 56.5t24 47.5t43 36.5t68 34l-234 49v115q0 174 125.5 287.5t329.5 113.5q190 0 303 -68q159 68 309 68q105 0 181 -22t131.5 -71.5t82.5 -133t27 -203.5v-1176h-315v1176q0 106 -31 140 t-100 34q-64 0 -133 -16q30 -99 30 -236v-1098h-315v1108q0 136 -40.5 190t-129.5 54q-60 0 -104.5 -47t-44.5 -115l200 -43v-106q-22 -7 -39 -17t-28.5 -19t-18.5 -25t-11 -26t-6 -33t-2 -34.5t0.5 -41.5t0.5 -44v-63q0 -98 -20 -164t-60 -102t-91 -51t-122 -15 q-60 0 -152 10z" />
<glyph unicode="FontcraftLogo" horiz-adv-x="1617" d="M123 -213l39 213h102l-8 -35h-59l-9 -53h50l-9 -33h-47l-18 -92h-41zM129 772q0 138 54 264t145 217t217.5 145t265.5 54q138 0 263.5 -54t216.5 -145t144.5 -217t53.5 -264t-53.5 -264t-144.5 -217t-216.5 -145t-263.5 -54q-139 0 -265.5 54t-217.5 145t-145 217 t-54 264zM250 772q0 -152 75.5 -281t204.5 -203.5t281 -74.5q151 0 280 76t203 205t74 278q0 153 -75.5 282t-203.5 203t-278 74q-114 0 -218 -44.5t-179 -119.5t-119.5 -178.5t-44.5 -216.5zM276 -160l19 107q6 26 24 41.5t43 15.5t38.5 -15.5t9.5 -41.5l-19 -107 q-11 -55 -67 -55t-48 55zM317 -162q0 -18 13 -18q16 0 16 18l23 109q0 20 -13 20q-15 0 -18 -20zM350 772q0 190 134.5 322.5t326.5 132.5q81 0 158.5 -29t138.5 -80l-82 -368q-14 -60 -34 -83.5t-60 -23.5q-36 0 -56 18t-14 56l33 155q2 18 -9.5 33t-39.5 15q-42 0 -51 -41 l-33 -150q-7 -38 -32 -66t-71 -28q-66 0 -47 90l27 133q6 38 -17.5 53t-68.5 15q-86 0 -86 -54q0 -23 11.5 -39t31.5 -16h14l-14 -76q-20 -87 17 -145.5t132 -58.5q98 0 136 79q9 -41 50.5 -60t86.5 -19q146 0 184 168l74 319q74 -122 74 -252q0 -93 -36.5 -178t-97.5 -146 t-144.5 -97t-174.5 -36q-192 0 -326.5 133.5t-134.5 323.5zM430 -213l35 213h47l6 -109v-26h2q0 5 1 11t2.5 13t2.5 11l15 100h43l-37 -213h-43l-12 137l-25 -137h-37zM618 -35l7 35h112l-6 -35h-37l-28 -178h-45l32 178h-35zM748 -160l18 107q6 26 24.5 41.5t43.5 15.5 q23 0 36 -14t9 -39q0 -2 -5 -17l-40 -2q2 6 2 15q3 20 -9 20q-13 0 -16 -20l-23 -109q0 -18 13 -18t18 18l2 15h41l-2 -13q-8 -55 -65 -55q-55 0 -47 55zM895 -213l37 213h57q53 0 43 -59v-7q-8 -32 -33 -43l7 -104h-45v96h-9l-16 -96h-41zM958 -86h11q15 0 20 20l4 11 q0 22 -14 22h-12zM1040 -213l76 213h51l7 -213h-48l2 47h-32l-15 -47h-41zM1110 -127h18l2 61zM1208 -213l39 213h103l-7 -35h-61l-8 -53h49l-6 -33h-49l-19 -92h-41zM1376 -35l6 35h113l-6 -35h-33l-33 -178h-45l33 178h-35z" />
<glyph />
<glyph />
<glyph unicode="&#xd;" horiz-adv-x="512" />
<glyph unicode="&#xa;" horiz-adv-x="614" />
<glyph unicode=" "  horiz-adv-x="409" />
<glyph unicode="&#x09;" horiz-adv-x="409" />
<glyph unicode="&#xa0;" horiz-adv-x="409" />
<glyph unicode="!" horiz-adv-x="499" d="M70 170q0 77 47.5 122.5t132.5 45.5t132.5 -45.5t47.5 -122.5q0 -78 -47.5 -124t-132.5 -46t-132.5 46t-47.5 124zM88 1434h324l-23 -983h-278z" />
<glyph unicode="&#x22;" horiz-adv-x="788" d="M49 1434h303l-33 -533h-245zM436 1434h303l-32 -533h-246z" />
<glyph unicode="#" horiz-adv-x="1202" d="M29 324v260h209l45 231h-156v260h211l70 359h280l-70 -359h132l71 359h281l-70 -359h142v-260h-197l-45 -231h147v-260h-198l-66 -324h-278l63 324h-135l-62 -324h-282l65 324h-157zM518 584h133l45 231h-131z" />
<glyph unicode="$" horiz-adv-x="970" d="M39 94l76 225q165 -57 299 -57q198 0 198 139q0 34 -12 64t-29 50.5t-47 41.5t-54 33.5t-62 30.5q-63 31 -109 57.5t-97 65t-83 78t-53 93t-21 113.5q0 181 75.5 276t229.5 123v252h314v-252q134 -22 254 -84l-76 -225q-181 56 -299 56q-178 0 -178 -115 q0 -38 14.5 -68.5t47 -56t61.5 -42.5t81 -42q52 -26 82.5 -42.5t74 -43t69 -49t55 -56t45.5 -67.5t26.5 -79t10.5 -97q0 -317 -268 -396v-266h-314v244q-168 18 -311 96z" />
<glyph unicode="%" horiz-adv-x="1280" d="M29 1073v25q0 342 270 342t270 -342v-25q0 -344 -270 -344t-270 344zM242 0l534 1434h264l-536 -1434h-262zM266 1075q0 -66 7.5 -94.5t25.5 -28.5q39 0 39 123v25q0 117 -39 117q-18 0 -25.5 -27.5t-7.5 -89.5v-25zM711 336v24q0 345 270 345q126 0 198 -82.5t72 -262.5 v-24q0 -342 -270 -342t-270 342zM946 338q0 -123 35 -123q37 0 37 123v24q0 117 -37 117q-35 0 -35 -117v-24z" />
<glyph unicode="&#x26;" horiz-adv-x="1126" d="M42 304q-6 64 5 133t39 134.5t74.5 126.5t107.5 107q-17 29 -28 45q-50 85 -70.5 170t-7 160.5t57 134.5t127.5 93t198 34q72 0 133.5 -14t97 -34t61 -39.5t35.5 -33.5l9 -14l-131 -199l-8 8t-22.5 18.5t-37 23.5t-49.5 18t-62 8q-58 0 -83.5 -25.5t-20.5 -66t18.5 -76 t34.5 -70.5l178 -307q9 109 -18 266h278q28 -148 13 -292t-80 -289l207 -324h-338l-62 84q-134 -92 -311 -92q-78 0 -141.5 24.5t-105 67t-67 99.5t-31.5 121zM344 380.5q-9 -52.5 13 -89.5t77 -37q86 0 131 61l-157 244q-20 -30 -37.5 -78t-26.5 -100.5z" />
<glyph unicode="'" horiz-adv-x="401" d="M49 1434h303l-33 -533h-245z" />
<glyph unicode="(" horiz-adv-x="688" d="M111 682q0 427 219 825h329q-133 -236 -185 -407t-52 -418q0 -238 56.5 -424t180.5 -408h-329q-219 398 -219 832z" />
<glyph unicode=")" horiz-adv-x="688" d="M29 -150q124 222 180.5 408t56.5 424q0 247 -52 418t-185 407h329q220 -399 220 -825q0 -433 -220 -832h-329z" />
<glyph unicode="*" horiz-adv-x="817" d="M29 1075l77 221l189 -65l-8 203h241l-8 -203l187 65l81 -221l-202 -55l125 -170l-193 -133l-110 170l-113 -170l-195 133l127 170z" />
<glyph unicode="+" horiz-adv-x="1009" d="M70 563v256h280v268h307v-268h283v-256h-283v-270h-307v270h-280z" />
<glyph unicode="," horiz-adv-x="450" d="M-20 -225l118 471h334l-176 -471h-276z" />
<glyph unicode="-" horiz-adv-x="958" d="M70 563v256h819v-256h-819z" />
<glyph unicode="." horiz-adv-x="432" d="M29 186q0 77 55 132t131 55q77 0 132.5 -55.5t55.5 -131.5t-55.5 -131t-132.5 -55t-131.5 55t-54.5 131z" />
<glyph unicode="/" horiz-adv-x="686" d="M8 0l363 1434h307l-363 -1434h-307z" />
<glyph unicode="0" horiz-adv-x="1103" d="M59 694v43q0 81 5 150t19.5 142.5t37.5 132.5t61 112.5t88.5 89.5t122 57t158.5 21q101 0 181 -27t133 -78.5t89 -115t55 -147t27 -163t8 -174.5v-43q0 -81 -5 -150t-19.5 -142t-37.5 -131.5t-61.5 -112t-89 -89t-122 -56.5t-158.5 -21t-158.5 21t-122 56.5t-88.5 89 t-61 112t-37.5 132t-19.5 142t-5 149.5zM379 715q0 -53 1 -90t4.5 -88.5t10.5 -87.5t19.5 -74.5t30.5 -62t45 -39t61 -15.5t61 15.5t44.5 39t30 62.5t19 74t10.5 87.5t4.5 88.5t0.5 90t-0.5 90.5t-4.5 88.5t-10.5 87.5t-19 75t-30 63t-44.5 39t-61 15.5t-61 -15.5t-45 -39.5 t-30.5 -62.5t-19.5 -74.5t-10.5 -87.5t-4.5 -89t-1 -90.5z" />
<glyph unicode="1" horiz-adv-x="817" d="M70 920v280q206 84 356 234h240v-1434h-314v1075q-56 -58 -131.5 -99t-150.5 -56z" />
<glyph unicode="2" horiz-adv-x="989" d="M59 1343q94 49 210 74t225 25q213 0 324.5 -97.5t111.5 -287.5q0 -98 -30.5 -179.5t-79 -137.5t-107 -104t-117.5 -88.5t-107.5 -80t-79 -89t-30.5 -106.5v-8h536v-264h-854v246q0 104 30.5 189.5t79.5 142.5t108 104.5t118.5 85.5t108.5 75t79.5 83t30.5 100 q0 48 -15 79t-44 45t-57.5 19t-67.5 5q-110 0 -291 -56z" />
<glyph unicode="3" horiz-adv-x="1003" d="M49 90l78 225q171 -53 293 -53q101 0 155 38t54 142q0 22 -2.5 41.5t-14 49t-30.5 50t-56 35.5t-88 15h-164v250h164q53 0 89.5 15t53 40t23 47.5t6.5 48.5q0 137 -178 137q-121 0 -295 -53l-76 225q89 48 197 72.5t197 24.5q236 0 351.5 -91t115.5 -280 q0 -126 -47.5 -204t-129.5 -111q78 -17 138.5 -109t60.5 -239q0 -208 -131.5 -310t-370.5 -102q-89 0 -195 24t-198 72z" />
<glyph unicode="4" horiz-adv-x="1001" d="M29 264v139l512 1031h288v-910h144v-260h-144v-264h-313v264h-487zM375 524h162v344z" />
<glyph unicode="5" horiz-adv-x="997" d="M59 80l76 235q181 -55 277 -55q45 0 81 10t66.5 32.5t47 62.5t16.5 96q0 55 -16.5 93.5t-47.5 59t-67.5 29t-83.5 8.5h-302v144l27 639h748v-260h-455l-10 -277h14q121 0 210.5 -21t158.5 -69.5t104 -133t35 -204.5q0 -239 -134 -358t-370 -119q-211 0 -375 88z" />
<glyph unicode="6" horiz-adv-x="1040" d="M59 655q0 78 0.5 119.5t5 118.5t13 121.5t25.5 110t42 104.5t63 84.5t87 70t116.5 41.5t149.5 17q110 0 213 -26t174 -70l-76 -226q-50 25 -139.5 39.5t-150.5 14.5q-57 0 -99 -22t-65 -55t-36.5 -83.5t-17.5 -94t-4 -98.5q13 39 41.5 68.5t63.5 44.5t67.5 22t61.5 7 q88 0 157 -28t111.5 -73t70 -107t38 -125t10.5 -132v-43q0 -70 -12 -132t-44.5 -124.5t-83 -106.5t-133.5 -72t-190 -28q-94 0 -167.5 21.5t-121.5 52.5t-81.5 88t-50.5 104.5t-26 127t-10.5 130.5t-1.5 139zM373 475q0 -110 37.5 -168.5t111.5 -58.5q152 0 152 227 q0 230 -152 230q-149 0 -149 -230z" />
<glyph unicode="7" horiz-adv-x="948" d="M29 1169v265h891v-125l-402 -1309h-336l367 1169h-520z" />
<glyph unicode="8" horiz-adv-x="1069" d="M59 414q0 56 11 108.5t33 100.5t62 82t93 45q-84 19 -128 107.5t-44 195.5q0 173 118 281t328 108t330.5 -107.5t120.5 -277.5q0 -68 -18 -131t-59.5 -113t-98.5 -63q102 -22 152.5 -119.5t50.5 -220.5q0 -193 -123.5 -305.5t-351.5 -112.5t-352 113.5t-124 308.5z M369 440q0 -184 163 -184q166 0 166 184q0 23 -1.5 41t-11 45t-26 45t-49 31.5t-78.5 13.5q-33 0 -59.5 -7t-43 -17.5t-28.5 -27t-18 -31t-9.5 -34t-4 -31.5t-0.5 -28zM397 1042q0 -22 1 -37t8 -42.5t20 -44.5t40.5 -30.5t65.5 -13.5q140 0 140 168q0 63 -36.5 98.5 t-103.5 35.5t-101 -35t-34 -99z" />
<glyph unicode="9" horiz-adv-x="1040" d="M59 936v43q0 70 12 132t44.5 124.5t83 106.5t133.5 72t190 28q74 0 135 -13t105.5 -33t79.5 -56t58 -69t39 -86t24 -92.5t12.5 -103t5 -103.5t0.5 -108q0 -101 -1.5 -155t-10.5 -150t-27 -151.5t-54.5 -127t-89 -109.5t-134 -65.5t-185.5 -27.5q-110 0 -213 26t-174 70 l76 225q50 -25 139.5 -39t151.5 -14q57 0 99 22t65 55t36.5 83t17 93t3.5 99q-13 -39 -41.5 -68.5t-63.5 -44t-67.5 -21.5t-61.5 -7q-88 0 -157 28t-111.5 73t-70 107t-38 125t-10.5 132zM367 958q0 -229 151 -229q74 0 112 59t38 170q0 110 -38 169t-112 59 q-151 0 -151 -228z" />
<glyph unicode=":" horiz-adv-x="514" d="M70 186q0 77 55 132t131 55q77 0 132.5 -55.5t55.5 -131.5t-55.5 -131t-132.5 -55q-76 0 -131 55t-55 131zM70 920q0 76 55 131t131 55q77 0 132.5 -55t55.5 -131t-55.5 -131.5t-132.5 -55.5q-76 0 -131 55t-55 132z" />
<glyph unicode=";" horiz-adv-x="514" d="M-18 -225l118 471h334l-176 -471h-276zM70 920q0 76 55 131t131 55q77 0 132.5 -55t55.5 -131t-55.5 -131.5t-132.5 -55.5q-76 0 -131 55t-55 132z" />
<glyph unicode="&#x3c;" horiz-adv-x="882" d="M70 559v115l743 588v-349l-381 -299l381 -295v-348z" />
<glyph unicode="=" horiz-adv-x="917" d="M70 371v256h778v-256h-778zM70 754v256h778v-256h-778z" />
<glyph unicode="&#x3e;" horiz-adv-x="882" d="M70 -29v348l381 295l-381 299v349l743 -588v-115z" />
<glyph unicode="?" horiz-adv-x="921" d="M49 1343q94 49 200 74t197 25q203 0 309.5 -98.5t106.5 -274.5q0 -65 -18.5 -118.5t-46.5 -87.5t-61 -73.5t-61 -75.5t-46.5 -93.5t-18.5 -128.5v-41h-315v41q0 80 14 147.5t36.5 113t49.5 83t54 65.5t49.5 52.5t36.5 51.5t14 56q0 53 -36.5 81.5t-98.5 28.5 q-120 0 -291 -53zM274 170q0 77 48 122.5t133 45.5t132.5 -45.5t47.5 -122.5q0 -78 -47.5 -124t-132.5 -46t-133 46t-48 124z" />
<glyph unicode="@" horiz-adv-x="1507" d="M49 582q0 129 24.5 241t79.5 211t137.5 169t204.5 110.5t275 40.5q149 0 267 -39t196 -106.5t129.5 -163t73.5 -203.5t22 -234q0 -479 -321 -479q-33 0 -64.5 5t-66.5 18t-62.5 41t-40.5 67q-44 -121 -201 -121q-74 0 -131 27.5t-91.5 70.5t-56.5 102.5t-30 116t-8 117.5 q0 53 5 101.5t17.5 102t36.5 96.5t58 78.5t86 55t117 19.5q151 0 184 -98l8 90h190q-109 115 -317 115q-105 0 -187 -30.5t-134.5 -81t-87 -122.5t-48.5 -150t-14 -167q0 -100 15 -179.5t51.5 -149t94.5 -115.5t146.5 -72.5t204.5 -26.5q99 0 201 6v-225q-102 -6 -203 -6 q-167 0 -296.5 35.5t-216.5 100.5t-142.5 161.5t-80 212t-24.5 258.5zM641 573q0 -42 3.5 -73t15 -68t39 -57.5t69.5 -20.5q59 0 102 37v383q-43 37 -102 37q-31 0 -53.5 -9.5t-36 -30.5t-21.5 -39.5t-11.5 -50.5t-4 -50t-0.5 -50v-8zM1122 401q0 -55 33 -55q55 0 55 262 q0 239 -88 367v-574z" />
<glyph unicode="A" horiz-adv-x="1056" d="M8 0l326 1434h385l330 -1434h-340l-47 266h-267l-47 -266h-340zM440 512h176l-88 492z" />
<glyph unicode="B" horiz-adv-x="1005" d="M70 0v1434h393q211 0 323.5 -99t112.5 -291q0 -96 -40.5 -172t-115.5 -112q101 -28 162.5 -118t61.5 -208q0 -221 -128 -327.5t-364 -106.5h-405zM383 260h68q64 0 105 11.5t62.5 35.5t29 54t7.5 75q0 44 -7.5 73t-29 53t-62.5 35t-105 11h-68v-348zM383 868h55 q152 0 152 164q0 142 -154 142h-53v-306z" />
<glyph unicode="C" horiz-adv-x="1001" d="M49 717q0 125 17 230t58 198t104 157.5t160 102t222 37.5q96 0 184 -19t128 -38l41 -19l-70 -233q-121 38 -258 38q-63 0 -110 -27t-74 -68.5t-43.5 -104t-21.5 -121.5t-5 -133t5 -133t21.5 -121.5t43.5 -104.5t74 -69t110 -27q61 0 125.5 10t98.5 20l34 9l70 -233 q-6 -3 -16.5 -8t-46 -18.5t-73.5 -23.5t-97.5 -18t-119.5 -8q-125 0 -222 37.5t-160 102t-104 157.5t-58 198t-17 230z" />
<glyph unicode="D" horiz-adv-x="1040" d="M70 0v1434h288q92 0 168 -9.5t136 -27t107 -46.5t81.5 -62.5t59.5 -81t40.5 -96.5t24.5 -113.5t12.5 -128t3.5 -144.5q0 -107 -6 -186t-22.5 -158.5t-46 -135t-77 -104.5t-114.5 -78.5t-159.5 -46t-211.5 -16.5h-284zM383 260h14q65 0 111.5 12.5t76 44t47 63.5t25 94 t9.5 110.5t2 136.5q0 67 -0.5 102.5t-4 88t-10.5 79.5t-20 63t-32.5 53.5t-48 35.5t-67 24.5t-88.5 6.5h-14v-914z" />
<glyph unicode="E" horiz-adv-x="878" d="M70 0v1434h759v-260h-446v-306h358v-260h-358v-348h446v-260h-759z" />
<glyph unicode="F" horiz-adv-x="884" d="M70 0v1434h766v-260h-453v-328h371v-258h-371v-588h-313z" />
<glyph unicode="G" horiz-adv-x="1081" d="M59 717q0 127 14.5 230t52.5 197.5t99 158.5t159 101.5t228 37.5q95 0 195 -19t153 -38l52 -19l-70 -236q-184 41 -303 41q-50 0 -89 -14.5t-65 -36.5t-45 -59.5t-29 -72t-16 -86t-7.5 -90.5t-2.5 -95q2 -205 19 -286q34 -159 151 -168q8 -1 16 -1q74 0 123 39v307h-196 v246h510v-854h-279l-27 145q-16 -36 -30.5 -57.5t-41.5 -46.5t-70.5 -37t-104.5 -12q-74 0 -132.5 20t-99.5 53t-71 86.5t-47.5 111t-28 136t-14 151.5t-3.5 167z" />
<glyph unicode="H" horiz-adv-x="1052" d="M80 0v1434h313v-566h266v566h314v-1434h-314v608h-266v-608h-313z" />
<glyph unicode="I" horiz-adv-x="534" d="M111 0v1434h313v-1434h-313z" />
<glyph unicode="J" horiz-adv-x="806" d="M18 68l64 221q46 -19 115 -33t100 -14q106 0 106 114v832h-215v246h529v-1059q-1 -192 -105 -287.5t-284 -95.5q-68 0 -163 20t-147 56z" />
<glyph unicode="K" horiz-adv-x="1019" d="M70 0v1434h313v-1434h-313zM383 717l289 717h327l-299 -717l312 -717h-328z" />
<glyph unicode="L" horiz-adv-x="808" d="M70 0v1434h313v-1174h397v-260h-710z" />
<glyph unicode="M" horiz-adv-x="1282" d="M80 0v1434h348l213 -906l213 906h348v-1434h-313v645l-156 -645h-184l-156 645v-645h-313z" />
<glyph unicode="N" horiz-adv-x="1083" d="M80 0v1434h291l319 -752v752h314v-1434h-293l-318 752v-752h-313z" />
<glyph unicode="O" horiz-adv-x="1114" d="M66 694v43q0 83 4 149.5t16.5 142.5t34 133t58.5 112t88 90t124.5 56.5t165.5 21.5q91 0 164.5 -21.5t124 -56.5t88 -89.5t59.5 -112.5t35 -133t17 -142t3 -150v-43q0 -83 -3.5 -150t-16.5 -142t-35 -132t-59.5 -111.5t-88 -89.5t-124 -56t-164.5 -21q-92 0 -165.5 21 t-124.5 56t-88 89.5t-58.5 111.5t-34 132.5t-16.5 142t-4 149.5zM393 715q0 -55 0.5 -90t4 -87.5t9.5 -86.5t18 -73.5t29 -62t43.5 -38t59.5 -15.5t59.5 15.5t43.5 38t29 62t18 73.5t9.5 86.5t4 87.5t0.5 90q0 48 -0.5 78.5t-2.5 77t-6.5 78t-12 69t-20 62t-29 46.5 t-40.5 32.5t-53 10.5t-53 -10.5t-40.5 -32.5t-29 -46.5t-20 -62t-12 -69t-6.5 -78t-2.5 -77t-0.5 -78.5z" />
<glyph unicode="P" horiz-adv-x="978" d="M70 0v1434h434q212 0 329 -106t117 -310q0 -203 -118 -316.5t-328 -113.5h-121v-588h-313zM383 846h92q93 0 130.5 46.5t37.5 129.5q0 77 -36.5 114.5t-131.5 37.5h-92v-328z" />
<glyph unicode="Q" horiz-adv-x="1157" d="M66 694v43q0 81 5 150t20 142.5t38.5 132t63 112.5t92 90t127 57t166.5 21q91 0 165.5 -21t127 -57t92.5 -89.5t64 -112.5t39 -132.5t20.5 -142.5t5.5 -150v-43q0 -113 -17 -209.5t-65 -188t-125 -136.5l256 -58v-268l-649 158q-106 25 -182 71t-123 104.5t-74 143 t-37 174t-10 209.5zM393 715q0 -56 0.5 -90t4.5 -87.5t10.5 -86.5t20 -72.5t33 -61.5t49 -37.5t67.5 -15.5q29 0 53.5 9.5t42.5 23.5t32 39t23 48.5t15.5 59.5t10 63.5t5 69t2 69t0.5 69.5q0 55 -0.5 90t-4.5 88t-11 87t-20.5 73.5t-32.5 62t-48.5 38t-66.5 15.5 q-38 0 -67.5 -15.5t-49 -38t-33 -62.5t-20 -73.5t-10.5 -87t-4.5 -87.5t-0.5 -90z" />
<glyph unicode="R" horiz-adv-x="989" d="M70 0v1434h434q212 0 329 -106t117 -310q0 -138 -63 -242t-170 -141l272 -635h-344l-217 588h-37l-8 -588h-313zM383 846h92q93 0 130.5 46.5t37.5 129.5q0 77 -36.5 114.5t-131.5 37.5h-92v-328z" />
<glyph unicode="S" horiz-adv-x="970" d="M39 94l76 225q165 -57 299 -57q198 0 198 139q0 34 -12 64t-29 50.5t-47 41.5t-54 33.5t-62 30.5q-63 31 -109 57.5t-97 65t-83 78t-53 93t-21 113.5q0 224 117 319t358 95q88 0 196.5 -25.5t201.5 -73.5l-76 -225q-181 56 -299 56q-178 0 -178 -115q0 -38 14.5 -68.5 t47 -56t61.5 -42.5t81 -42q52 -26 82.5 -42.5t74 -43t69 -49t55 -56t45.5 -67.5t26.5 -79t10.5 -97q0 -222 -127 -323t-369 -101q-91 0 -197.5 25t-199.5 77z" />
<glyph unicode="T" horiz-adv-x="946" d="M18 1174v260h910v-260h-299v-1174h-314v1174h-297z" />
<glyph unicode="U" horiz-adv-x="1124" d="M80 600v834h315v-871q0 -42 0.5 -67t4 -61t9.5 -57.5t18 -46t29.5 -38t43.5 -22.5t59 -9t59.5 9t44 23.5t30.5 38.5t19.5 47.5t10.5 58t5 62.5t1 68v865h315v-834q0 -81 -5 -146t-19 -130t-36.5 -113.5t-59.5 -91t-87.5 -69.5t-120.5 -42.5t-157 -15.5t-156.5 15.5 t-119.5 42.5t-86.5 70t-58.5 91t-35.5 113.5t-18 129.5t-4.5 146z" />
<glyph unicode="V" horiz-adv-x="1056" d="M8 1434h340l180 -1004l181 1004h340l-330 -1434h-385z" />
<glyph unicode="W" horiz-adv-x="1488" d="M29 1434h329l113 -766l139 766h267l141 -766l112 766h330l-246 -1434h-290l-179 874l-180 -874h-291z" />
<glyph unicode="X" horiz-adv-x="1058" d="M8 0l295 717l-295 717h340l182 -482l181 482h340l-293 -717l293 -717h-340l-179 481l-184 -481h-340z" />
<glyph unicode="Y" horiz-adv-x="1058" d="M8 1434h338l184 -498l183 498h338l-367 -883v-551h-313v551z" />
<glyph unicode="Z" horiz-adv-x="968" d="M49 0v162l471 1012h-471v260h871v-162l-469 -1012h469v-260h-871z" />
<glyph unicode="[" horiz-adv-x="698" d="M111 -164v1680h538v-261h-225v-1159h225v-260h-538z" />
<glyph unicode="\" horiz-adv-x="686" d="M8 1434h307l363 -1434h-307z" />
<glyph unicode="]" horiz-adv-x="698" d="M49 96h225v1159h-225v261h539v-1680h-539v260z" />
<glyph unicode="^" horiz-adv-x="968" d="M49 860l301 574h268l302 -574h-332l-103 244l-104 -244h-332z" />
<glyph unicode="_" horiz-adv-x="999" d="M29 0h942v-258h-942v258z" />
<glyph unicode="`" horiz-adv-x="509" d="M0 1434h328l174 -492h-287z" />
<glyph unicode="a" horiz-adv-x="907" d="M29 319q0 291 305 340l198 33v35q0 58 -23.5 80t-98.5 22q-130 0 -265 -49l-75 205q70 38 182 63t194 25q206 0 299 -87t93 -279v-707h-279l-18 119q-25 -63 -86.5 -95t-137.5 -32q-134 0 -211 89.5t-77 237.5zM342 330q0 -92 78 -92q48 0 112 41v163l-104 -20 q-46 -9 -66 -30t-20 -62z" />
<glyph unicode="b" horiz-adv-x="976" d="M70 0v1434h305v-416q70 55 184 55q80 0 144 -28t116 -89.5t80.5 -172t28.5 -263.5q0 -261 -89.5 -394.5t-250.5 -133.5q-88 0 -151 36t-77 91l-12 -119h-278zM375 272q47 -34 102 -34q79 0 111.5 74t32.5 210q0 169 -44.5 237t-130.5 68q-35 0 -71 -8v-547z" />
<glyph unicode="c" horiz-adv-x="880" d="M49 532q0 278 122 409.5t331 131.5q83 0 176 -20.5t164 -59.5l-68 -202q-99 36 -213 36q-203 0 -203 -284q0 -148 53.5 -226.5t153.5 -78.5q37 0 98.5 9t110.5 27l68 -204q-69 -39 -162.5 -58.5t-177.5 -19.5q-101 0 -182 30.5t-142.5 93t-95 168.5t-33.5 248z" />
<glyph unicode="d" horiz-adv-x="976" d="M49 520q0 153 28.5 263.5t80.5 172t116 89.5t144 28q114 0 184 -55v416h305v-1434h-278l-13 119q-14 -55 -76.5 -91t-150.5 -36q-161 0 -250.5 133.5t-89.5 394.5zM356 522q0 -136 32.5 -210t111.5 -74q55 0 102 34v547q-36 8 -72 8q-86 0 -130 -68t-44 -237z" />
<glyph unicode="e" horiz-adv-x="894" d="M49 489v62q0 145 30 248.5t86.5 162t128.5 85t165 26.5q92 0 161 -21t122 -68.5t80.5 -131t27.5 -201.5q0 -101 -14 -231h-482q10 -100 49.5 -143.5t110.5 -43.5q90 0 254 41l70 -204q-70 -39 -169.5 -58.5t-187.5 -19.5q-99 0 -174 24.5t-133 80.5t-89.5 154t-35.5 238z M354 645h211v21q0 94 -26 132t-80 38q-43 0 -73.5 -51.5t-31.5 -139.5z" />
<glyph unicode="f" horiz-adv-x="690" d="M8 840v225h160v14q2 189 79.5 282t244.5 93q83 0 147 -17t92 -42l-51 -197q-52 25 -111 25q-56 0 -76 -33t-20 -100v-25h201v-225h-201v-840h-305v840h-160z" />
<glyph unicode="g" horiz-adv-x="978" d="M49 524q0 120 21 217.5t65 173t118 117t173 41.5q138 0 188 -115l17 107h278v-1026q-1 -111 -23 -194t-59 -135t-93 -84t-119 -44t-144 -12q-83 0 -186.5 23.5t-173.5 62.5l77 207q111 -47 252 -47q42 0 68 7t50 30.5t35 73t11 128.5v41q-17 -41 -65.5 -72.5 t-132.5 -31.5q-172 0 -264.5 134t-92.5 398zM358 524q0 -132 35 -209t103 -77q57 0 108 34v521q-51 34 -108 34q-41 0 -69.5 -24.5t-43 -70t-20 -95t-5.5 -113.5z" />
<glyph unicode="h" horiz-adv-x="948" d="M70 0v1434h305v-459q89 98 252 98q122 0 187 -68t65 -233v-772h-306v764q0 42 -12 54.5t-39 12.5q-83 0 -147 -40v-791h-305z" />
<glyph unicode="i" horiz-adv-x="528" d="M84 1317q0 77 47.5 122.5t132.5 45.5t132.5 -45.5t47.5 -122.5q0 -78 -47.5 -124t-132.5 -46t-132.5 46t-47.5 124zM111 0v1065h307v-1065h-307z" />
<glyph unicode="j" horiz-adv-x="528" d="M-166 -236l55 197q59 -27 140 -27q82 0 82 134v997h307v-997q-1 -184 -84 -279.5t-240 -95.5q-156 0 -260 71zM84 1317q0 77 47.5 122.5t132.5 45.5t132.5 -45.5t47.5 -122.5q0 -78 -47.5 -124t-132.5 -46t-132.5 46t-47.5 124z" />
<glyph unicode="k" horiz-adv-x="952" d="M70 0v1434h305v-1434h-305zM375 532l239 533h320l-252 -533l262 -532h-317z" />
<glyph unicode="l" horiz-adv-x="487" d="M90 0v1434h307v-1434h-307z" />
<glyph unicode="m" horiz-adv-x="1349" d="M70 0v1065h272l25 -127q69 135 235 135q89 0 132.5 -35t60.5 -100q26 51 94 93t147 42q64 0 109 -14.5t71.5 -38.5t40.5 -66.5t18.5 -85.5t4.5 -108v-760h-305v729q0 46 -10.5 71t-40.5 25q-44 0 -101 -37q4 -12 4 -51v-737h-305v729q0 47 -10 71.5t-41 24.5 q-37 0 -96 -41v-784h-305z" />
<glyph unicode="n" horiz-adv-x="948" d="M70 0v1065h272l18 -107q91 115 267 115q122 0 187 -68t65 -233v-772h-306v764q0 42 -12 54.5t-39 12.5q-83 0 -147 -40v-791h-305z" />
<glyph unicode="o" horiz-adv-x="960" d="M45 512v41q0 140 34 243t95 162t136.5 87t166.5 28t167.5 -28t138.5 -87t97 -162.5t35 -242.5v-41q0 -139 -35 -242t-97 -162.5t-138.5 -87.5t-167.5 -28t-166.5 28t-136.5 87.5t-95 162.5t-34 242zM350 512q0 -279 127 -279q133 0 133 279v41q0 278 -133 278 q-127 0 -127 -278v-41z" />
<glyph unicode="p" horiz-adv-x="976" d="M70 -410v1475h272l25 -107q70 115 206 115q95 0 165.5 -41.5t111 -117.5t59.5 -172.5t19 -217.5q0 -258 -97.5 -395t-257.5 -137q-151 0 -198 104v-506h-305zM375 272q47 -34 100 -34q73 0 109.5 77t36.5 209q0 303 -146 303q-53 0 -100 -34v-521z" />
<glyph unicode="q" horiz-adv-x="976" d="M49 524q0 121 19 217.5t59.5 172.5t110.5 117.5t165 41.5q137 0 207 -115l25 107h272v-1475h-305v506q-47 -104 -199 -104q-160 0 -257 136.5t-97 395.5zM356 524q0 -132 36.5 -209t109.5 -77q53 0 100 34v521q-47 34 -100 34q-146 0 -146 -303z" />
<glyph unicode="r" horiz-adv-x="655" d="M70 0v1065h270l25 -109q24 49 109 84q80 33 155 33h8v-274q-43 6 -83 6q-100 0 -179 -39v-766h-305z" />
<glyph unicode="s" horiz-adv-x="835" d="M39 96l86 193q56 -22 129.5 -36.5t120.5 -14.5q46 0 79 16t33 51q0 24 -12.5 45t-37.5 39t-43 28.5t-48 25.5l-12 6q-121 61 -167 96q-116 88 -116 215q0 313 350 313q103 0 211.5 -25.5t180.5 -74.5l-80 -201q-159 55 -264 55q-38 0 -65.5 -12t-27.5 -37 q0 -14 6.5 -27.5t20 -26t25 -22t33 -21t31.5 -16.5t32 -15t24 -11q58 -26 102.5 -55t84 -68.5t61 -91.5t21.5 -113q0 -88 -29.5 -151.5t-83.5 -99t-119 -52t-145 -16.5q-101 0 -206.5 25.5t-174.5 78.5z" />
<glyph unicode="t" horiz-adv-x="741" d="M8 840v225h160v41l43 252h262v-293h201v-225h-201v-471q0 -127 107 -127q48 0 104 28l57 -207q-83 -71 -239 -71q-169 0 -250.5 94.5t-83.5 282.5v471h-160z" />
<glyph unicode="u" horiz-adv-x="948" d="M70 293v772h305v-764q0 -42 12 -55t39 -13q81 0 147 41v791h306v-1065h-273l-18 106q-90 -114 -266 -114q-122 0 -187 68t-65 233z" />
<glyph unicode="v" horiz-adv-x="956" d="M8 1065h320l151 -733l150 733h319l-295 -1065h-348z" />
<glyph unicode="w" horiz-adv-x="1378" d="M29 1065h315l123 -641l119 641h205l118 -641l123 641h318l-244 -1065h-295l-121 580l-121 -580h-295z" />
<glyph unicode="x" horiz-adv-x="966" d="M8 0l254 532l-254 533h340l135 -379l135 379h340l-251 -533l251 -532h-340l-135 381l-135 -381h-340z" />
<glyph unicode="y" horiz-adv-x="985" d="M8 1065h318l172 -559l161 559h318l-471 -1430h-307l147 453z" />
<glyph unicode="z" horiz-adv-x="872" d="M49 0v145l389 678h-389v242h774v-145l-389 -678h389v-242h-774z" />
<glyph unicode="{" horiz-adv-x="778" d="M70 563v225q96 7 131 57t35 132v192q0 176 73.5 261.5t263.5 85.5h156v-261h-86q-53 0 -72.5 -23t-19.5 -77v-197q0 -94 -42.5 -173.5t-127.5 -108.5q89 -29 129.5 -106t40.5 -177v-205q0 -49 20.5 -70.5t71.5 -21.5h86v-260h-156q-98 0 -164.5 22.5t-104 68.5t-53 106.5 t-15.5 146.5v197q0 38 -6.5 67t-23.5 56.5t-51 43.5t-85 19z" />
<glyph unicode="|" horiz-adv-x="618" d="M152 -164v1680h315v-1680h-315z" />
<glyph unicode="}" horiz-adv-x="778" d="M49 96h86q51 0 71.5 21.5t20.5 70.5v205q0 100 40.5 177t129.5 106q-85 29 -127.5 108.5t-42.5 173.5v197q0 54 -19.5 77t-72.5 23h-86v261h156q98 0 164.5 -23t104.5 -69.5t53.5 -107.5t15.5 -147v-192q0 -82 35 -132t131 -57v-225q-51 -3 -85 -19t-51 -43.5 t-23.5 -56.5t-6.5 -67v-197q0 -86 -15.5 -147t-53.5 -106.5t-104.5 -68t-164.5 -22.5h-156v260z" />
<glyph unicode="~" horiz-adv-x="1005" d="M49 565q0 6 1 17t8.5 43t18.5 60.5t34.5 64t54.5 60.5t80.5 42.5t109.5 17.5q51 0 93.5 -16t65.5 -35t52 -35t56 -16q21 0 33.5 25.5t15.5 50.5l2 26l282 -55q0 -6 -1.5 -17t-8.5 -42.5t-18.5 -60t-35.5 -63.5t-55.5 -60.5t-81 -42.5t-110.5 -17q-44 0 -79 10.5t-56 25 t-40 29t-41 25t-48 10.5q-21 0 -34.5 -25.5t-16.5 -50.5l-4 -26z" />
<glyph unicode="&#xa1;" horiz-adv-x="499" d="M70 895q0 78 47.5 124t132.5 46t132.5 -46t47.5 -124q0 -77 -47.5 -122.5t-132.5 -45.5t-132.5 45.5t-47.5 122.5zM88 -369l23 983h278l23 -983h-324z" />
<glyph unicode="&#xa2;" horiz-adv-x="880" d="M49 532q0 226 81.5 355.5t227.5 167.5v256h314v-256q95 -19 170 -62l-68 -202q-99 36 -213 36q-203 0 -203 -284q0 -148 53.5 -226.5t153.5 -78.5q37 0 98.5 9t110.5 27l68 -204q-67 -40 -170 -60v-256h-314v256q-146 38 -227.5 167t-81.5 355z" />
<glyph unicode="&#xa3;" horiz-adv-x="999" d="M29 0v260h125v533q0 101 2.5 164.5t12 140t28 122t51.5 92.5t81.5 72t118.5 40.5t162 15.5q55 0 112 -10t100 -24t77.5 -28.5t52.5 -24.5l19 -10l-78 -233q-164 59 -270 59q-25 0 -46 -5t-36 -12t-27 -21t-19.5 -25t-13 -32t-8 -34t-3.5 -38.5t-1.5 -37.5t0 -39.5 t0.5 -37.5v-58h358v-260h-358v-309h467v-260h-907z" />
<glyph unicode="&#xa4;" horiz-adv-x="1128" d="M70 975l184 186l108 -112q91 51 199 51q107 0 193 -51l108 110l197 -184l-115 -111q47 -91 47 -196.5t-47 -196.5l113 -113l-189 -182l-112 109q-78 -47 -191 -47q-114 0 -200 47l-115 -111l-178 195l108 100q-50 93 -49 197.5t49 197.5zM391 668q0 -70 49.5 -121 t120.5 -51t120.5 51t49.5 121q0 71 -49.5 121.5t-120.5 50.5t-120.5 -50.5t-49.5 -121.5z" />
<glyph unicode="&#xa5;" horiz-adv-x="1058" d="M8 1434h338l184 -498l183 498h338l-271 -637h154v-226h-250v-106h250v-225h-250v-240h-313v240h-246v225h246v106h-246v226h151z" />
<glyph unicode="&#xa6;" horiz-adv-x="618" d="M152 -164v653h315v-653h-315zM152 981v657h315v-657h-315z" />
<glyph unicode="&#xa7;" horiz-adv-x="860" d="M41 90l90 209q59 -24 135.5 -39.5t124.5 -15.5q107 0 107 49q0 30 -39 58.5t-111 59.5t-80 35q-38 20 -58 31t-56.5 39t-55.5 55.5t-35 73t-16 98.5q0 77 35.5 131t93.5 66q-55 15 -89 69t-34 132q0 299 377 299q94 0 206 -25t183 -72l-90 -208q-62 24 -136.5 39.5 t-125.5 15.5q-107 0 -107 -49q0 -31 39 -59.5t109.5 -58.5t81.5 -36q5 -3 29.5 -16.5t34 -19.5t32 -20.5t33.5 -25.5t29 -28.5t27 -35.5t19 -41t14.5 -50t4.5 -58q0 -77 -35.5 -131t-95.5 -67q56 -18 90.5 -71t34.5 -130q0 -299 -377 -299q-95 0 -206.5 24.5t-182.5 71.5z M346 754q0 -21 10 -39t32 -34t39 -25.5t48 -24.5q37 16 37 53t-34 64.5t-93 54.5q-39 -10 -39 -49z" />
<glyph unicode="&#xa8;" horiz-adv-x="899" d="M70 1264q0 77 47 123.5t125 46.5q76 0 123 -47t47 -123q0 -78 -46.5 -125t-123.5 -47q-78 0 -125 47t-47 125zM487 1264q0 77 47 123.5t125 46.5q77 0 123.5 -47t46.5 -123q0 -78 -46.5 -125t-123.5 -47q-78 0 -125 47t-47 125z" />
<glyph unicode="&#xa9;" horiz-adv-x="1269" d="M49 717q0 154 34 282.5t102.5 229t183.5 157t266 56.5t266 -56.5t183.5 -157t102.5 -229t34 -282.5t-34 -282.5t-102.5 -229t-183.5 -157t-266 -56.5t-266 56.5t-183.5 157t-102.5 229t-34 282.5zM268 717q0 -115 18 -204.5t58.5 -162.5t113.5 -112t177 -39 q83 0 147 26.5t105 71.5t67 112t36.5 142t10.5 166t-10.5 166t-36.5 142t-67 112t-105 71.5t-147 26.5q-104 0 -177 -39t-113.5 -112t-58.5 -162.5t-18 -204.5zM330 717q0 47 5 92t18 97t38 94.5t60.5 78.5t91 56t125.5 20q125 0 204 -68l-43 -155q-47 24 -124 24 q-47 0 -79.5 -24t-47.5 -63.5t-21 -76t-6 -75.5t6.5 -76t23 -77t52.5 -64.5t88 -24.5q57 0 108 23l43 -154q-34 -33 -92 -50.5t-121 -17.5q-80 0 -141.5 30t-96 75.5t-56 107.5t-28.5 116t-7 112z" />
<glyph unicode="&#xaa;" horiz-adv-x="624" d="M29 963q0 87 39.5 139t128.5 72l145 30v10q0 30 -10 40t-43 10q-89 0 -178 -27l-62 145q115 60 250 60q133 0 194.5 -56t61.5 -172v-460h-186l-11 65q-36 -71 -133 -71q-96 0 -146 65.5t-50 149.5zM246 971q0 -22 6 -31.5t22 -9.5q36 0 68 16v78l-51 -8q-25 -4 -35 -14.5 t-10 -30.5z" />
<glyph unicode="&#xab;" horiz-adv-x="1472" d="M70 559v115l743 588v-349l-381 -299l381 -295v-348zM659 559v115l744 588v-349l-381 -299l381 -295v-348z" />
<glyph unicode="&#xac;" horiz-adv-x="958" d="M70 563v256h819v-461h-307v205h-512z" />
<glyph unicode="&#xad;" horiz-adv-x="958" d="M70 563v256h819v-256h-819z" />
<glyph unicode="&#xae;" horiz-adv-x="1269" d="M49 717q0 154 34 282.5t102.5 229t183.5 157t266 56.5t266 -56.5t183.5 -157t102.5 -229t34 -282.5t-34 -282.5t-102.5 -229t-183.5 -157t-266 -56.5t-266 56.5t-183.5 157t-102.5 229t-34 282.5zM268 717q0 -115 18 -204.5t58.5 -162.5t113.5 -112t177 -39q160 0 250 96 h-170l-107 344h-10v-344h-188v850h227q123 0 190.5 -67t67.5 -177q0 -170 -123 -225l125 -367q104 125 104 408q0 91 -10.5 166t-36.5 142t-67 112t-105 71.5t-147 26.5q-104 0 -177 -39t-113.5 -112t-58.5 -162.5t-18 -204.5zM598 803h23q49 0 69.5 23.5t20.5 78.5 q0 86 -90 86h-23v-188z" />
<glyph unicode="&#xaf;" horiz-adv-x="999" d="M29 1493v258h942v-258h-942z" />
<glyph unicode="&#xb0;" horiz-adv-x="655" d="M29 1139q0 80 26 141t69.5 95t95 50.5t108.5 16.5q56 0 107 -16.5t95 -50.5t70.5 -95t26.5 -141t-26.5 -140.5t-70.5 -94t-95 -50t-107 -16.5q-57 0 -108 16.5t-95 50t-70 94t-26 140.5zM229 1141q0 -113 99 -113q100 0 100 113q0 64 -27 86t-73 22q-45 0 -72 -22 t-27 -86z" />
<glyph unicode="&#xb1;" horiz-adv-x="1009" d="M70 0v256h870v-256h-870zM70 625v256h280v268h307v-268h283v-256h-283v-271h-307v271h-280z" />
<glyph unicode="&#xb2;" horiz-adv-x="628" d="M59 1378q131 64 244 64q266 0 266 -211q0 -65 -24.5 -116t-62 -83.5t-75.5 -59t-71.5 -56.5t-44.5 -62h270v-192h-491v153q0 72 29.5 130.5t71 94.5t83 65.5t71 58.5t29.5 59q0 32 -61 32q-77 0 -189 -38z" />
<glyph unicode="&#xb3;" horiz-adv-x="634" d="M49 723l51 162q112 -31 179 -31q43 0 60 16.5t17 59.5q0 55 -80 55h-100v164h100q70 0 70 51q0 19 -15.5 33t-45.5 14q-111 0 -179 -16l-53 170q72 25 121.5 33t122.5 8q266 0 266 -228q0 -44 -24 -83.5t-66 -57.5q46 -15 74 -60t28 -102q0 -121 -70.5 -187.5 t-213.5 -66.5q-116 0 -242 66z" />
<glyph unicode="&#xb4;" horiz-adv-x="559" d="M49 1188l133 409h328l-174 -409h-287z" />
<glyph unicode="&#xb6;" horiz-adv-x="1314" d="M49 1004q0 122 29.5 207.5t86.5 133.5t130.5 68.5t171.5 20.5h778v-1434h-266v1178h-141v-1178h-267v606q-63 -18 -133 -18q-72 0 -129.5 13t-107 43.5t-82.5 78t-51.5 118.5t-18.5 163z" />
<glyph unicode="&#xb7;" horiz-adv-x="743" d="M143 649q0 94 68.5 159.5t165.5 65.5q92 0 157.5 -65.5t65.5 -159.5q0 -96 -65 -162.5t-158 -66.5q-97 0 -165.5 66.5t-68.5 162.5z" />
<glyph unicode="&#xb8;" horiz-adv-x="714" d="M29 -485l71 155q103 -35 179 -35q71 0 121.5 17t50.5 51q0 22 -24 28.5t-81 6.5h-227l12 110l148 242h245l-110 -176q67 0 114 -9t84.5 -32.5t55.5 -67t18 -108.5q0 -60 -23 -106.5t-59 -74t-86 -45t-98.5 -24t-102.5 -6.5q-176 0 -288 74z" />
<glyph unicode="&#xb9;" horiz-adv-x="563" d="M29 1110v199q184 62 237 125h166v-777h-217v521q-22 -19 -81 -40.5t-105 -27.5z" />
<glyph unicode="&#xba;" horiz-adv-x="692" d="M59 1069q0 55 6.5 103t26 99.5t50 87.5t82.5 59.5t120 23.5q289 0 289 -398q0 -54 -7 -102.5t-26.5 -99.5t-50.5 -87.5t-83.5 -59.5t-121.5 -23q-73 0 -127 26t-83.5 64t-47 94.5t-22.5 105t-5 107.5zM281 1057q0 -195 63 -195q22 0 37 22.5t21 58t8 62t2 52.5 q0 25 -2 51t-8 62t-21 58.5t-37 22.5q-63 0 -63 -194z" />
<glyph unicode="&#xbb;" horiz-adv-x="1472" d="M70 -29v348l381 295l-381 299v349l743 -588v-115zM659 -29v348l381 295l-381 299v349l744 -588v-115z" />
<glyph unicode="&#xbc;" horiz-adv-x="1257" d="M29 1110v199q184 62 237 125h166v-695h-217v439q-22 -19 -81 -40.5t-105 -27.5zM315 0l363 1434h246l-363 -1434h-246zM692 131v96l281 547h182v-495h74v-148h-74v-131h-215v131h-248zM891 279h70v159z" />
<glyph unicode="&#xbd;" horiz-adv-x="1359" d="M29 1110v199q184 62 237 125h166v-695h-217v439q-22 -19 -81 -40.5t-105 -27.5zM315 0l363 1434h246l-363 -1434h-246zM791 717q129 63 243 63q266 0 266 -211q0 -65 -24.5 -116t-62 -83t-75.5 -58.5t-71.5 -56.5t-44.5 -62h270v-193h-491v154q0 72 29.5 130.5t71 94 t83 65t71 58.5t29.5 59q0 33 -61 33q-73 0 -188 -39z" />
<glyph unicode="&#xbe;" horiz-adv-x="1359" d="M49 723l51 162q112 -31 179 -31q43 0 60 16.5t17 59.5q0 55 -80 55h-100v164h100q70 0 70 51q0 19 -15.5 33t-45.5 14q-111 0 -179 -16l-53 170q72 25 121.5 33t122.5 8q266 0 266 -228q0 -44 -24 -83.5t-66 -57.5q46 -15 74 -60t28 -102q0 -121 -70.5 -187.5 t-213.5 -66.5q-116 0 -242 66zM418 0l362 1434h246l-362 -1434h-246zM795 131v96l280 547h182v-495h74v-148h-74v-131h-215v131h-247zM993 279h70v159z" />
<glyph unicode="&#xbf;" horiz-adv-x="921" d="M59 -4q0 65 18.5 118.5t46.5 87.5t61 73.5t61 75.5t46.5 93.5t18.5 128.5v41h316v-41q0 -80 -14 -147.5t-36.5 -113t-49.5 -83t-54 -65.5t-49.5 -52.5t-36.5 -51.5t-14 -56q0 -53 36.5 -81.5t98.5 -28.5q120 0 291 53l73 -226q-94 -49 -199.5 -73.5t-197.5 -24.5 q-203 0 -309.5 98.5t-106.5 274.5zM287 895q0 78 47.5 124t132.5 46t132.5 -46t47.5 -124q0 -77 -47.5 -122.5t-132.5 -45.5t-132.5 45.5t-47.5 122.5z" />
<glyph unicode="&#xc0;" horiz-adv-x="1056" d="M8 0l326 1434h385l330 -1434h-340l-47 266h-267l-47 -266h-340zM221 1966h328l133 -410h-287zM440 512h176l-88 492z" />
<glyph unicode="&#xc1;" horiz-adv-x="1056" d="M8 0l326 1434h385l330 -1434h-340l-47 266h-267l-47 -266h-340zM356 1556l133 410h328l-174 -410h-287zM440 512h176l-88 492z" />
<glyph unicode="&#xc2;" horiz-adv-x="1056" d="M8 0l326 1434h385l330 -1434h-340l-47 266h-267l-47 -266h-340zM170 1556l223 410h271l223 -410h-287l-72 175l-71 -175h-287zM440 512h176l-88 492z" />
<glyph unicode="&#xc3;" horiz-adv-x="1056" d="M8 0l326 1434h385l330 -1434h-340l-47 266h-267l-47 -266h-340zM135 1597q0 11 2.5 29t17 63.5t38 80.5t73 63.5t115.5 28.5q53 0 102.5 -20.5t87.5 -41t64 -20.5q17 0 27.5 20.5t11.5 41.5l2 20l248 -64q0 -5 -1 -14t-7 -34t-15.5 -48t-28.5 -51.5t-44 -48.5t-65 -34 t-89 -14q-54 0 -100.5 20.5t-83.5 41t-68 20.5q-16 0 -27.5 -20.5t-14.5 -41.5l-3 -20zM440 512h176l-88 492z" />
<glyph unicode="&#xc4;" horiz-adv-x="1056" d="M8 0l326 1434h385l330 -1434h-340l-47 266h-267l-47 -266h-340zM143 1708q0 77 47 123.5t125 46.5q77 0 123.5 -47t46.5 -123q0 -78 -46.5 -125t-123.5 -47q-78 0 -125 47t-47 125zM440 512h176l-88 492zM561 1708q0 77 47 123.5t125 46.5q77 0 123.5 -47t46.5 -123 q0 -78 -46.5 -125t-123.5 -47q-78 0 -125 47t-47 125z" />
<glyph unicode="&#xc5;" horiz-adv-x="1056" d="M8 0l314 1382q-80 74 -80 193q0 121 82 198.5t202 77.5t204.5 -78t84.5 -198q0 -121 -84 -195l318 -1380h-340l-47 266h-267l-47 -266h-340zM436 1575q0 -36 25 -62t65 -26q41 0 68 26t27 62q0 43 -26.5 67.5t-68.5 24.5t-66 -24t-24 -68zM440 512h176l-88 492z" />
<glyph unicode="&#xc6;" horiz-adv-x="1593" d="M8 0l776 1434h760v-260h-446v-306h358v-260h-358v-348h446v-260h-760v266h-290l-142 -266h-344zM623 512h161v307z" />
<glyph unicode="&#xc7;" horiz-adv-x="1001" d="M49 717q0 125 17 230t58 198t104 157.5t160 102t222 37.5q96 0 184 -19t128 -38l41 -19l-70 -233q-121 38 -258 38q-63 0 -110 -27t-74 -68.5t-43.5 -104t-21.5 -121.5t-5 -133t5 -133t21.5 -121.5t43.5 -104.5t74 -69t110 -27q61 0 125.5 10t98.5 20l34 9l70 -233 q-11 -6 -30.5 -15t-85 -28t-134.5 -27l-54 -84q138 0 205.5 -46t67.5 -171q0 -60 -23 -106.5t-59 -74t-86 -45t-98.5 -24t-102.5 -6.5q-177 0 -289 74l72 155q103 -35 178 -35q71 0 121.5 17t50.5 51q0 22 -24 28.5t-80 6.5h-227l12 110l96 156q-115 23 -199 87t-132 161 t-70.5 212t-22.5 253z" />
<glyph unicode="&#xc8;" horiz-adv-x="878" d="M70 0v1434h759v-260h-446v-306h358v-260h-358v-348h446v-260h-759zM180 1966h328l133 -410h-287z" />
<glyph unicode="&#xc9;" horiz-adv-x="878" d="M70 0v1434h759v-260h-446v-306h358v-260h-358v-348h446v-260h-759zM303 1556l133 410h328l-174 -410h-287z" />
<glyph unicode="&#xca;" horiz-adv-x="878" d="M70 0v1434h759v-260h-446v-306h358v-260h-358v-348h446v-260h-759zM100 1556l224 410h270l223 -410h-287l-71 175l-72 -175h-287z" />
<glyph unicode="&#xcb;" horiz-adv-x="878" d="M70 0v1434h759v-260h-446v-306h358v-260h-358v-348h446v-260h-759zM70 1708q0 77 47 123.5t125 46.5q76 0 123 -47t47 -123q0 -78 -46.5 -125t-123.5 -47q-78 0 -125 47t-47 125zM487 1708q0 77 47 123.5t125 46.5q77 0 123.5 -47t46.5 -123q0 -78 -46.5 -125t-123.5 -47 q-78 0 -125 47t-47 125z" />
<glyph unicode="&#xcc;" horiz-adv-x="534" d="M-51 1966h327l134 -410h-287zM111 0v1434h313v-1434h-313z" />
<glyph unicode="&#xcd;" horiz-adv-x="534" d="M111 0v1434h313v-1434h-313zM121 1556l133 410h328l-174 -410h-287z" />
<glyph unicode="&#xce;" horiz-adv-x="534" d="M-90 1556l223 410h270l224 -410h-287l-72 175l-71 -175h-287zM111 0v1434h313v-1434h-313z" />
<glyph unicode="&#xcf;" horiz-adv-x="534" d="M-113 1708q0 77 47 123.5t125 46.5q77 0 123.5 -47t46.5 -123q0 -78 -46.5 -125t-123.5 -47q-78 0 -125 47t-47 125zM111 0v1434h313v-1434h-313zM305 1708q0 77 47 123.5t125 46.5q77 0 123.5 -47t46.5 -123q0 -78 -46.5 -125t-123.5 -47q-78 0 -125 47t-47 125z" />
<glyph unicode="&#xd0;" horiz-adv-x="1116" d="M0 598v246h145v590h289q92 0 168 -9.5t136 -27t107 -46.5t81.5 -62.5t59.5 -81t40.5 -96.5t24.5 -113.5t12.5 -128t3.5 -144.5q0 -107 -6 -186t-22.5 -158.5t-46 -135t-77 -104.5t-114.5 -78.5t-159.5 -46t-211.5 -16.5h-285v598h-145zM459 260h14q65 0 111.5 12.5t76 44 t46.5 63t24.5 94t9.5 110.5t2 137q0 68 -0.5 103t-4 88t-10.5 79.5t-19.5 62.5t-32.5 53t-48 35.5t-66.5 25t-88.5 6.5h-14v-330h145v-246h-145v-338z" />
<glyph unicode="&#xd1;" horiz-adv-x="1083" d="M80 0v1434h291l319 -752v752h314v-1434h-293l-318 752v-752h-313zM147 1597q0 11 2.5 29t17 63.5t38 80.5t73 63.5t115.5 28.5q53 0 102.5 -20.5t87.5 -41t64 -20.5q17 0 27.5 20.5t11.5 41.5l2 20l248 -64q0 -5 -1 -14t-7 -34t-15.5 -48t-28.5 -51.5t-44 -48.5t-65 -34 t-89 -14q-54 0 -100.5 20.5t-83.5 41t-68 20.5q-16 0 -27.5 -20.5t-14.5 -41.5l-3 -20z" />
<glyph unicode="&#xd2;" horiz-adv-x="1114" d="M66 694v43q0 83 4 149.5t16.5 142.5t34 133t58.5 112t88 90t124.5 56.5t165.5 21.5q91 0 164.5 -21.5t124 -56.5t88 -89.5t59.5 -112.5t35 -133t17 -142t4 -150v-43q0 -83 -4 -150t-17 -142t-35 -132t-59.5 -111.5t-88 -89.5t-124 -56t-164.5 -21q-92 0 -165.5 21 t-124.5 56t-88 89.5t-58.5 111.5t-34 132.5t-16.5 142t-4 149.5zM283 1966h327l133 -410h-286zM393 715q0 -55 0.5 -90t4 -87.5t9.5 -86.5t18 -73.5t29 -62t43.5 -38t59.5 -15.5t59.5 15.5t43.5 38t29 62t18 73.5t9.5 86.5t4 87.5t0.5 90q0 48 -0.5 78.5t-2.5 77t-6.5 78 t-12 69t-20 62t-29 46.5t-40.5 32.5t-53 10.5t-53 -10.5t-40.5 -32.5t-29 -46.5t-20 -62t-12 -69t-6.5 -78t-2.5 -77t-0.5 -78.5z" />
<glyph unicode="&#xd3;" horiz-adv-x="1114" d="M66 694v43q0 83 4 149.5t16.5 142.5t34 133t58.5 112t88 90t124.5 56.5t165.5 21.5q91 0 164.5 -21.5t124 -56.5t88 -89.5t59.5 -112.5t35 -133t17 -142t4 -150v-43q0 -83 -4 -150t-17 -142t-35 -132t-59.5 -111.5t-88 -89.5t-124 -56t-164.5 -21q-92 0 -165.5 21 t-124.5 56t-88 89.5t-58.5 111.5t-34 132.5t-16.5 142t-4 149.5zM393 715q0 -55 0.5 -90t4 -87.5t9.5 -86.5t18 -73.5t29 -62t43.5 -38t59.5 -15.5t59.5 15.5t43.5 38t29 62t18 73.5t9.5 86.5t4 87.5t0.5 90q0 48 -0.5 78.5t-2.5 77t-6.5 78t-12 69t-20 62t-29 46.5 t-40.5 32.5t-53 10.5t-53 -10.5t-40.5 -32.5t-29 -46.5t-20 -62t-12 -69t-6.5 -78t-2.5 -77t-0.5 -78.5zM426 1556l133 410h328l-174 -410h-287z" />
<glyph unicode="&#xd4;" horiz-adv-x="1114" d="M66 694v43q0 83 4 149.5t16.5 142.5t34 133t58.5 112t88 90t124.5 56.5t165.5 21.5q91 0 164.5 -21.5t124 -56.5t88 -89.5t59.5 -112.5t35 -133t17 -142t4 -150v-43q0 -83 -4 -150t-17 -142t-35 -132t-59.5 -111.5t-88 -89.5t-124 -56t-164.5 -21q-92 0 -165.5 21 t-124.5 56t-88 89.5t-58.5 111.5t-34 132.5t-16.5 142t-4 149.5zM199 1556l223 410h270l223 -410h-286l-72 175l-72 -175h-286zM393 715q0 -55 0.5 -90t4 -87.5t9.5 -86.5t18 -73.5t29 -62t43.5 -38t59.5 -15.5t59.5 15.5t43.5 38t29 62t18 73.5t9.5 86.5t4 87.5t0.5 90 q0 48 -0.5 78.5t-2.5 77t-6.5 78t-12 69t-20 62t-29 46.5t-40.5 32.5t-53 10.5t-53 -10.5t-40.5 -32.5t-29 -46.5t-20 -62t-12 -69t-6.5 -78t-2.5 -77t-0.5 -78.5z" />
<glyph unicode="&#xd5;" horiz-adv-x="1114" d="M66 694v43q0 83 4 149.5t16.5 142.5t34 133t58.5 112t88 90t124.5 56.5t165.5 21.5q91 0 164.5 -21.5t124 -56.5t88 -89.5t59.5 -112.5t35 -133t17 -142t4 -150v-43q0 -83 -4 -150t-17 -142t-35 -132t-59.5 -111.5t-88 -89.5t-124 -56t-164.5 -21q-92 0 -165.5 21 t-124.5 56t-88 89.5t-58.5 111.5t-34 132.5t-16.5 142t-4 149.5zM164 1597q0 11 2.5 29t17 63.5t38 80.5t73 63.5t115.5 28.5q53 0 102.5 -20.5t87.5 -41t64 -20.5q17 0 27.5 20.5t12.5 41.5l1 20l247 -64q0 -5 -1 -14t-7 -34t-15.5 -48t-28.5 -51.5t-44 -48.5t-65 -34 t-89 -14q-43 0 -81.5 13t-62.5 28t-53 28t-54 13q-16 0 -27.5 -20.5t-14.5 -41.5l-3 -20zM393 715q0 -55 0.5 -90t4 -87.5t9.5 -86.5t18 -73.5t29 -62t43.5 -38t59.5 -15.5t59.5 15.5t43.5 38t29 62t18 73.5t9.5 86.5t4 87.5t0.5 90q0 48 -0.5 78.5t-2.5 77t-6.5 78t-12 69 t-20 62t-29 46.5t-40.5 32.5t-53 10.5t-53 -10.5t-40.5 -32.5t-29 -46.5t-20 -62t-12 -69t-6.5 -78t-2.5 -77t-0.5 -78.5z" />
<glyph unicode="&#xd6;" horiz-adv-x="1114" d="M66 694v43q0 83 4 149.5t16.5 142.5t34 133t58.5 112t88 90t124.5 56.5t165.5 21.5q91 0 164.5 -21.5t124 -56.5t88 -89.5t59.5 -112.5t35 -133t17 -142t4 -150v-43q0 -83 -4 -150t-17 -142t-35 -132t-59.5 -111.5t-88 -89.5t-124 -56t-164.5 -21q-92 0 -165.5 21 t-124.5 56t-88 89.5t-58.5 111.5t-34 132.5t-16.5 142t-4 149.5zM178 1708q0 77 47 123.5t125 46.5q76 0 123 -47t47 -123q0 -78 -46.5 -125t-123.5 -47q-78 0 -125 47t-47 125zM393 715q0 -55 0.5 -90t4 -87.5t9.5 -86.5t18 -73.5t29 -62t43.5 -38t59.5 -15.5t59.5 15.5 t43.5 38t29 62t18 73.5t9.5 86.5t4 87.5t0.5 90q0 48 -0.5 78.5t-2.5 77t-6.5 78t-12 69t-20 62t-29 46.5t-40.5 32.5t-53 10.5t-53 -10.5t-40.5 -32.5t-29 -46.5t-20 -62t-12 -69t-6.5 -78t-2.5 -77t-0.5 -78.5zM596 1708q0 77 47 123.5t125 46.5q76 0 123 -47t47 -123 q0 -78 -46.5 -125t-123.5 -47q-78 0 -125 47t-47 125z" />
<glyph unicode="&#xd7;" horiz-adv-x="913" d="M70 489l198 201l-198 201l186 186l201 -198l200 198l187 -186l-201 -201l201 -201l-187 -186l-200 201l-201 -201z" />
<glyph unicode="&#xd8;" horiz-adv-x="1114" d="M66 694v43q0 83 4 149.5t16.5 142.5t34 133t58.5 112t88 90t124.5 56.5t165.5 21.5q91 0 164.5 -21.5t124 -56.5t88 -89.5t59.5 -112.5t35 -133t17 -142t4 -150v-43q0 -83 -4 -150t-17 -142t-35 -132t-59.5 -111.5t-88 -89.5t-124 -56t-164.5 -21q-92 0 -165.5 21 t-124.5 56t-88 89.5t-58.5 111.5t-34 132.5t-16.5 142t-4 149.5zM393 715q0 -190 17 -279l184 727q-15 6 -37 6q-29 0 -53 -10.5t-40.5 -32.5t-29 -46.5t-20 -62t-12 -69t-6.5 -78t-2.5 -77t-0.5 -78.5zM526 266q20 -4 31 -4q33 0 59.5 15.5t43.5 38t29 62t18 73.5t9.5 86.5 t4 87.5t0.5 90q0 182 -14 264z" />
<glyph unicode="&#xd9;" horiz-adv-x="1124" d="M80 600v834h315v-871q0 -42 0.5 -67t4 -61t9.5 -57.5t18 -46t29.5 -38t43.5 -22.5t59 -9t59.5 9t44 23.5t30.5 38.5t19.5 47.5t10.5 58t5 62.5t1 68v865h315v-834q0 -81 -5 -146t-19 -130t-36.5 -113.5t-59.5 -91t-87.5 -69.5t-120.5 -42.5t-157 -15.5t-156.5 15.5 t-119.5 42.5t-86.5 70t-58.5 91t-35.5 113.5t-18 129.5t-4.5 146zM303 1966h328l133 -410h-287z" />
<glyph unicode="&#xda;" horiz-adv-x="1124" d="M80 600v834h315v-871q0 -42 0.5 -67t4 -61t9.5 -57.5t18 -46t29.5 -38t43.5 -22.5t59 -9t59.5 9t44 23.5t30.5 38.5t19.5 47.5t10.5 58t5 62.5t1 68v865h315v-834q0 -81 -5 -146t-19 -130t-36.5 -113.5t-59.5 -91t-87.5 -69.5t-120.5 -42.5t-157 -15.5t-156.5 15.5 t-119.5 42.5t-86.5 70t-58.5 91t-35.5 113.5t-18 129.5t-4.5 146zM426 1556l133 410h328l-174 -410h-287z" />
<glyph unicode="&#xdb;" horiz-adv-x="1124" d="M80 600v834h315v-871q0 -42 0.5 -67t4 -61t9.5 -57.5t18 -46t29.5 -38t43.5 -22.5t59 -9t59.5 9t44 23.5t30.5 38.5t19.5 47.5t10.5 58t5 62.5t1 68v865h315v-834q0 -81 -5 -146t-19 -130t-36.5 -113.5t-59.5 -91t-87.5 -69.5t-120.5 -42.5t-157 -15.5t-156.5 15.5 t-119.5 42.5t-86.5 70t-58.5 91t-35.5 113.5t-18 129.5t-4.5 146zM205 1556l223 410h270l224 -410h-287l-72 175l-71 -175h-287z" />
<glyph unicode="&#xdc;" horiz-adv-x="1124" d="M80 600v834h315v-871q0 -42 0.5 -67t4 -61t9.5 -57.5t18 -46t29.5 -38t43.5 -22.5t59 -9t59.5 9t44 23.5t30.5 38.5t19.5 47.5t10.5 58t5 62.5t1 68v865h315v-834q0 -81 -5 -146t-19 -130t-36.5 -113.5t-59.5 -91t-87.5 -69.5t-120.5 -42.5t-157 -15.5t-156.5 15.5 t-119.5 42.5t-86.5 70t-58.5 91t-35.5 113.5t-18 129.5t-4.5 146zM195 1708q0 77 47 123.5t125 46.5q77 0 123.5 -47t46.5 -123q0 -78 -46.5 -125t-123.5 -47q-78 0 -125 47t-47 125zM612 1708q0 77 47 123.5t125 46.5q76 0 123 -47t47 -123q0 -78 -46.5 -125t-123.5 -47 q-78 0 -125 47t-47 125z" />
<glyph unicode="&#xdd;" horiz-adv-x="1058" d="M8 1434h338l184 -498l183 498h338l-367 -883v-551h-313v551zM385 1556l133 410h328l-174 -410h-287z" />
<glyph unicode="&#xde;" horiz-adv-x="978" d="M70 0v1434h313v-301h121q212 0 329 -106t117 -310q0 -203 -118 -316.5t-328 -113.5h-121v-287h-313zM383 545h92q93 0 130.5 46.5t37.5 129.5q0 77 -36.5 114t-131.5 37h-92v-327z" />
<glyph unicode="&#xdf;" horiz-adv-x="1064" d="M80 0v1026q0 205 100.5 310.5t325.5 105.5q436 0 436 -389v-45q0 -80 -34.5 -146t-108.5 -98q101 -35 164 -122.5t63 -219.5q0 -109 -36 -193t-99 -135t-144 -76.5t-176 -25.5q-61 0 -110 8v252q44 -6 82 -6q80 0 125 41t45 141q0 61 -19.5 103.5t-56 64.5t-79 31.5 t-97.5 9.5v233q101 0 135.5 27.5t34.5 101.5v41q0 44 -7 74t-34.5 54t-75.5 24q-70 0 -95.5 -45.5t-25.5 -138.5v-1008h-313z" />
<glyph unicode="&#xe0;" horiz-adv-x="907" d="M29 319q0 291 305 340l198 33v35q0 58 -23.5 80t-98.5 22q-130 0 -265 -49l-75 205q70 38 182 63t194 25q206 0 299 -87t93 -279v-707h-279l-18 119q-25 -63 -86.5 -95t-137.5 -32q-134 0 -211 89.5t-77 237.5zM242 1597h327l133 -409h-286zM342 330q0 -92 78 -92 q48 0 112 41v163l-104 -20q-46 -9 -66 -30t-20 -62z" />
<glyph unicode="&#xe1;" horiz-adv-x="907" d="M29 319q0 291 305 340l198 33v35q0 58 -23.5 80t-98.5 22q-130 0 -265 -49l-75 205q70 38 182 63t194 25q206 0 299 -87t93 -279v-707h-279l-18 119q-25 -63 -86.5 -95t-137.5 -32q-134 0 -211 89.5t-77 237.5zM336 1188l133 409h328l-174 -409h-287zM342 330 q0 -92 78 -92q48 0 112 41v163l-104 -20q-46 -9 -66 -30t-20 -62z" />
<glyph unicode="&#xe2;" horiz-adv-x="907" d="M29 319q0 291 305 340l198 33v35q0 58 -23.5 80t-98.5 22q-130 0 -265 -49l-75 205q70 38 182 63t194 25q206 0 299 -87t93 -279v-707h-279l-18 119q-25 -63 -86.5 -95t-137.5 -32q-134 0 -211 89.5t-77 237.5zM109 1188l223 409h270l223 -409h-286l-72 174l-72 -174 h-286zM342 330q0 -92 78 -92q48 0 112 41v163l-104 -20q-46 -9 -66 -30t-20 -62z" />
<glyph unicode="&#xe3;" horiz-adv-x="907" d="M29 319q0 291 305 340l198 33v35q0 58 -23.5 80t-98.5 22q-130 0 -265 -49l-75 205q70 38 182 63t194 25q206 0 299 -87t93 -279v-707h-279l-18 119q-25 -63 -86.5 -95t-137.5 -32q-134 0 -211 89.5t-77 237.5zM74 1231q0 6 1 15.5t6.5 36.5t14.5 52t27.5 55.5t43.5 52.5 t64.5 37t87.5 15q53 0 102.5 -20.5t87.5 -41t64 -20.5q17 0 27.5 20.5t11.5 40.5l2 21l248 -63q0 -5 -1 -14t-7 -34t-15.5 -48t-28.5 -51.5t-44 -48.5t-65 -34t-89 -14q-54 0 -100.5 20.5t-83.5 41t-68 20.5q-16 0 -27.5 -20.5t-14.5 -41.5l-3 -20zM342 330q0 -92 78 -92 q48 0 112 41v163l-104 -20q-46 -9 -66 -30t-20 -62z" />
<glyph unicode="&#xe4;" horiz-adv-x="907" d="M29 319q0 291 305 340l198 33v35q0 58 -23.5 80t-98.5 22q-130 0 -265 -49l-75 205q70 38 182 63t194 25q206 0 299 -87t93 -279v-707h-279l-18 119q-25 -63 -86.5 -95t-137.5 -32q-134 0 -211 89.5t-77 237.5zM94 1339q0 77 47 123.5t125 46.5q76 0 123 -46.5t47 -123.5 q0 -78 -46.5 -125t-123.5 -47q-78 0 -125 47t-47 125zM342 330q0 -92 78 -92q48 0 112 41v163l-104 -20q-46 -9 -66 -30t-20 -62zM512 1339q0 77 47 123.5t125 46.5q76 0 123 -46.5t47 -123.5q0 -78 -46.5 -125t-123.5 -47q-78 0 -125 47t-47 125z" />
<glyph unicode="&#xe5;" horiz-adv-x="907" d="M29 319q0 291 305 340l198 33v35q0 58 -23.5 80t-98.5 22q-130 0 -265 -49l-75 205q70 38 182 63t194 25q206 0 299 -87t93 -279v-707h-279l-18 119q-25 -63 -86.5 -95t-137.5 -32q-134 0 -211 89.5t-77 237.5zM252 1417q0 108 74 178t182 70t184 -70t76 -178t-76 -179 t-184 -71q-107 0 -181.5 70.5t-74.5 179.5zM342 330q0 -92 78 -92q48 0 112 41v163l-104 -20q-46 -9 -66 -30t-20 -62zM436 1417q0 -34 19 -52.5t53 -18.5q35 0 56.5 19t21.5 52t-22 53.5t-56 20.5t-53 -20t-19 -54z" />
<glyph unicode="&#xe6;" horiz-adv-x="1378" d="M29 319q0 291 305 340l198 33v35q0 58 -23.5 80t-98.5 22q-130 0 -265 -49l-75 205q70 38 182 63t194 25q90 0 159.5 -27.5t103.5 -82.5q32 53 97.5 81.5t135.5 28.5q92 0 161 -21t122 -68.5t80.5 -131t27.5 -201.5q0 -101 -14 -231h-481q10 -100 49 -143.5t110 -43.5 q90 0 254 41l70 -204q-70 -39 -169 -58.5t-187 -19.5q-234 0 -328 123q-21 -40 -61.5 -67t-88 -38t-79 -14.5t-60.5 -3.5q-155 0 -237 88.5t-82 238.5zM342 330q0 -92 78 -92q41 0 137 49q-20 65 -25 155l-104 -20q-46 -9 -66 -30t-20 -62zM838 645h211v21q0 94 -26.5 132 t-80.5 38q-43 0 -73 -51.5t-31 -139.5z" />
<glyph unicode="&#xe7;" horiz-adv-x="880" d="M49 532q0 278 122 409.5t331 131.5q83 0 176 -20.5t164 -59.5l-68 -202q-99 36 -213 36q-203 0 -203 -284q0 -148 53.5 -226.5t153.5 -78.5q37 0 98.5 9t110.5 27l68 -204q-108 -60 -258 -74l-52 -82q138 0 205.5 -46t67.5 -171q0 -60 -23 -106.5t-59 -74t-86 -45 t-98.5 -24t-102.5 -6.5q-177 0 -289 74l72 155q103 -35 178 -35q71 0 121.5 17t50.5 51q0 22 -24 28.5t-80 6.5h-227l12 110l100 164q-142 42 -221.5 169.5t-79.5 350.5z" />
<glyph unicode="&#xe8;" horiz-adv-x="894" d="M49 489v62q0 145 30 248.5t86.5 162t128.5 85t165 26.5q92 0 161 -21t122 -68.5t80.5 -131t27.5 -201.5q0 -101 -14 -231h-482q10 -100 49.5 -143.5t110.5 -43.5q90 0 254 41l70 -204q-70 -39 -169.5 -58.5t-187.5 -19.5q-99 0 -174 24.5t-133 80.5t-89.5 154t-35.5 238z M221 1597h328l133 -409h-287zM354 645h211v21q0 94 -26 132t-80 38q-43 0 -73.5 -51.5t-31.5 -139.5z" />
<glyph unicode="&#xe9;" horiz-adv-x="894" d="M49 489v62q0 145 30 248.5t86.5 162t128.5 85t165 26.5q92 0 161 -21t122 -68.5t80.5 -131t27.5 -201.5q0 -101 -14 -231h-482q10 -100 49.5 -143.5t110.5 -43.5q90 0 254 41l70 -204q-70 -39 -169.5 -58.5t-187.5 -19.5q-99 0 -174 24.5t-133 80.5t-89.5 154t-35.5 238z M313 1188l133 409h328l-174 -409h-287zM354 645h211v21q0 94 -26 132t-80 38q-43 0 -73.5 -51.5t-31.5 -139.5z" />
<glyph unicode="&#xea;" horiz-adv-x="894" d="M49 489v62q0 145 30 248.5t86.5 162t128.5 85t165 26.5q92 0 161 -21t122 -68.5t80.5 -131t27.5 -201.5q0 -101 -14 -231h-482q10 -100 49.5 -143.5t110.5 -43.5q90 0 254 41l70 -204q-70 -39 -169.5 -58.5t-187.5 -19.5q-99 0 -174 24.5t-133 80.5t-89.5 154t-35.5 238z M100 1188l224 409h270l223 -409h-287l-71 174l-72 -174h-287zM354 645h211v21q0 94 -26 132t-80 38q-43 0 -73.5 -51.5t-31.5 -139.5z" />
<glyph unicode="&#xeb;" horiz-adv-x="894" d="M49 489v62q0 145 30 248.5t86.5 162t128.5 85t165 26.5q92 0 161 -21t122 -68.5t80.5 -131t27.5 -201.5q0 -101 -14 -231h-482q10 -100 49.5 -143.5t110.5 -43.5q90 0 254 41l70 -204q-70 -39 -169.5 -58.5t-187.5 -19.5q-99 0 -174 24.5t-133 80.5t-89.5 154t-35.5 238z M90 1339q0 77 47 123.5t125 46.5q76 0 123 -46.5t47 -123.5q0 -78 -46.5 -125t-123.5 -47q-78 0 -125 47t-47 125zM354 645h211v21q0 94 -26 132t-80 38q-43 0 -73.5 -51.5t-31.5 -139.5zM508 1339q0 77 47 123.5t125 46.5q76 0 123 -46.5t47 -123.5q0 -78 -46.5 -125 t-123.5 -47q-78 0 -125 47t-47 125z" />
<glyph unicode="&#xec;" horiz-adv-x="528" d="M-51 1597h327l134 -409h-287zM111 0v1065h307v-1065h-307z" />
<glyph unicode="&#xed;" horiz-adv-x="528" d="M111 0v1065h307v-1065h-307zM123 1188l133 409h328l-174 -409h-287z" />
<glyph unicode="&#xee;" horiz-adv-x="528" d="M-94 1188l223 409h270l224 -409h-287l-72 174l-71 -174h-287zM111 0v1065h307v-1065h-307z" />
<glyph unicode="&#xef;" horiz-adv-x="528" d="M-115 1339q0 77 47 123.5t125 46.5q77 0 123.5 -46.5t46.5 -123.5q0 -78 -46.5 -125t-123.5 -47q-78 0 -125 47t-47 125zM111 0v1065h307v-1065h-307zM303 1339q0 77 47 123.5t125 46.5q77 0 123.5 -46.5t46.5 -123.5q0 -78 -46.5 -125t-123.5 -47q-78 0 -125 47t-47 125 z" />
<glyph unicode="&#xf0;" horiz-adv-x="1019" d="M59 426v43q0 81 20.5 155t59 134t102 95.5t142.5 35.5q29 0 55 -4.5t38 -9.5l11 -5l-75 140h-293v204h190l-94 179h336l94 -179h258v-204h-153q51 -94 76 -142.5t63 -134.5t55 -161t17 -146q0 -68 -12 -126.5t-43 -116t-80 -98.5t-129.5 -66t-184.5 -25q-105 0 -186 25 t-130.5 66t-81 98.5t-43.5 116t-12 126.5zM360 446q0 -107 37 -158.5t115 -51.5q75 0 110 51t35 159q0 109 -35 161t-110 52q-78 0 -115 -52t-37 -161z" />
<glyph unicode="&#xf1;" horiz-adv-x="948" d="M70 0v1065h272l18 -107q91 115 267 115q122 0 187 -68t65 -233v-772h-306v764q0 42 -12 54.5t-39 12.5q-83 0 -147 -40v-791h-305zM80 1231q0 6 1 15.5t6.5 36.5t14.5 52t28 55.5t44 52.5t64.5 37t87.5 15q53 0 102.5 -20.5t87.5 -41t64 -20.5q17 0 27.5 20.5t12.5 40.5 l1 21l247 -63q0 -5 -1 -14t-7 -34t-15.5 -48t-28.5 -51.5t-44 -48.5t-65 -34t-89 -14q-43 0 -81.5 13t-62.5 28t-53 28t-54 13q-16 0 -27.5 -20.5t-14.5 -41.5l-3 -20z" />
<glyph unicode="&#xf2;" horiz-adv-x="960" d="M45 512v41q0 140 34 243t95 162t136.5 87t166.5 28t167.5 -28t138.5 -87t97 -162.5t35 -242.5v-41q0 -139 -35 -242t-97 -162.5t-138.5 -87.5t-167.5 -28t-166.5 28t-136.5 87.5t-95 162.5t-34 242zM219 1597h328l133 -409h-287zM350 512q0 -279 127 -279q133 0 133 279 v41q0 278 -133 278q-127 0 -127 -278v-41z" />
<glyph unicode="&#xf3;" horiz-adv-x="960" d="M45 512v41q0 140 34 243t95 162t136.5 87t166.5 28t167.5 -28t138.5 -87t97 -162.5t35 -242.5v-41q0 -139 -35 -242t-97 -162.5t-138.5 -87.5t-167.5 -28t-166.5 28t-136.5 87.5t-95 162.5t-34 242zM342 1188l133 409h328l-174 -409h-287zM350 512q0 -279 127 -279 q133 0 133 279v41q0 278 -133 278q-127 0 -127 -278v-41z" />
<glyph unicode="&#xf4;" horiz-adv-x="960" d="M45 512v41q0 140 34 243t95 162t136.5 87t166.5 28t167.5 -28t138.5 -87t97 -162.5t35 -242.5v-41q0 -139 -35 -242t-97 -162.5t-138.5 -87.5t-167.5 -28t-166.5 28t-136.5 87.5t-95 162.5t-34 242zM123 1188l223 409h270l224 -409h-287l-72 174l-71 -174h-287zM350 512 q0 -279 127 -279q133 0 133 279v41q0 278 -133 278q-127 0 -127 -278v-41z" />
<glyph unicode="&#xf5;" horiz-adv-x="960" d="M45 512v41q0 140 34 243t95 162t136.5 87t166.5 28t167.5 -28t138.5 -87t97 -162.5t35 -242.5v-41q0 -139 -35 -242t-97 -162.5t-138.5 -87.5t-167.5 -28t-166.5 28t-136.5 87.5t-95 162.5t-34 242zM86 1231q0 6 1 15.5t6.5 36.5t14.5 52t28 55.5t44 52.5t64.5 37 t87.5 15q53 0 102.5 -20.5t87.5 -41t64 -20.5q17 0 27.5 20.5t12.5 40.5l1 21l247 -63q0 -5 -1 -14t-7 -34t-15 -48t-28 -51.5t-44 -48.5t-65 -34t-89 -14q-54 0 -100.5 20.5t-83.5 41t-68 20.5q-16 0 -27.5 -20.5t-14.5 -41.5l-3 -20zM350 512q0 -279 127 -279 q133 0 133 279v41q0 278 -133 278q-127 0 -127 -278v-41z" />
<glyph unicode="&#xf6;" horiz-adv-x="960" d="M45 512v41q0 140 34 243t95 162t136.5 87t166.5 28t167.5 -28t138.5 -87t97 -162.5t35 -242.5v-41q0 -139 -35 -242t-97 -162.5t-138.5 -87.5t-167.5 -28t-166.5 28t-136.5 87.5t-95 162.5t-34 242zM102 1339q0 77 47 123.5t125 46.5q76 0 123 -46.5t47 -123.5 q0 -78 -46.5 -125t-123.5 -47q-78 0 -125 47t-47 125zM350 512q0 -279 127 -279q133 0 133 279v41q0 278 -133 278q-127 0 -127 -278v-41zM520 1339q0 77 47 123.5t125 46.5q76 0 123 -46.5t47 -123.5q0 -78 -46.5 -125t-123.5 -47q-78 0 -125 47t-47 125z" />
<glyph unicode="&#xf7;" horiz-adv-x="958" d="M70 563v256h819v-256h-819zM311 354q0 69 49.5 118.5t118.5 49.5t119.5 -49.5t50.5 -118.5t-50.5 -118.5t-119.5 -49.5t-118.5 49.5t-49.5 118.5zM311 1028q0 69 49.5 118.5t118.5 49.5t119.5 -49.5t50.5 -118.5t-50.5 -118.5t-119.5 -49.5t-118.5 49.5t-49.5 118.5z" />
<glyph unicode="&#xf8;" horiz-adv-x="960" d="M45 512v41q0 140 34 243t95 162t136.5 87t166.5 28t167.5 -28t138.5 -87t97 -162.5t35 -242.5v-41q0 -139 -35 -242t-97 -162.5t-138.5 -87.5t-167.5 -28t-166.5 28t-136.5 87.5t-95 162.5t-34 242zM350 512q0 -67 10 -125l113 444h-6q-62 0 -89.5 -66t-27.5 -212v-41z M481 233q27 0 48 11.5t34 27.5t22.5 43t14 48.5t7 54.5t3 49.5t0.5 44.5v41q0 72 -14 137z" />
<glyph unicode="&#xf9;" horiz-adv-x="948" d="M70 293v772h305v-764q0 -42 12 -55t39 -13q81 0 147 41v791h306v-1065h-273l-18 106q-90 -114 -266 -114q-122 0 -187 68t-65 233zM219 1597h328l133 -409h-287z" />
<glyph unicode="&#xfa;" horiz-adv-x="948" d="M70 293v772h305v-764q0 -42 12 -55t39 -13q81 0 147 41v791h306v-1065h-273l-18 106q-90 -114 -266 -114q-122 0 -187 68t-65 233zM322 1188l133 409h327l-174 -409h-286z" />
<glyph unicode="&#xfb;" horiz-adv-x="948" d="M70 293v772h305v-764q0 -42 12 -55t39 -13q81 0 147 41v791h306v-1065h-273l-18 106q-90 -114 -266 -114q-122 0 -187 68t-65 233zM117 1188l223 409h270l224 -409h-287l-72 174l-72 -174h-286z" />
<glyph unicode="&#xfc;" horiz-adv-x="948" d="M70 293v772h305v-764q0 -42 12 -55t39 -13q81 0 147 41v791h306v-1065h-273l-18 106q-90 -114 -266 -114q-122 0 -187 68t-65 233zM98 1339q0 77 47 123.5t125 46.5q76 0 123 -46.5t47 -123.5q0 -78 -46.5 -125t-123.5 -47q-78 0 -125 47t-47 125zM516 1339 q0 77 47 123.5t125 46.5q76 0 123 -46.5t47 -123.5q0 -78 -46.5 -125t-123.5 -47q-78 0 -125 47t-47 125z" />
<glyph unicode="&#xfd;" horiz-adv-x="985" d="M8 1065h318l172 -559l161 559h318l-471 -1430h-307l147 453zM346 1188l133 409h328l-174 -409h-287z" />
<glyph unicode="&#xfe;" horiz-adv-x="976" d="M70 -410v1844h305v-463q69 102 198 102q95 0 165.5 -41.5t111 -117.5t59.5 -172.5t19 -217.5q0 -258 -97.5 -395t-257.5 -137q-151 0 -198 104v-506h-305zM375 272q47 -34 100 -34q73 0 109.5 77t36.5 209q0 303 -146 303q-53 0 -100 -34v-521z" />
<glyph unicode="&#xff;" horiz-adv-x="985" d="M8 1065h318l172 -559l161 559h318l-471 -1430h-307l147 453zM133 1339q0 77 47 123.5t125 46.5q77 0 123.5 -46.5t46.5 -123.5q0 -78 -46.5 -125t-123.5 -47q-78 0 -125 47t-47 125zM551 1339q0 77 47 123.5t125 46.5q77 0 123.5 -46.5t46.5 -123.5q0 -78 -46.5 -125 t-123.5 -47q-78 0 -125 47t-47 125z" />
<glyph unicode="&#x110;" horiz-adv-x="1116" d="M0 598v246h145v590h289q92 0 168 -9.5t136 -27t107 -46.5t81.5 -62.5t59.5 -81t40.5 -96.5t24.5 -113.5t12.5 -128t3.5 -144.5q0 -107 -6 -186t-22.5 -158.5t-46 -135t-77 -104.5t-114.5 -78.5t-159.5 -46t-211.5 -16.5h-285v598h-145zM459 260h14q65 0 111.5 12.5t76 44 t46.5 63t24.5 94t9.5 110.5t2 137q0 68 -0.5 103t-4 88t-10.5 79.5t-19.5 62.5t-32.5 53t-48 35.5t-66.5 25t-88.5 6.5h-14v-330h145v-246h-145v-338z" />
<glyph unicode="&#x111;" horiz-adv-x="1036" d="M49 520q0 153 28.5 263.5t80.5 172t116 89.5t144 28q114 0 184 -55v129h-305v205h305v143h305v-143h121v-205h-121v-1147h-278l-13 119q-14 -55 -76.5 -91t-150.5 -36q-161 0 -250.5 133.5t-89.5 394.5zM356 522q0 -136 32.5 -210t111.5 -74q55 0 102 34v547q-36 8 -72 8 q-86 0 -130 -68t-44 -237z" />
<glyph unicode="&#x131;" horiz-adv-x="528" d="M111 0v1065h307v-1065h-307z" />
<glyph unicode="&#x141;" horiz-adv-x="919" d="M8 637v205h172v592h314v-592h225v-205h-225v-377h397v-260h-711v637h-172z" />
<glyph unicode="&#x142;" horiz-adv-x="808" d="M8 637v205h240v592h313v-592h240v-205h-240v-637h-313v637h-240z" />
<glyph unicode="&#x152;" horiz-adv-x="1529" d="M66 694v43q0 83 4 149.5t16.5 142.5t34 133t58.5 112t88 90t124.5 56.5t165.5 21.5q63 0 107 -8h817v-260h-494q47 -121 57 -306h349v-260h-346q-7 -221 -58 -348h492v-260h-815q-44 -8 -109 -8q-92 0 -165.5 21t-124.5 56t-88 89.5t-58.5 111.5t-34 132.5t-16.5 142 t-4 149.5zM393 715q0 -55 0.5 -90t4 -87.5t9.5 -86.5t18 -73.5t29 -62t43.5 -38t59.5 -15.5t59.5 15.5t43.5 38t29 62t18 73.5t9.5 86.5t4 87.5t0.5 90q0 48 -0.5 78.5t-2.5 77t-6.5 78t-12 69t-20 62t-29 46.5t-40.5 32.5t-53 10.5t-53 -10.5t-40.5 -32.5t-29 -46.5 t-20 -62t-12 -69t-6.5 -78t-2.5 -77t-0.5 -78.5z" />
<glyph unicode="&#x153;" horiz-adv-x="1456" d="M45 512v41q0 140 34 243t95 162t136.5 87t166.5 28q207 0 275 -127q61 127 268 127q92 0 161 -21t122 -68.5t80.5 -131t27.5 -201.5q0 -101 -14 -231h-482q10 -100 49.5 -143.5t110.5 -43.5q90 0 254 41l70 -204q-70 -39 -169.5 -58.5t-187.5 -19.5q-91 0 -170 34 t-118 95q-40 -59 -118.5 -94t-158.5 -35q-91 0 -166.5 28t-136.5 87.5t-95 162.5t-34 242zM350 512q0 -279 127 -279q133 0 133 279v41q0 278 -133 278q-127 0 -127 -278v-41zM915 645h211v21q0 94 -26 132t-80 38q-43 0 -73.5 -51.5t-31.5 -139.5z" />
<glyph unicode="&#x160;" horiz-adv-x="970" d="M39 94l76 225q165 -57 299 -57q198 0 198 139q0 34 -12 64t-29 50.5t-47 41.5t-54 33.5t-62 30.5q-63 31 -109 57.5t-97 65t-83 78t-53 93t-21 113.5q0 224 117 319t358 95q88 0 196.5 -25.5t201.5 -73.5l-76 -225q-181 56 -299 56q-178 0 -178 -115q0 -38 14.5 -68.5 t47 -56t61.5 -42.5t81 -42q52 -26 82.5 -42.5t74 -43t69 -49t55 -56t45.5 -67.5t26.5 -79t10.5 -97q0 -222 -127 -323t-369 -101q-91 0 -197.5 25t-199.5 77zM127 1966h287l71 -174l72 174h287l-223 -410h-271z" />
<glyph unicode="&#x161;" horiz-adv-x="835" d="M39 96l86 193q56 -22 129.5 -36.5t120.5 -14.5q46 0 79 16t33 51q0 24 -12.5 45t-37.5 39t-43 28.5t-48 25.5l-12 6q-121 61 -167 96q-116 88 -116 215q0 313 350 313q103 0 211.5 -25.5t180.5 -74.5l-80 -201q-159 55 -264 55q-38 0 -65.5 -12t-27.5 -37 q0 -14 6.5 -27.5t20 -26t25 -22t33 -21t31.5 -16.5t32 -15t24 -11q58 -26 102.5 -55t84 -68.5t61 -91.5t21.5 -113q0 -88 -29.5 -151.5t-83.5 -99t-119 -52t-145 -16.5q-101 0 -206.5 25.5t-174.5 78.5zM80 1597h287l71 -174l72 174h287l-224 -409h-270z" />
<glyph unicode="&#x178;" horiz-adv-x="1058" d="M8 1434h338l184 -498l183 498h338l-367 -883v-551h-313v551zM156 1708q0 77 47 123.5t125 46.5q76 0 123 -47t47 -123q0 -78 -46.5 -125t-123.5 -47q-78 0 -125 47t-47 125zM573 1708q0 77 47 123.5t125 46.5q77 0 123.5 -47t46.5 -123q0 -78 -46.5 -125t-123.5 -47 q-78 0 -125 47t-47 125z" />
<glyph unicode="&#x17d;" horiz-adv-x="968" d="M49 0v162l471 1012h-471v260h871v-162l-469 -1012h469v-260h-871zM127 1966h287l71 -174l72 174h287l-223 -410h-271z" />
<glyph unicode="&#x17e;" horiz-adv-x="872" d="M49 0v145l389 678h-389v242h774v-145l-389 -678h389v-242h-774zM78 1597h287l71 -174l72 174h287l-224 -409h-270z" />
<glyph unicode="&#x192;" horiz-adv-x="821" d="M0 51l51 197q52 -25 111 -25q56 0 76 33t20 100v484h-160v225h160v14q2 189 79.5 282t244.5 93q83 0 147 -17t92 -42l-51 -197q-52 25 -111 25q-56 0 -76 -33t-20 -100v-25h201v-225h-201v-473q-2 -189 -79 -282t-244 -93q-83 0 -147.5 17t-92.5 42z" />
<glyph unicode="&#x2c6;" horiz-adv-x="815" d="M49 1188l223 409h271l223 -409h-287l-71 174l-72 -174h-287z" />
<glyph unicode="&#x2c7;" horiz-adv-x="815" d="M49 1597h287l72 -174l71 174h287l-223 -409h-271z" />
<glyph unicode="&#x2d8;" horiz-adv-x="813" d="M49 1448h291q0 -65 13 -89t50 -24t53.5 25.5t16.5 87.5h291q0 -165 -86.5 -264t-274.5 -99q-97 0 -167 27.5t-110 78.5t-58.5 114t-18.5 143z" />
<glyph unicode="&#x2d9;" horiz-adv-x="440" d="M49 1264q0 77 47 123.5t125 46.5q77 0 123.5 -47t46.5 -123q0 -78 -46.5 -125t-123.5 -47q-78 0 -125 47t-47 125z" />
<glyph unicode="&#x2da;" horiz-adv-x="614" d="M49 1417q0 108 74 178t182 70t184 -70t76 -178t-76 -179t-184 -71q-107 0 -181.5 70.5t-74.5 179.5zM233 1417q0 -34 19 -52.5t53 -18.5q35 0 56.5 19t21.5 52t-22 53.5t-56 20.5t-53 -20t-19 -54z" />
<glyph unicode="&#x2db;" horiz-adv-x="573" />
<glyph unicode="&#x2dc;" horiz-adv-x="886" d="M49 1231q0 6 1 15.5t6.5 36.5t14.5 52t28 55.5t44 52.5t64.5 37t87.5 15q53 0 102.5 -20.5t87.5 -41t64 -20.5q17 0 27.5 20.5t11.5 40.5l2 21l248 -63q0 -5 -1 -14t-7 -34t-15.5 -48t-28.5 -51.5t-44 -48.5t-65 -34t-89 -14q-54 0 -100.5 20.5t-83.5 41t-68 20.5 q-16 0 -27.5 -20.5t-14.5 -41.5l-3 -20z" />
<glyph unicode="&#x2dd;" horiz-adv-x="927" d="M29 942l174 492h307l-215 -492h-266zM418 942l174 492h307l-215 -492h-266z" />
<glyph unicode="&#x3bc;" horiz-adv-x="948" d="M70 -410v1475h305v-764q0 -68 74 -68q28 0 54 7.5t37 13.5t33 20v791h306v-1065h-273l-18 106q-20 -56 -52 -85t-83 -29q-60 0 -78 31v-433h-305z" />
<glyph unicode="&#xe01;" horiz-adv-x="1069" d="M59 680v115q0 174 125.5 287.5t329.5 113.5q245 0 365 -117.5t120 -390.5v-688h-315v698q0 136 -40.5 190t-129.5 54q-60 0 -104.5 -47t-44.5 -115l200 -43v-106q-145 -47 -145 -244v-387h-316v367q0 205 189 264z" />
<glyph unicode="&#xe02;" horiz-adv-x="1044" d="M35 1137q136 57 272 57q113 0 184.5 -52t71.5 -169q0 -60 -22.5 -124.5t-49 -111t-49 -107t-22.5 -114.5v-94q0 -105 23.5 -141.5t91.5 -36.5q69 0 96.5 37.5t27.5 140.5v766h316v-766q0 -128 -29.5 -214t-90 -132.5t-136.5 -65t-184 -18.5q-86 0 -149.5 11t-118.5 39.5 t-89.5 76.5t-54 124t-19.5 179v88q0 66 17 124.5t41.5 99t49 74.5t41.5 63.5t17 52.5q0 37 -55 37q-44 0 -100 -21z" />
<glyph unicode="&#xe03;" horiz-adv-x="1091" d="M29.5 1082q0.5 56 15.5 106h240q-13 -34 -11.5 -83.5t33.5 -49.5q41 0 54.5 33t13.5 100h241v-146q0 -76 -23 -152t-50.5 -128t-50.5 -119t-23 -127v-94q0 -104 24.5 -141t90.5 -37q67 0 95 37.5t28 140.5v766h315v-766q0 -86 -13.5 -153t-40.5 -114t-63.5 -79 t-87.5 -50.5t-106.5 -26t-126.5 -7.5q-85 0 -148.5 11t-119 39.5t-89.5 76.5t-53.5 124t-19.5 179v88q0 59 14 113.5t43.5 104.5t48 75.5t53.5 68.5q-47 -24 -94 -24q-70 0 -115 35t-60 89t-14.5 110z" />
<glyph unicode="&#xe04;" horiz-adv-x="1093" d="M70 0v680q0 117 22 206t61.5 147.5t99.5 95t131.5 52t162.5 15.5t162.5 -15.5t131.5 -52t99.5 -95t61.5 -147.5t22 -206v-680h-315v680q0 154 -35.5 208t-126.5 54q-60 0 -94 -21.5t-51 -78.5t-17 -162v-143q21 46 66 76t90 30h77v-252h-77q-60 0 -108 -34.5t-48 -75.5 v-281h-315z" />
<glyph unicode="&#xe05;" horiz-adv-x="1095" d="M70 0v840q0 85 12 148.5t39.5 115.5t78.5 79t124 27q186 0 223 -143q37 143 225 143q73 0 124 -27t78.5 -79t39.5 -115.5t12 -148.5v-840h-315v852q0 16 -0.5 25t-2.5 23t-6 22t-12 14t-20 6q-14 0 -23 -6.5t-12.5 -20t-4.5 -25t-1 -30.5h-164q0 16 -0.5 24.5t-2.5 21.5 t-6 19.5t-12 11.5t-20 5q-14 0 -22.5 -7.5t-12 -23.5t-4 -27.5t-0.5 -31.5v-315q21 46 66 76t90 30h77v-252h-77q-60 0 -108 -34.5t-48 -75.5v-281h-315z" />
<glyph unicode="&#xe06;" horiz-adv-x="1114" d="M29.5 1082q0.5 56 15.5 106h260q-13 -34 -11 -83.5t34 -49.5q41 0 54 33t13 100h242v-146q0 -76 -26.5 -152t-57.5 -128t-57.5 -119t-26.5 -127v-178q68 -86 176 -86q36 0 60 26t24 62v848h315v-858q0 -172 -78.5 -255t-199.5 -83q-216 0 -309 160l-21 -152h-282v510 q0 40 10 81t21.5 69t36 66t36.5 53.5t42 51.5t34 41q-47 -24 -117 -24q-69 0 -114 35.5t-59.5 89t-14 109.5z" />
<glyph unicode="&#xe07;" horiz-adv-x="1056" d="M18 1188h324l248 -918q42 106 74 251.5t32 252.5q0 170 -106 170q-14 0 -31 -2t-27 -4l-10 -2l-59 221q7 4 20 10.5t62 17.5t106 11q171 0 264 -100.5t93 -311.5q0 -106 -21 -212t-64.5 -213.5t-79 -179.5t-93.5 -179h-373z" />
<glyph unicode="&#xe08;" horiz-adv-x="980" d="M39 1106q81 40 202.5 65t223.5 25q117 0 202.5 -22.5t148.5 -73t94.5 -137t31.5 -209.5q0 -345 -244 -754h-342l-131 451q-7 20 -26 20h-129v246h225q61 0 105 -29.5t59 -81.5l90 -313q37 94 59.5 222.5t22.5 219.5q0 65 -13 107.5t-39.5 64t-57 29.5t-75.5 8 q-138 0 -313 -55z" />
<glyph unicode="&#xe09;" horiz-adv-x="1038" d="M70 1106q81 40 201.5 65t217.5 25q89 0 159 -13t131.5 -46t102.5 -86.5t64 -136.5t23 -193v-721h-283l-20 152q-27 -47 -66 -80t-82 -49.5t-82 -23.5t-80 -7q-121 0 -199.5 83t-78.5 255v346h315v-336q0 -36 24 -62t60 -26q108 0 176 86v383q0 71 -12 116t-38 68t-57 31 t-79 8q-72 0 -160.5 -15t-144.5 -40z" />
<glyph unicode="&#xe0a;" horiz-adv-x="1044" d="M35 1137q136 57 272 57q113 0 184.5 -52t71.5 -169q0 -60 -22.5 -124.5t-49 -111t-49 -107t-22.5 -114.5v-94q0 -105 23.5 -141.5t91.5 -36.5q69 0 96.5 37.5t27.5 140.5v158q0 60 -18 112.5t-59 73.5v137q97 38 128.5 113t-3.5 203h301q32 -131 -5.5 -235t-152.5 -157 q125 -56 125 -254v-151q0 -128 -29.5 -214t-90 -132.5t-136.5 -65t-184 -18.5q-86 0 -149.5 11t-118.5 39.5t-89.5 76.5t-54 124t-19.5 179v88q0 66 17 124.5t41.5 99t49 74.5t41.5 63.5t17 52.5q0 37 -55 37q-44 0 -100 -21z" />
<glyph unicode="&#xe0b;" horiz-adv-x="1091" d="M29.5 1082q0.5 56 15.5 106h240q-13 -34 -11.5 -83.5t33.5 -49.5q41 0 54.5 33t13.5 100h241v-146q0 -76 -23 -152t-50.5 -128t-50.5 -119t-23 -127v-94q0 -104 24.5 -141t90.5 -37q67 0 95 37.5t28 140.5v158q0 59 -18 112t-60 74v137q97 38 128.5 113t-3.5 203h301 q32 -131 -5.5 -235t-152.5 -157q125 -56 125 -254v-151q0 -86 -13.5 -153t-40.5 -114t-63.5 -79t-87.5 -50.5t-106.5 -26t-126.5 -7.5q-85 0 -148.5 11t-119 39.5t-89.5 76.5t-53.5 124t-19.5 179v88q0 59 14 113.5t43.5 104.5t48 75.5t53.5 68.5q-47 -24 -94 -24 q-70 0 -115 35t-60 89t-14.5 110z" />
<glyph unicode="&#xe0c;" horiz-adv-x="1568" d="M59 680v115q0 175 121 288t324 113q243 0 359 -117t116 -391v-350q32 -41 65 -63.5t76 -22.5q33 0 48.5 20.5t15.5 67.5v848h315v-858q0 -175 -71.5 -256.5t-196.5 -81.5q-171 0 -264 160l-21 -152h-282v698q0 137 -36 190.5t-124 53.5q-59 0 -99 -46.5t-40 -115.5 l200 -43v-106q-89 -29 -127.5 -86.5t-38.5 -153.5v-8q0 -80 35 -110t131 -21v-246q-55 -6 -108 -6q-81 0 -147 18t-117.5 55.5t-80 101.5t-28.5 151v20q0 204 209 285z" />
<glyph unicode="&#xe0d;" horiz-adv-x="1576" d="M59 680v115q0 175 121 288t324 113q243 0 359 -117t116 -391v-244v-39t1 -34.5t3 -32t5.5 -26.5t8.5 -23.5t13 -17.5t18.5 -14.5t25 -7.5t31.5 -3q31 0 52 10t31.5 23.5t16 43.5t6.5 52.5t1 68.5v744h315v-715q0 -87 -6.5 -149.5t-23 -119.5t-46.5 -94t-76.5 -64.5 t-113 -39.5t-156.5 -12t-156.5 12t-113 39.5t-76 64.5t-46.5 94t-23 119.5t-6 149.5v225q0 137 -36 190.5t-124 53.5q-59 0 -99 -46.5t-40 -115.5l200 -43v-106q-89 -29 -127.5 -86.5t-38.5 -153.5v-8q0 -80 35 -110t131 -21v-246q-55 -6 -108 -6q-81 0 -147 18t-117.5 55.5 t-80 101.5t-28.5 151v20q0 204 209 285zM664 -51h286q-4 -38 -5 -67.5t20.5 -47.5t68.5 -18h455v-226h-467q-220 0 -305 82t-53 277z" />
<glyph unicode="&#xe0e;" horiz-adv-x="1071" d="M18 6v246q21 -3 35 -4t33.5 1t31.5 10t20.5 25.5t8.5 43.5v55q0 46 2.5 73.5t10.5 56.5t24 47.5t43 36.5t68 34l-234 49v115q0 174 125.5 287.5t329.5 113.5q245 0 365 -117.5t120 -390.5v-1098h-305q-107 138 -213 138q-39 0 -61.5 -15.5t-27 -39t-2.5 -44.5t9 -39h-311 q-39 172 46 268.5t253 96.5q98 0 182.5 -31t114.5 -74v848q0 136 -40.5 190t-129.5 54q-60 0 -104.5 -47t-44.5 -115l200 -43v-106q-22 -7 -39 -17t-28.5 -19t-18.5 -25t-11 -26t-6 -33t-2 -34.5t0.5 -41.5t0.5 -44v-63q0 -98 -20 -164t-60 -102t-91 -51t-122 -15 q-60 0 -152 10z" />
<glyph unicode="&#xe0f;" horiz-adv-x="1071" d="M18 6v246q21 -3 35 -4t33.5 1t31.5 10t20.5 25.5t8.5 43.5v55q0 46 2.5 73.5t10.5 56.5t24 47.5t43 36.5t68 34l-234 49v115q0 174 125.5 287.5t329.5 113.5q245 0 365 -117.5t120 -390.5v-790q0 -156 -84 -236t-223 -80q-90 0 -162 33.5t-102 103.5q-77 -133 -258 -133 q-39 0 -113 8v246q39 -7 80.5 -5.5t77.5 10t68 36t51 72.5h176q14 -63 49.5 -97t69.5 -34q25 0 40 20.5t15 55.5v800q0 136 -40.5 190t-129.5 54q-60 0 -104.5 -47t-44.5 -115l200 -43v-106q-22 -7 -39 -17t-28.5 -19t-18.5 -25t-11 -26t-6 -33t-2 -34.5t0.5 -41.5t0.5 -44 v-63q0 -98 -20 -164t-60 -102t-91 -51t-122 -15q-60 0 -152 10z" />
<glyph unicode="&#xe10;" horiz-adv-x="1003" d="M37 1096q165 77 407 108l598 82v-242l-225 -30q59 -30 92 -102t33 -164q0 -339 -244 -748h-342l-131 451q-7 20 -26 20h-129v246h225q61 0 105 -29.5t59 -81.5l90 -313q37 95 60.5 220t23.5 214q0 119 -52.5 168t-144.5 49q-69 0 -154 -20t-149 -47zM53 -207 q39 -7 80.5 -5.5t77.5 10t68 36t51 72.5h176q28 -131 117 -131q25 0 41 15t16 60v76h274v-76q0 -160 -66 -237.5t-200 -77.5q-90 0 -162 33.5t-102 103.5q-77 -133 -258 -133q-39 0 -113 8v246z" />
<glyph unicode="&#xe11;" horiz-adv-x="1243" d="M29.5 1082q0.5 56 15.5 106h240q-13 -34 -11.5 -83.5t33.5 -49.5q41 0 54.5 33t13.5 100h221v-92q60 42 130.5 71t131.5 29q143 0 229.5 -80.5t86.5 -236.5v-879h-316v870q0 33 -20 49.5t-52 16.5q-75 0 -131.5 -56t-56.5 -157v-723h-315v592q0 172 73 282 q-76 -26 -139 -26q-69 0 -114 35.5t-59.5 89t-14 109.5z" />
<glyph unicode="&#xe12;" horiz-adv-x="1607" d="M61 584q0 215 12 306q41 320 251 320q186 0 223 -143q18 70 70.5 106.5t150.5 36.5q73 0 123.5 -27t77.5 -79t38 -115.5t11 -148.5v-502q32 -41 65 -63.5t76 -22.5q33 0 48.5 20.5t15.5 67.5v848h315v-858q0 -175 -71.5 -256.5t-196.5 -81.5q-171 0 -264 160l-21 -152 h-283v852v13.5v14t-0.5 13t-1.5 13t-2.5 11.5t-4 10.5t-6.5 7.5t-9 5.5t-12 1.5q-16 0 -25 -13t-10.5 -28t-1.5 -41h-164q0 16 -0.5 24.5t-2.5 21.5t-6 19.5t-12 11.5t-20 5q-17 0 -27.5 -22t-14.5 -77t-4.5 -94.5t-0.5 -126.5v-38q0 -92 7.5 -153.5t23.5 -98t40.5 -53.5 t58.5 -21t77 0v-254q-57 -8 -121 -8q-98 0 -168.5 27.5t-125 93t-81.5 182t-27 285.5z" />
<glyph unicode="&#xe13;" horiz-adv-x="1568" d="M59 680v115q0 175 121 288t324 113q243 0 359 -117t116 -391v-348q0 -47 15 -67.5t48 -20.5q74 0 142 86v850h315v-1188h-282l-21 152q-93 -160 -264 -160q-125 0 -196.5 81.5t-71.5 256.5v368q0 137 -36 190.5t-124 53.5q-59 0 -99 -46.5t-40 -115.5l200 -43v-106 q-89 -29 -127.5 -86.5t-38.5 -153.5v-8q0 -80 35 -110t131 -21v-246q-55 -6 -108 -6q-81 0 -147 18t-117.5 55.5t-80 101.5t-28.5 151v20q0 204 209 285z" />
<glyph unicode="&#xe14;" horiz-adv-x="1079" d="M59 584q0 76 4 136t17 125.5t34 115t57.5 95.5t85.5 75.5t119.5 47t158.5 17.5q115 0 199.5 -25.5t148 -83.5t95.5 -159.5t32 -247.5v-680h-316v680q0 154 -35 208t-124 54q-39 0 -68.5 -15.5t-46 -41.5t-27.5 -60t-13.5 -70.5t-4.5 -73t0 -68.5v-29q0 -92 7.5 -153.5 t23.5 -98t40.5 -53.5t58.5 -21t77 0v-254q-57 -8 -121 -8q-98 0 -168.5 27.5t-125 93t-81.5 182t-27 285.5z" />
<glyph unicode="&#xe15;" horiz-adv-x="1087" d="M61 584q0 215 12 306q41 320 251 320q186 0 223 -143q18 70 70.5 106.5t150.5 36.5q73 0 123.5 -27t77.5 -79t38 -115.5t11 -148.5v-840h-316v852v13.5v14t-0.5 13t-1.5 13t-2.5 11.5t-4 10.5t-6.5 7.5t-9 5.5t-12 1.5q-16 0 -25 -13t-10.5 -28t-1.5 -41h-164 q0 16 -0.5 24.5t-2.5 21.5t-6 19.5t-12 11.5t-20 5q-17 0 -27.5 -22t-14.5 -77t-4.5 -94.5t-0.5 -126.5v-38q0 -92 7.5 -153.5t23.5 -98t40.5 -53.5t58.5 -21t77 0v-254q-57 -8 -121 -8q-98 0 -168.5 27.5t-125 93t-81.5 182t-27 285.5z" />
<glyph unicode="&#xe16;" horiz-adv-x="1069" d="M59 680v115q0 174 125.5 287.5t329.5 113.5q245 0 365 -117.5t120 -390.5v-688h-315v698q0 136 -40.5 190t-129.5 54q-60 0 -104.5 -47t-44.5 -115l200 -43v-106q-89 -29 -127.5 -86.5t-38.5 -153.5v-8q0 -80 35 -110t131 -21v-246q-55 -6 -108 -6q-81 0 -147 18 t-117.5 55.5t-80 101.5t-28.5 151v20q0 204 209 285z" />
<glyph unicode="&#xe17;" horiz-adv-x="1030" d="M70 0v1188h282l21 -152q93 160 309 160q57 0 106 -19t88.5 -58t62 -106t22.5 -155v-858h-316v848q0 36 -24 62t-60 26q-108 0 -176 -86v-850h-315z" />
<glyph unicode="&#xe18;" horiz-adv-x="1028" d="M70 436v107h315v-88q0 -48 1.5 -75t8.5 -57t20.5 -44t38 -23.5t60.5 -9.5q38 0 62.5 7.5t38.5 19t20.5 38.5t8 51.5t1.5 73.5v19q0 31 -8.5 58t-38.5 53.5t-78 35.5l-450 88v68q0 131 34 219t101 135t149 65.5t197 18.5q96 0 217 -25t201 -65l-95 -217q-175 55 -301 55 q-34 0 -56 -1t-46.5 -6t-39 -14t-25 -25.5t-11.5 -39.5l203 -41q113 -22 186 -56.5t111 -85t52 -105.5t14 -134v-18q0 -113 -20 -189t-70 -130.5t-137 -79.5t-220 -25q-132 0 -219.5 27.5t-136.5 86t-68.5 136.5t-19.5 192z" />
<glyph unicode="&#xe19;" horiz-adv-x="1030" d="M70 330v858h315v-848q0 -36 24 -62t60 -26q108 0 176 86v850h316v-1188h-283l-21 152q-93 -160 -309 -160q-121 0 -199.5 83t-78.5 255z" />
<glyph unicode="&#xe1a;" horiz-adv-x="1044" d="M70 473v715h315v-694q0 -50 2.5 -84t10.5 -68t22.5 -54t40 -32t61.5 -12t61.5 12t40 32t22.5 54t10.5 68t2.5 84v694h316v-715q0 -128 -21 -214.5t-72 -148.5t-139 -90t-221 -28t-221 28t-139 90t-71.5 148.5t-20.5 214.5z" />
<glyph unicode="&#xe1b;" horiz-adv-x="1064" d="M70 473v715h315v-694q0 -125 30.5 -187.5t116.5 -62.5t117 62.5t31 187.5v1042h315v-1063q0 -127 -22.5 -214t-75.5 -148.5t-142.5 -90t-222.5 -28.5t-222.5 28.5t-142.5 90t-75 148.5t-22 214z" />
<glyph unicode="&#xe1c;" horiz-adv-x="1081" d="M70 0v844q0 79 16.5 139.5t46 99t73 63t93 34.5t111.5 10q67 0 127 -8v-246q-88 11 -120 -13.5t-32 -117.5v-391l84 303h143l84 -303v774h316v-1188h-330l-141 496l-142 -496h-329z" />
<glyph unicode="&#xe1d;" horiz-adv-x="1081" d="M70 0v844q0 79 16.5 139.5t46 99t73 63t93 34.5t111.5 10q67 0 127 -8v-246q-88 11 -120 -13.5t-32 -117.5v-391l84 303h143l84 -303v1122h316v-1536h-330l-141 496l-142 -496h-329z" />
<glyph unicode="&#xe1e;" horiz-adv-x="1253" d="M29 1188h311l66 -656l114 525h215l115 -525l63 656h312l-164 -1188h-262l-172 655l-172 -655h-262z" />
<glyph unicode="&#xe1f;" horiz-adv-x="1251" d="M29 1188h311l66 -656l114 525h215l115 -525l106 1004h312l-207 -1536h-262l-172 655l-172 -655h-262z" />
<glyph unicode="&#xe20;" horiz-adv-x="1071" d="M18 6v246q21 -3 35 -4t33.5 1t31.5 10t20.5 25.5t8.5 43.5v55q0 46 2.5 73.5t10.5 56.5t24 47.5t43 36.5t68 34l-234 49v115q0 174 125.5 287.5t329.5 113.5q245 0 365 -117.5t120 -390.5v-688h-315v698q0 136 -40.5 190t-129.5 54q-60 0 -104.5 -47t-44.5 -115l200 -43 v-106q-22 -7 -39 -17t-28.5 -19t-18.5 -25t-11 -26t-6 -33t-2 -34.5t0.5 -41.5t0.5 -44v-63q0 -98 -20 -164t-60 -102t-91 -51t-122 -15q-60 0 -152 10z" />
<glyph unicode="&#xe21;" horiz-adv-x="1030" d="M70 0v1188h315v-850q68 -86 176 -86q36 0 60 26t24 62v848h316v-858q0 -88 -22.5 -155t-62 -106t-88.5 -58t-106 -19q-216 0 -309 160l-21 -152h-282z" />
<glyph unicode="&#xe22;" horiz-adv-x="1032" d="M59 344v53q0 85 45 152.5t134 89.5q-86 23 -132.5 100t-46.5 152q0 301 355 301q67 0 145 -10v-254q-35 14 -88 14q-98 0 -98 -63q0 -127 186 -127v-205q-102 0 -144 -33t-42 -108v-50q0 -48 31 -80t106 -32q80 0 108.5 40t28.5 132v772h316v-791q0 -208 -105 -306.5 t-348 -98.5q-115 0 -204 29t-141.5 79t-79 111.5t-26.5 132.5z" />
<glyph unicode="&#xe23;" horiz-adv-x="878" d="M29 96l94 203q54 -22 127.5 -37.5t132.5 -15.5q145 0 145 88q0 26 -8 45t-49.5 52.5t-120.5 70.5q-159 76 -230 159.5t-71 190.5q0 182 99 263t323 81q104 0 208.5 -30t166.5 -70l-92 -207q-143 55 -265 55q-127 0 -127 -70q0 -18 3.5 -29.5t19.5 -33t57 -49t107 -60.5 q72 -36 120.5 -68.5t90.5 -75.5t62 -96.5t20 -119.5q0 -181 -107 -265.5t-332 -84.5q-104 0 -207.5 30.5t-166.5 73.5z" />
<glyph unicode="&#xe24;" horiz-adv-x="1069" d="M59 680v115q0 174 125.5 287.5t329.5 113.5q245 0 365 -117.5t120 -390.5v-1098h-315v1108q0 136 -40.5 190t-129.5 54q-60 0 -104.5 -47t-44.5 -115l200 -43v-106q-89 -29 -127.5 -86.5t-38.5 -153.5v-8q0 -80 35 -110t131 -21v-246q-55 -6 -108 -6q-81 0 -147 18 t-117.5 55.5t-80 101.5t-28.5 151v20q0 204 209 285z" />
<glyph unicode="&#xe25;" horiz-adv-x="1026" d="M39 340q0 170 102.5 258t343.5 133l156 29v4q0 58 -9 93.5t-31 54t-49 24.5t-73 6q-106 0 -309 -53l-96 215q82 39 206.5 65.5t223.5 26.5q108 0 188.5 -23t141 -74t91.5 -139t31 -212v-748h-315v516l-84 -16q-114 -22 -153 -50.5t-39 -95.5q0 -43 15 -70.5t40 -37 t57.5 -12t67.5 3.5v-224q-44 -22 -146 -22q-173 0 -266.5 89t-93.5 259z" />
<glyph unicode="&#xe26;" horiz-adv-x="1071" d="M18 6v246q21 -3 35 -4t33.5 1t31.5 10t20.5 25.5t8.5 43.5v55q0 46 2.5 73.5t10.5 56.5t24 47.5t43 36.5t68 34l-234 49v115q0 174 125.5 287.5t329.5 113.5q245 0 365 -117.5t120 -390.5v-1098h-315v1108q0 136 -40.5 190t-129.5 54q-60 0 -104.5 -47t-44.5 -115 l200 -43v-106q-22 -7 -39 -17t-28.5 -19t-18.5 -25t-11 -26t-6 -33t-2 -34.5t0.5 -41.5t0.5 -44v-63q0 -98 -20 -164t-60 -102t-91 -51t-122 -15q-60 0 -152 10z" />
<glyph unicode="&#xe27;" horiz-adv-x="915" d="M29 78l84 201q128 -31 221 -31q227 0 227 330v32q0 332 -225 332q-102 0 -219 -37l-88 205q60 37 156.5 61.5t191.5 24.5q110 0 199.5 -34.5t157.5 -103.5t105.5 -183t37.5 -265v-32q0 -151 -37.5 -265t-105.5 -183t-157.5 -103.5t-199.5 -34.5q-95 0 -191.5 24.5 t-156.5 61.5z" />
<glyph unicode="&#xe28;" horiz-adv-x="1103" d="M70 0v680q0 117 18.5 202t51 141t88.5 92.5t120 55t156 31.5l610 84v-242l-246 -32q156 -80 156 -332v-680h-315v680q0 153 -37 207.5t-127 54.5q-89 0 -124.5 -54t-35.5 -208v-143q21 46 66 76t90 30h77v-252h-77q-60 0 -108 -34.5t-48 -75.5v-281h-315z" />
<glyph unicode="&#xe29;" horiz-adv-x="1085" d="M70 473v715h315v-694q0 -125 30.5 -187.5t116.5 -62.5t117 62.5t31 187.5v4h-2q-178 0 -233.5 79t-22.5 279h225q-9 -56 -5 -94.5t36 -38.5h2v465h315v-465h103v-225h-103v-25q0 -127 -22.5 -214t-75.5 -148.5t-142.5 -90t-222.5 -28.5t-222.5 28.5t-142.5 90t-75 148.5 t-22 214z" />
<glyph unicode="&#xe2a;" horiz-adv-x="1042" d="M39 340q0 170 102.5 258t343.5 133l156 29v6q0 100 -47.5 137t-130.5 37q-130 0 -289 -70l-102 224q186 82 385 110l598 82v-242l-246 -32q81 -46 114 -122.5t33 -207.5v-682h-315v516l-84 -16q-114 -22 -153 -50.5t-39 -95.5q0 -43 15 -70.5t40 -37t57.5 -12t67.5 3.5 v-224q-44 -22 -146 -22q-173 0 -266.5 89t-93.5 259z" />
<glyph unicode="&#xe2b;" horiz-adv-x="1046" d="M70 0v1206h315v-432l35 2q56 3 94.5 13t62 25t38 43t21.5 57t13 77l29 209h315l-26 -223q-25 -216 -179 -299q68 -25 113.5 -98.5t59.5 -178.5l47 -401h-316l-47 401q-3 27 -10 49t-19.5 43t-34.5 31.5t-51 7.5l-145 -14v-518h-315z" />
<glyph unicode="&#xe2c;" horiz-adv-x="1245" d="M29 1188h311l66 -656l114 525h215l115 -525l22 238q3 44 3.5 83t-16 71t-52.5 43v163q118 28 150.5 75.5t15.5 170.5h287q25 -118 -17.5 -210t-159.5 -130q60 -29 78 -100.5t10 -140.5l-110 -795h-262l-172 655l-172 -655h-262z" />
<glyph unicode="&#xe2d;" horiz-adv-x="1015" d="M59 438q0 142 41 295h408v-246h-146v-22q0 -117 35 -169t111 -52q45 0 72.5 19t44 75.5t16.5 155.5v170q0 86 -12.5 142t-40 86t-62.5 41t-88 11q-64 0 -132.5 -14t-105.5 -28l-36 -13l-92 217q6 4 16.5 10t47.5 21.5t79.5 27.5t110.5 21.5t141 9.5q115 0 200 -24.5 t152.5 -83t102 -165t34.5 -259.5v-170q0 -122 -23 -212t-61 -144.5t-97 -87.5t-121 -44.5t-142 -11.5q-223 0 -338 102t-115 342z" />
<glyph unicode="&#xe2e;" horiz-adv-x="1052" d="M59 438q0 142 41 295h408v-246h-146v-22q0 -117 35 -169t111 -52q45 0 72.5 19t44 75.5t16.5 155.5v170q0 69 -8.5 118.5t-23.5 80.5t-39.5 49.5t-52 25t-64.5 6.5q-44 0 -89.5 -6.5t-79.5 -15t-60.5 -17.5t-40.5 -15.5t-13 -6.5l-96 221q156 75 342 98l649 84v-239 l-252 -33q81 -51 112 -132t31 -218v-170q0 -122 -23 -212t-61 -144.5t-97 -87.5t-121 -44.5t-142 -11.5q-223 0 -338 102t-115 342z" />
<glyph unicode="&#xe2f;" horiz-adv-x="958" d="M49 827q0 361 348 361q51 0 103 -6v-254q-24 6 -47 6q-88 0 -88 -111q0 -50 25.5 -83t76.5 -33q78 0 115 77v404h307v-1188h-307v506q-60 -60 -191 -60q-91 0 -158.5 30.5t-106.5 85t-58 121t-19 144.5z" />
<glyph unicode="&#xe30;" horiz-adv-x="692" d="M53.5 289.5q-8.5 69.5 3.5 169.5h305q-8 -58 -1 -78q12 -35 65 -35h227v-254h-245q-118 0 -191.5 20t-114 64t-49 113.5zM53.5 877.5q-8.5 69.5 3.5 169.5h305q-8 -58 -1 -78q12 -35 65 -35h227v-254h-245q-118 0 -191.5 20t-114 64t-49 113.5z" />
<glyph unicode="&#xe31;" d="M-791 1686h289q-4 -24 -2.5 -50t7 -48.5t27 -37t58.5 -14.5h412v-225h-406q-235 0 -319.5 81t-65.5 294z" />
<glyph unicode="&#xe32;" horiz-adv-x="858" d="M8 1104q68 37 166.5 64.5t192.5 27.5q105 0 181 -22t131 -71.5t82 -133t27 -203.5v-766h-315v766q0 106 -31 140t-100 34q-114 0 -236 -51z" />
<glyph unicode="&#xe33;" horiz-adv-x="858" d="M-580 1507q0 107 75.5 176.5t182.5 69.5q106 0 184.5 -70t78.5 -176q0 -102 -78.5 -169.5t-184.5 -67.5t-182 67.5t-76 169.5zM-395 1507q0 -29 20.5 -48t52.5 -19q31 0 53.5 19t22.5 48q0 34 -22 54t-54 20q-33 0 -53 -19.5t-20 -54.5zM8 1104q68 37 166.5 64.5 t192.5 27.5q105 0 181 -22t131 -71.5t82 -133t27 -203.5v-766h-315v766q0 106 -31 140t-100 34q-114 0 -236 -51z" />
<glyph unicode="&#xe34;" d="M-963 1311v225h893v-225h-893z" />
<glyph unicode="&#xe35;" d="M-963 1311v225h590v170h303v-395h-893z" />
<glyph unicode="&#xe36;" d="M-963 1311v225h467q6 87 66 137.5t160 50.5q103 0 162 -55.5t59 -150.5t-59 -151t-162 -56h-693zM-338 1518q0 -31 18.5 -49.5t49.5 -18.5t49 18.5t18 49.5t-18 49t-49 18t-49.5 -18t-18.5 -49z" />
<glyph unicode="&#xe37;" d="M-963 1311v225h347v170h233v-170h80v170h233v-395h-893z" />
<glyph unicode="&#xe38;" d="M-524 -123h450v-409h-276v217h-174v192z" />
<glyph unicode="&#xe39;" d="M-772 -123h364v-192q0 -47 41 -47t41 47v192h256v-188q0 -55 -16.5 -99t-43.5 -72t-66 -46.5t-81 -26.5t-90 -8q-125 0 -203.5 56t-78.5 173v19h-123v192z" />
<glyph unicode="&#xe3a;" d="M-461 -319q0 83 57 139.5t140 56.5t138.5 -56.5t55.5 -139.5q0 -84 -55.5 -140.5t-138.5 -56.5t-140 57t-57 140z" />
<glyph unicode="&#xe3f;" horiz-adv-x="1005" d="M70 0v1434h254v245h313v-266q262 -72 262 -369q0 -96 -40.5 -172t-115.5 -112q101 -28 162.5 -118t61.5 -208q0 -355 -330 -420v-260h-313v246h-254zM383 260h68q64 0 105 11.5t62.5 35.5t29 54t7.5 75q0 44 -7.5 73t-29 53t-62.5 35t-105 11h-68v-348zM383 868h55 q152 0 152 164q0 142 -154 142h-53v-306z" />
<glyph unicode="&#xe40;" horiz-adv-x="583" d="M90 346v842h316v-811q0 -51 9 -79.5t28.5 -41.5t51.5 -14.5t78 2.5v-238q-57 -8 -127 -8q-80 0 -141.5 17t-111.5 55.5t-76.5 108t-26.5 167.5z" />
<glyph unicode="&#xe41;" horiz-adv-x="1114" d="M90 346v842h316v-811q0 -51 9 -79.5t28.5 -41.5t51.5 -14.5t78 2.5v-238q-57 -8 -127 -8q-80 0 -141.5 17t-111.5 55.5t-76.5 108t-26.5 167.5zM621 346v842h315v-811q0 -51 9 -79.5t29 -41.5t52 -14.5t78 2.5v-238q-57 -8 -127 -8q-80 0 -141.5 17t-111.5 55.5 t-76.5 108t-26.5 167.5z" />
<glyph unicode="&#xe42;" horiz-adv-x="673" d="M-33 1325v33q0 88 18 148.5t61.5 105.5t119.5 66.5t190 21.5h346v-225h-358q-70 0 -70 -37v-4q58 -11 99.5 -35.5t65 -55.5t36.5 -78t17 -91t4 -107v-690q0 -51 9 -79.5t29 -41.5t52 -14.5t78 2.5v-238q-57 -8 -127 -8q-80 0 -141.5 17t-111.5 55.5t-77 108t-27 167.5 v762q0 49 -6 79t-27 60t-65 48.5t-115 29.5z" />
<glyph unicode="&#xe43;" horiz-adv-x="692" d="M-33 1589q6 5 16.5 12t47 26.5t76 34t101 26.5t124.5 12q172 0 267 -83.5t95 -230.5q0 -54 -18.5 -102.5t-45 -84.5t-53 -69t-45 -69t-18.5 -72v-612q0 -51 9 -79.5t29 -41.5t52 -14.5t78 2.5v-238q-57 -8 -127 -8q-80 0 -141.5 17t-111.5 55.5t-76.5 108t-26.5 167.5 v678q0 45 19.5 87t47.5 75t56 64.5t47.5 67.5t19.5 71q0 29 -20.5 45t-77.5 16q-49 0 -103.5 -20t-83.5 -40l-30 -20z" />
<glyph unicode="&#xe44;" horiz-adv-x="649" d="M-33 1475v225h715v-176q-58 -38 -92.5 -66.5t-64 -68.5t-42 -89.5t-12.5 -117.5v-805q0 -51 9 -79.5t29 -41.5t52 -14.5t78 2.5v-238q-57 -8 -127 -8q-80 0 -141.5 17t-111.5 55.5t-76.5 108t-26.5 167.5v819q0 91 53 180t158 130h-400z" />
<glyph unicode="&#xe45;" horiz-adv-x="858" d="M8 1104q68 37 166.5 64.5t192.5 27.5q105 0 181 -22t131 -71.5t82 -133t27 -203.5v-1176h-315v1176q0 106 -31 140t-100 34q-114 0 -236 -51z" />
<glyph unicode="&#xe46;" horiz-adv-x="1030" d="M51 680v9q0 42 0.5 66t5.5 70t14 74.5t27.5 65t45 57.5t67.5 36t94 15q78 0 135.5 -30t75.5 -85q13 56 68.5 85.5t140.5 29.5q46 0 82.5 -10t61 -26t42 -43.5t27.5 -55.5t15 -70t6.5 -78t1.5 -88v-907h-310v932q0 20 -0.5 28.5t-2.5 23.5t-8.5 21.5t-16.5 6.5t-15.5 -5 t-8 -19.5t-3 -27.5t-0.5 -42h-160v8q0 22 -0.5 32t-2 23.5t-5.5 19t-11.5 9.5t-19.5 4q-8 0 -14.5 -3t-11 -9.5t-7.5 -13t-5 -17t-3 -18.5t-1.5 -20t-0.5 -18.5v-17.5v-14q0 -57 21 -84.5t57.5 -29t85.5 2.5v-237q-78 -4 -147.5 -1.5t-128 25t-101 60.5t-66.5 105.5 t-24 160.5z" />
<glyph unicode="&#xe47;" d="M-850 1587q0 153 84 214t246 61h418v-205h-412q-60 0 -83.5 -15.5t-23.5 -54.5q0 -71 68 -71q39 0 56.5 22.5t17.5 77.5h157q0 -109 105 -109q29 0 74 9v-205q-54 -4 -103 -3.5t-92 28t-61 81.5q-23 -56 -67 -81t-116 -25q-34 0 -65.5 5t-70 22.5t-66.5 46t-47 80.5 t-19 122z" />
<glyph unicode="&#xe48;" d="M-373 1311v489h295v-489h-295z" />
<glyph unicode="&#xe49;" d="M-766 1776q82 39 195 39q118 0 177.5 -42.5t59.5 -121.5q0 -101 -104 -154q107 39 213 39h184v-225h-684v129q133 50 133 135q0 57 -65 57q-35 0 -70 -14z" />
<glyph unicode="&#xe4a;" d="M-934 1532q0 240 189 240q60 0 93 -22t54 -64q17 43 48 64.5t99 21.5q34 0 59.5 -6.5t43 -16t29.5 -28.5t18 -35t9.5 -44.5t4 -49.5t0.5 -56v-39q0 -43 23 -43t26 53l27 275h205l-29 -295q-9 -93 -65 -138.5t-164 -45.5q-223 0 -223 184v24q0 26 -1 37t-7.5 20t-20.5 9 t-20.5 -11t-7.5 -23t-1 -38h-114q0 26 -1 38t-8 23t-22 11q-13 0 -19 -7.5t-7 -15.5t-1 -24q0 -40 17.5 -50t74.5 -10v-163q-156 -7 -232.5 40.5t-76.5 184.5z" />
<glyph unicode="&#xe4b;" d="M-707 1468v181h185v157h268v-157h184v-181h-184v-157h-268v157h-185z" />
<glyph unicode="&#xe4c;" d="M-615 1483.5q10 71.5 51.5 116.5t116 65.5t193.5 20.5h213v-226h-238q-40 0 -56.5 -25t-13.5 -58t5 -66h-270q-11 101 -1 172.5z" />
<glyph unicode="&#xe4d;" d="M-580 1507q0 107 75.5 176.5t182.5 69.5q106 0 184.5 -70t78.5 -176q0 -102 -78.5 -169.5t-184.5 -67.5t-182 67.5t-76 169.5zM-395 1507q0 -29 20.5 -48t52.5 -19q31 0 53.5 19t22.5 48q0 34 -22 54t-54 20q-33 0 -53 -19.5t-20 -54.5z" />
<glyph unicode="&#xe4e;" />
<glyph unicode="&#xe4f;" horiz-adv-x="978" d="M61 649q0 178 125 304t303 126q177 0 303 -126.5t126 -303.5q0 -178 -126 -303t-303 -125q-117 0 -215.5 57t-155.5 155.5t-57 215.5zM141 649q0 -143 102.5 -245.5t245.5 -102.5q141 0 240.5 102.5t99.5 245.5q0 141 -99.5 240.5t-240.5 99.5q-143 0 -245.5 -99.5 t-102.5 -240.5zM231 649q0 108 75.5 182t182.5 74q105 0 179.5 -74t74.5 -182q0 -106 -75 -182t-179 -76q-106 0 -182 76t-76 182zM307 649q0 -75 53.5 -128.5t128.5 -53.5q77 0 127 53t50 129q0 77 -49.5 126.5t-127.5 49.5q-76 0 -129 -50t-53 -126z" />
<glyph unicode="&#xe50;" horiz-adv-x="978" d="M45 524v41q0 145 34.5 251.5t96.5 167.5t139 89.5t172 28.5t173 -28.5t141 -89.5t98 -167.5t35 -251.5v-41q0 -143 -35 -248.5t-97.5 -166t-141 -89t-173.5 -28.5q-94 0 -171.5 28.5t-139.5 89t-96.5 166t-34.5 248.5zM350 524q0 -288 137 -288q140 0 140 288v41 q0 289 -140 289q-137 0 -137 -289v-41z" />
<glyph unicode="&#xe51;" horiz-adv-x="978" d="M45 653q0 112 34.5 199t96 141t140 81.5t171.5 27.5q95 0 173 -28.5t141 -89.5t98 -167.5t35 -251.5v-135q0 -530 -539 -530q-61 0 -125 6l33 248q84 -6 141 2.5t100 38t63 87.5t20 148v135q0 159 -29.5 224t-110.5 65q-137 0 -137 -178q0 -154 101 -154q29 0 53 6v-233 q-57 -14 -123 -14q-68 0 -126.5 20t-106.5 62.5t-75.5 116.5t-27.5 173z" />
<glyph unicode="&#xe52;" horiz-adv-x="1198" d="M70 473v961h305v-961q0 -107 65 -167t170 -60q106 0 172 60.5t66 166.5v285q0 67 -21 67q-24 0 -24 -84h-119q0 86 -27 86q-24 0 -24 -100q0 -46 10.5 -73t27.5 -34t38.5 -9t42.5 3v-165q-64 -11 -97 -11q-121 0 -186.5 74.5t-65.5 214.5q0 39 2 70.5t7.5 75t19 76 t33.5 62.5t53.5 46t77.5 16q48 0 77 -11.5t40.5 -25t31.5 -45.5q27 45 56 63.5t98 18.5q117 0 173 -92.5t56 -249.5v-258q0 -239 -138 -359t-380 -120q-118 0 -215.5 29t-170.5 87t-113.5 150.5t-40.5 212.5z" />
<glyph unicode="&#xe53;" horiz-adv-x="1060" d="M59 401v328q0 370 254 373q75 1 134 -28.5t77 -74.5q14 46 70.5 74.5t134.5 28.5q75 0 127.5 -27.5t81.5 -80t41 -116.5t12 -149v-729h-311v739q0 21 -0.5 32.5t-3 28.5t-9.5 25.5t-18 8.5q-10 0 -16.5 -8.5t-8.5 -27t-2.5 -28.5t-0.5 -31v-229h-193v229q0 21 -0.5 32.5 t-3 28.5t-9 25.5t-16.5 8.5t-16.5 -8t-8.5 -25.5t-2.5 -28t-0.5 -33.5v-297q0 -54 1 -82t6.5 -53t14.5 -33.5t27 -14t41 -4.5t61 3q6 1 9 1t8.5 0.5t9.5 0.5v-254q-55 -8 -119 -8q-371 0 -371 403z" />
<glyph unicode="&#xe54;" horiz-adv-x="962" d="M59 309v303q0 131 17 215t63.5 147.5t131.5 91.5t218 28h62q58 0 83.5 24.5t23.5 63.5t-7 88h291q12 -112 1.5 -192.5t-53.5 -132t-125 -75.5t-214 -24h-62q-20 0 -35.5 -4t-27.5 -9.5t-20.5 -18.5t-14.5 -22.5t-10 -30.5t-6 -33.5t-3 -41t-1 -43.5v-49v-277 q0 -67 75 -67q18 0 68 10q-4 62 -4 102v300h408v-226h-121v-74q0 -67 28.5 -89.5t122.5 -22.5v-250q-128 0 -205.5 11t-124.5 46q-94 -65 -235 -65q-153 0 -238.5 79.5t-85.5 237.5z" />
<glyph unicode="&#xe55;" horiz-adv-x="962" d="M59 309v303q0 150 25 246t88 152q-41 54 -41 120q0 96 69 159t165 63q95 0 165 -63t70 -159q0 -20 -2 -30q34 8 48 32.5t12 57t-6 73.5q-1 4 -1 7h291q12 -112 1.5 -192.5t-53.5 -132t-125 -75.5t-214 -24h-62q-20 0 -35.5 -4t-27.5 -9.5t-20.5 -18.5t-14.5 -22.5 t-10 -30.5t-6 -33.5t-3 -41t-1 -43.5v-49v-277q0 -67 75 -67q18 0 68 10q-4 62 -4 102v300h408v-226h-121v-74q0 -67 28.5 -89.5t122.5 -22.5v-250q-128 0 -205.5 11t-124.5 46q-94 -65 -235 -65q-153 0 -238.5 79.5t-85.5 237.5zM297 1130q0 -26 19.5 -42.5t48.5 -16.5 q28 0 47.5 16.5t19.5 42.5q0 31 -19 49.5t-48 18.5q-30 0 -49 -18t-19 -50z" />
<glyph unicode="&#xe56;" horiz-adv-x="1017" d="M29 1331h311l47 -309q22 30 77 55t150 25q86 0 149 -25.5t100 -67.5t58.5 -109t29 -136t7.5 -162v-131q0 -117 -23.5 -203.5t-62.5 -138t-98 -82.5t-120 -42t-140 -11q-95 0 -173 20.5t-140 63t-96.5 116t-34.5 171.5q0 157 87.5 232t248.5 75q46 0 102 -6v-226 q-56 9 -59 9q-40 0 -56 -20t-16 -58q0 -131 137 -131q48 0 76 17t45.5 68.5t17.5 145.5v139q0 36 -1 57.5t-4.5 54.5t-12.5 52.5t-24 40t-39.5 30t-57.5 9.5q-104 0 -135 -76h-238z" />
<glyph unicode="&#xe57;" horiz-adv-x="1413" d="M59 401v328q0 370 254 373q75 1 134 -28.5t77 -74.5q14 46 70.5 74.5t134.5 28.5q61 0 105.5 -19t72 -50.5t44 -80.5t22.5 -102t6 -121v-450q0 -37 33 -37q32 0 32 37v1155h299v-1135q0 -90 -25 -153t-72 -97t-103.5 -48.5t-130.5 -14.5t-130.5 14.5t-104 48.5t-72.5 97 t-25 153v440q0 21 -0.5 32.5t-3 28.5t-9.5 25.5t-18 8.5q-10 0 -16.5 -8.5t-8.5 -27t-2.5 -28.5t-0.5 -31v-229h-193v229q0 21 -0.5 32.5t-3 28.5t-9 25.5t-16.5 8.5t-16.5 -8t-8.5 -25.5t-2.5 -28t-0.5 -33.5v-297q0 -54 1 -82t6.5 -53t14.5 -33.5t27 -14t41 -4.5t61 3 q6 1 9 1t8.5 0.5t9.5 0.5v-254q-55 -8 -119 -8q-371 0 -371 403z" />
<glyph unicode="&#xe58;" horiz-adv-x="1030" d="M59 340v272q0 131 17 215t63.5 147.5t131.5 91.5t218 28h103q58 0 83.5 24.5t23.5 63.5t-7 88h291q12 -112 1.5 -192.5t-53.5 -132t-125 -75.5t-214 -24h-103q-20 0 -35.5 -4t-27.5 -9.5t-20.5 -18.5t-14.5 -22.5t-10 -30.5t-6 -33.5t-3 -41t-1 -43.5v-49v-264 q0 -22 0.5 -32.5t3 -28t9 -25.5t17.5 -8q29 0 29 94v100h193v-100q0 -22 0.5 -32.5t2.5 -28t8.5 -25.5t16.5 -8t16.5 8t9 24.5t3 28.5t0.5 33v12q0 54 -1 82t-6.5 53t-14.5 33.5t-27 14t-41 4.5t-61 -3q-6 -1 -9 -1t-8.5 -0.5t-9.5 -0.5v226q82 10 137 10q165 0 248.5 -86 t83.5 -291v-43q0 -67 -6 -120t-22 -101.5t-41.5 -80.5t-67 -51t-97.5 -20q-75 -1 -134 28.5t-77 74.5q-14 -46 -70 -74.5t-134 -28.5q-75 0 -128 27.5t-81.5 80t-41 116.5t-12.5 149z" />
<glyph unicode="&#xe59;" horiz-adv-x="1073" d="M59 401v328q0 69 7 121.5t26.5 101.5t52 80.5t85.5 50.5t126 19q62 0 118 -21.5t87 -68.5q14 90 125 90q44 0 82.5 -22.5t46.5 -71.5l49 262h262l-116 -588h-199q-7 50 -16 81t-21 43t-19.5 14.5t-21.5 2.5q-24 0 -33 -17t2 -52l248 -754h-270l-260 791q-11 32 -31 32 q-18 0 -18 -28v-353q0 -26 0.5 -43.5t2 -36.5t3.5 -30.5t6.5 -24t10.5 -19t15 -13.5t20.5 -10t26.5 -5t33 -2t41 2v-254q-52 -6 -100 -6q-178 0 -274.5 99.5t-96.5 301.5z" />
<glyph unicode="&#xe5a;" horiz-adv-x="1392" d="M61 827q0 361 349 361q50 0 102 -6v-254q-24 6 -47 6q-88 0 -88 -111q0 -50 25.5 -83t76.5 -33q78 0 115 77v404h307v-1188h-307v506q-60 -60 -191 -60q-91 0 -158.5 30.5t-106.5 85t-58 121t-19 144.5zM1004 0v1188h307v-1188h-307z" />
<glyph unicode="&#xe5b;" horiz-adv-x="1417" d="M49 612q0 424 297 424q43 0 78 -11.5t58.5 -32.5t42 -49t28 -60.5t16.5 -69t8.5 -73.5t3 -73t-0.5 -68v-32h-181q0 9 0.5 36.5t0.5 45t-1 45t-5 45.5t-10 36t-17 27t-25 9q-15 0 -25.5 -9.5t-16.5 -25t-10.5 -35.5t-5 -42t-1.5 -43.5t0 -39.5v-18q0 -270 120 -270 q34 0 62.5 13t49.5 36t39 55t29 69.5t20.5 79t14 84t8 85t4 82t1.5 74t0 61.5v24h227l41 -317l27 241h198q0 -20 5.5 -55t15.5 -76t30 -70.5t44 -29.5h170v-221h-170q-142 0 -191 147l-70 -409h-157l-39 317q-40 -200 -129.5 -304.5t-224.5 -104.5q-84 0 -149.5 33 t-104 84.5t-63 120.5t-33.5 133t-9 132z" />
<glyph unicode="&#x2000;" horiz-adv-x="1148" />
<glyph unicode="&#x2001;" horiz-adv-x="2296" />
<glyph unicode="&#x2002;" horiz-adv-x="1148" />
<glyph unicode="&#x2003;" horiz-adv-x="2296" />
<glyph unicode="&#x2004;" horiz-adv-x="765" />
<glyph unicode="&#x2005;" horiz-adv-x="574" />
<glyph unicode="&#x2006;" horiz-adv-x="382" />
<glyph unicode="&#x2007;" horiz-adv-x="382" />
<glyph unicode="&#x2008;" horiz-adv-x="287" />
<glyph unicode="&#x2009;" horiz-adv-x="459" />
<glyph unicode="&#x200a;" horiz-adv-x="127" />
<glyph unicode="&#x2010;" horiz-adv-x="958" d="M70 563v256h819v-256h-819z" />
<glyph unicode="&#x2011;" horiz-adv-x="958" d="M70 563v256h819v-256h-819z" />
<glyph unicode="&#x2012;" horiz-adv-x="958" d="M70 563v256h819v-256h-819z" />
<glyph unicode="&#x2013;" horiz-adv-x="958" d="M70 563v256h819v-256h-819z" />
<glyph unicode="&#x2014;" horiz-adv-x="1081" d="M70 563v256h942v-256h-942z" />
<glyph unicode="&#x2018;" horiz-adv-x="559" d="M29 942l215 492h286l-174 -492h-327z" />
<glyph unicode="&#x2019;" horiz-adv-x="559" d="M29 942l174 492h327l-215 -492h-286z" />
<glyph unicode="&#x201a;" horiz-adv-x="450" d="M-20 -225l118 471h334l-176 -471h-276z" />
<glyph unicode="&#x201c;" horiz-adv-x="927" d="M29 942l215 492h266l-174 -492h-307zM418 942l215 492h266l-174 -492h-307z" />
<glyph unicode="&#x201d;" horiz-adv-x="927" d="M29 942l174 492h307l-215 -492h-266zM418 942l174 492h307l-215 -492h-266z" />
<glyph unicode="&#x201e;" horiz-adv-x="819" d="M-20 -225l118 471h314l-176 -471h-256zM369 -225l118 471h314l-176 -471h-256z" />
<glyph unicode="&#x2020;" horiz-adv-x="952" d="M49 813v260h270v361h314v-361h270v-260h-270v-813h-314v813h-270z" />
<glyph unicode="&#x2021;" horiz-adv-x="952" d="M49 360v265h270v188h-270v260h270v361h314v-361h270v-260h-270v-188h270v-265h-270v-360h-314v360h-270z" />
<glyph unicode="&#x2022;" horiz-adv-x="706" d="M49 649q0 126 91.5 214.5t215.5 88.5q125 0 213 -88t88 -215q0 -121 -89 -212t-212 -91q-124 0 -215.5 89t-91.5 214z" />
<glyph unicode="&#x2026;" horiz-adv-x="1304" d="M29 186q0 77 55 132t131 55q77 0 132.5 -55.5t55.5 -131.5t-55.5 -131t-132.5 -55t-131.5 55t-54.5 131zM465 186q0 77 55 132t131 55q77 0 133 -55.5t56 -131.5t-56 -131t-133 -55t-131.5 55t-54.5 131zM901 186q0 77 55 132t131 55q77 0 133 -55.5t56 -131.5t-56 -131 t-133 -55t-131.5 55t-54.5 131z" />
<glyph unicode="&#x202f;" horiz-adv-x="459" />
<glyph unicode="&#x2030;" horiz-adv-x="1859" d="M29 1073v25q0 342 270 342t270 -342v-25q0 -344 -270 -344t-270 344zM242 0l534 1434h264l-536 -1434h-262zM266 1075q0 -66 7.5 -94.5t25.5 -28.5q39 0 39 123v25q0 117 -39 117q-18 0 -25.5 -27.5t-7.5 -89.5v-25zM711 336v24q0 345 270 345q126 0 198 -82.5t72 -262.5 v-24q0 -342 -270 -342t-270 342zM946 338q0 -123 35 -123q37 0 37 123v24q0 117 -37 117q-35 0 -35 -117v-24zM1290 336v24q0 345 271 345q126 0 198 -82.5t72 -262.5v-24q0 -342 -270 -342q-271 0 -271 342zM1526 338q0 -123 35 -123q36 0 36 123v24q0 117 -36 117 q-35 0 -35 -117v-24z" />
<glyph unicode="&#x2039;" horiz-adv-x="882" d="M70 559v115l743 588v-349l-381 -299l381 -295v-348z" />
<glyph unicode="&#x203a;" horiz-adv-x="882" d="M70 -29v348l381 295l-381 299v349l743 -588v-115z" />
<glyph unicode="&#x2044;" horiz-adv-x="686" d="M8 0l363 1434h307l-363 -1434h-307z" />
<glyph unicode="&#x205f;" horiz-adv-x="574" />
<glyph unicode="&#x20ac;" horiz-adv-x="1083" d="M8 442v226h123v106h-123v225h152q97 443 532 443q96 0 184 -19t128 -38l40 -19l-69 -233q-121 38 -258 38q-159 0 -219 -172h319v-225h-354v-106h354v-226h-321q57 -180 221 -180q61 0 125.5 10t98.5 20l34 9l69 -233q-6 -3 -16.5 -8t-45.5 -18.5t-73.5 -23.5t-97.5 -18 t-119 -8q-437 0 -534 450h-150z" />
<glyph unicode="&#x2122;" horiz-adv-x="1417" d="M8 1233v201h629v-201h-197v-455h-235v455h-197zM682 778v656h238l118 -355l113 355h238v-656h-226v236l-69 -236h-117l-70 236v-236h-225z" />
<glyph unicode="&#x2212;" horiz-adv-x="958" d="M70 563v256h819v-256h-819z" />
<glyph unicode="&#x25cc;" horiz-adv-x="1132" d="M165 642q-3 20 9 34q16 16 39 16q16 0 29 -10q15 -10 16.5 -31.5t-12.5 -34.5q-13 -16 -37 -16q-16 0 -27 8q-14 14 -17 34zM274 396q-2 19 9 32q12 18 34 18q17 0 29 -12q17 -9 18.5 -29.5t-12.5 -33.5q-10 -17 -35 -17q-17 0 -28 8q-13 15 -15 34zM274 893q-2 18 9 33 q12 18 34 18q17 0 29 -12q17 -12 18.5 -32.5t-12.5 -35.5q-8 -16 -28 -16q-24 0 -35 14q-13 13 -15 31zM523 284q-1 20 12 33q13 19 38 19q17 0 25 -8q29 -32 10 -68q-16 -16 -39 -16q-18 0 -28 10q-17 10 -18 30zM523 998q-1 19 12 32q13 19 38 19q16 0 25 -9 q13 -13 16 -33.5t-6 -33.5q-20 -17 -39 -17q-13 0 -28 11q-17 12 -18 31zM772.5 396q-0.5 19 11.5 32q12 18 33 18q16 0 31 -12q15 -9 18 -29t-10 -34q-14 -17 -39 -17q-20 0 -31 8q-13 15 -13.5 34zM772.5 893q-0.5 18 11.5 33q12 18 33 18q16 0 31 -12t18 -32.5t-10 -35.5 q-11 -16 -33 -16q-23 0 -37 14q-13 13 -13.5 31zM876.5 642q-1.5 21 6.5 34q19 16 39 16q15 0 28 -10q14 -11 16.5 -31.5t-10.5 -34.5q-13 -16 -38 -16q-16 0 -27 8q-13 13 -14.5 34z" />
<glyph unicode="&#x25fc;" horiz-adv-x="1064" d="M0 0v1065h1065v-1065h-1065z" />
<glyph horiz-adv-x="1003" d="M37 1096q165 77 407 108l598 82v-242l-225 -30q59 -30 92 -102t33 -164q0 -339 -244 -748h-342l-131 451q-7 20 -26 20h-129v246h225q61 0 105 -29.5t59 -81.5l90 -313q37 95 60.5 220t23.5 214q0 119 -52.5 168t-144.5 49q-69 0 -154 -20t-149 -47z" />
<glyph horiz-adv-x="1576" d="M59 680v115q0 175 121 288t324 113q243 0 359 -117t116 -391v-244v-39t1 -34.5t3 -32t5.5 -26.5t8.5 -23.5t13 -17.5t18.5 -14.5t25 -7.5t31.5 -3q31 0 52 10t31.5 23.5t16 43.5t6.5 52.5t1 68.5v744h315v-715q0 -87 -6.5 -149.5t-23 -119.5t-46.5 -94t-76.5 -64.5 t-113 -39.5t-156.5 -12t-156.5 12t-113 39.5t-76 64.5t-46.5 94t-23 119.5t-6 149.5v225q0 137 -36 190.5t-124 53.5q-59 0 -99 -46.5t-40 -115.5l200 -43v-106q-89 -29 -127.5 -86.5t-38.5 -153.5v-8q0 -80 35 -110t131 -21v-246q-55 -6 -108 -6q-81 0 -147 18t-117.5 55.5 t-80 101.5t-28.5 151v20q0 204 209 285z" />
<glyph d="M-580 1507q0 107 75.5 176.5t182.5 69.5q106 0 184.5 -70t78.5 -176q0 -102 -78.5 -169.5t-184.5 -67.5t-182 67.5t-76 169.5zM-395 1507q0 -29 20.5 -48t52.5 -19q31 0 53.5 19t22.5 48q0 34 -22 54t-54 20q-33 0 -53 -19.5t-20 -54.5zM-373 1823v430h295v-430h-295z " />
<glyph d="M-653 2261q74 35 176 35q106 0 159.5 -38t53.5 -110q0 -89 -94 -137q96 35 192 35h166v-203h-616v117q120 45 120 121q0 53 -59 53q-31 0 -63 -14zM-580 1507q0 107 75.5 176.5t182.5 69.5q106 0 184.5 -70t78.5 -176q0 -102 -78.5 -169.5t-184.5 -67.5t-182 67.5 t-76 169.5zM-395 1507q0 -29 20.5 -48t52.5 -19q31 0 53.5 19t22.5 48q0 34 -22 54t-54 20q-33 0 -53 -19.5t-20 -54.5z" />
<glyph d="M-688 2009q0 215 170 215q54 0 84 -20t49 -58q16 39 43.5 58.5t89.5 19.5q42 0 70.5 -11.5t43.5 -27t23 -47t9.5 -56.5t1.5 -69v-35q0 -39 20 -39q12 0 16.5 12t6.5 36l24 247h184l-26 -266q-15 -166 -205 -166q-203 0 -203 166v23q0 19 -0.5 25.5t-2.5 17t-7 13.5t-14 3 q-13 0 -19 -10t-7 -20.5t-1 -34.5h-102q0 24 -1 34.5t-7.5 20.5t-20.5 10q-11 0 -16 -7t-6 -14t-1 -22q0 -36 16 -44.5t66 -8.5v-148q-141 -7 -209.5 36t-68.5 167zM-580 1507q0 107 75.5 176.5t182.5 69.5q106 0 184.5 -70t78.5 -176q0 -102 -78.5 -169.5t-184.5 -67.5 t-182 67.5t-76 169.5zM-395 1507q0 -29 20.5 -48t52.5 -19q31 0 53.5 19t22.5 48q0 34 -22 54t-54 20q-33 0 -53 -19.5t-20 -54.5z" />
<glyph d="M-580 1507q0 107 75.5 176.5t182.5 69.5q106 0 184.5 -70t78.5 -176q0 -102 -78.5 -169.5t-184.5 -67.5t-182 67.5t-76 169.5zM-541 1985v163h166v142h242v-142h166v-163h-166v-142h-242v142h-166zM-395 1507q0 -29 20.5 -48t52.5 -19q31 0 53.5 19t22.5 48q0 34 -22 54 t-54 20q-33 0 -53 -19.5t-20 -54.5z" />
<glyph d="M-688 1686h289q-4 -24 -2.5 -50t7 -48.5t27 -37t58.5 -14.5h239v-225h-233q-235 0 -319.5 81t-65.5 294z" />
<glyph d="M-799 1311v225h729v-225h-729z" />
<glyph d="M-799 1311v225h426v170h303v-395h-729z" />
<glyph d="M-799 1311v225h303q6 87 66 137.5t160 50.5q103 0 162 -55.5t59 -150.5t-59 -151t-162 -56h-529zM-338 1518q0 -31 18.5 -49.5t49.5 -18.5t49 18.5t18 49.5t-18 49t-49 18t-49.5 -18t-18.5 -49z" />
<glyph d="M-799 1311v225h224v170h213v-170h79v170h213v-395h-729z" />
<glyph d="M-373 1311v489h295v-489h-295z" />
<glyph d="M-692 1776q81 39 194 39q118 0 178 -42.5t60 -121.5q0 -100 -105 -154q107 39 213 39h82v-225h-581v129q133 50 133 135q0 57 -66 57q-34 0 -69 -14z" />
<glyph d="M-637 1532q0 111 42 175.5t146 64.5q60 0 93.5 -22.5t54.5 -63.5q17 43 48 64.5t99 21.5q34 0 59.5 -6.5t43 -16t29.5 -28.5t18 -35t9.5 -44.5t4 -49.5t0.5 -56v-39q0 -43 23 -43t26 53l27 275h205l-29 -295q-9 -93 -65 -138.5t-164 -45.5q-223 0 -223 184v24q0 26 -1 37 t-7.5 20t-20.5 9t-20.5 -11t-7.5 -23t-1 -38h-114q0 26 -1 38t-8 23t-22 11q-13 0 -19 -7.5t-7 -15.5t-1 -24q0 -40 17.5 -50t74.5 -10v-163q-156 -7 -232.5 40.5t-76.5 184.5z" />
<glyph d="M-498 1571v180h185v158h268v-158h184v-180h-184v-158h-268v158h-185z" />
<glyph d="M-776 1587q0 153 84 214t246 61h417v-205h-411q-60 0 -83.5 -15.5t-23.5 -54.5q0 -71 68 -71q39 0 56 22.5t17 77.5h158q0 -109 105 -109q28 0 73 9v-205q-54 -4 -103 -3.5t-92 28t-61 81.5q-23 -56 -66.5 -81t-115.5 -25q-34 0 -65.5 5t-70 22.5t-66.5 46t-47 80.5 t-19 122z" />
<glyph d="M-373 1311v430h295v-430h-295z" />
<glyph d="M-592 1729q74 34 176 34q213 0 213 -147q0 -89 -94 -137q97 34 193 34h165v-202h-616v116q121 46 121 121q0 54 -60 54q-28 0 -63 -15z" />
<glyph d="M-821 1509q0 215 170 215q54 0 84 -19.5t49 -57.5q16 39 43.5 58t89.5 19q35 0 60.5 -6.5t41.5 -22t25.5 -31t13.5 -43.5t5 -49.5t1 -58.5v-34q0 -39 21 -39q9 0 13.5 7t6 15t2.5 25l25 248h184l-26 -267q-15 -165 -205 -165q-203 0 -203 165v23q0 19 -0.5 25.5t-2.5 17 t-7 13.5t-14 3q-13 0 -19 -10t-7 -20.5t-1 -34.5h-102q0 24 -1 34.5t-7.5 20.5t-20.5 10q-11 0 -16 -7t-6 -14t-1 -22q0 -36 16 -44.5t66 -8.5v-147q-141 -7 -209.5 35.5t-68.5 166.5z" />
<glyph d="M-500 1452v164h166v141h242v-141h166v-164h-166v-141h-242v141h-166z" />
<glyph d="M-390 1606q10 71 51.5 116t116 65.5t193.5 20.5h213v-225h-237q-38 0 -55 -22.5t-15.5 -53.5t3.5 -63q1 -7 1 -10h-270q-11 101 -1 172z" />
<glyph d="M-545.5 1474.5q9.5 67.5 48.5 110.5t110 62.5t184 19.5h203v-215h-225q-13 0 -24 -2.5t-18 -9t-12 -11.5t-7.5 -16.5t-4.5 -18t-1.5 -21.5t0.5 -20t1.5 -22t1.5 -20h-256q-10 96 -0.5 163.5z" />
</font>
</defs>
</svg>
